999
DXF file: C:\Users\jjorden\Desktop\cu_filler-panel_ni-2800_switchb.dxf
999
Pro/ENGINEER 2021063 by Parametric Technology Corporation
  0
SECTION
  2
HEADER
  9
$ACADVER
  1
AC1032
  9
$DWGCODEPAGE
  3
ANSI_1252
  9
$EXTMAX
 10
17.0
 20
11.0
 30
0.0
  9
$EXTMIN
 10
0.0
 20
0.0
 30
0.0
  9
$LIMMIN
 10
0.0
 20
0.0
  9
$LIMMAX
 10
17.0
 20
11.0
  9
$VIEWCTR
 10
8.5
 20
5.5
  9
$VIEWSIZE
 40
11.0
  9
$CLAYER
  8
0
  9
$LTSCALE
 40
0.935
  9
$CELTYPE
  6
BYLAYER
  9
$DIMSCALE
 40
1.0
  9
$DIMASZ
 40
0.18
  9
$DIMEXO
 40
0.0625
  9
$DIMDLI
 40
0.646
  9
$DIMEXE
 40
0.125
  9
$DIMCEN
 40
0.153
  9
$DIMLFAC
 40
1.0
  9
$DIMBLK
  1
_FILLED
  9
$DIMALT
 70
1
  9
$DIMALTD
 70
1
  9
$DIMALTTD
 70
2
  9
$DIMALTF
 40
25.4
  9
$DIMTXT
 40
0.125
  9
$DIMTOL
 70
1
  9
$DIMLIM
 70
0
  9
$DIMTFAC
 40
1.0
  9
$DIMTP
 40
0.02
  9
$DIMTM
 40
0.02
  9
$DIMGAP
 40
0.09
  9
$DIMDSEP
 70
46
  9
$AUNITS
 70
0
  9
$PDMODE
 70
3
  9
$PDSIZE
 40
0.3125
  9
$HANDSEED
  5
6FD
  9
$TILEMODE
 70
1
  9
$MEASUREMENT
 70
0
  9
$INSUNITS
 70
1
  0
ENDSEC
  0
SECTION
  2
CLASSES
  0
CLASS
  1
ACDBDICTIONARYWDFLT
  2
AcDbDictionaryWithDefault
  3
AutoCAD 2000
 90
0
 91
1
280
0
281
0
  0
CLASS
  1
ACDBPLACEHOLDER
  2
AcDbPlaceHolder
  3
AutoCAD 2000
 90
0
 91
1
280
0
281
0
  0
CLASS
  1
LAYOUT
  2
AcDbLayout
  3
AutoCAD 2000
 90
0
 91
0
280
0
281
0
  0
CLASS
  1
TABLESTYLE
  2
AcDbTableStyle
  3
ObjectDBX Classes
 90
2047
 91
1
280
0
281
0
  0
CLASS
  1
ACAD_TABLE
  2
AcDbTable
  3
ObjectDBX Classes
 90
1025
 91
3
280
0
281
1
  0
ENDSEC
  0
SECTION
  2
TABLES
  0
TABLE
  2
VPORT
  5
8
100
AcDbSymbolTable
 70
2
  0
VPORT
  5
1F4
100
AcDbSymbolTableRecord
100
AcDbViewportTableRecord
  2
*ACTIVE
 70
0
 10
0.0
 20
0.0
 11
1.0
 21
1.0
 12
8.5
 22
5.5
 13
0.0
 23
0.0
 14
1.0
 24
1.0
 15
0.0
 25
0.0
 16
0.0
 26
0.0
 36
1.0
 17
0.0
 27
0.0
 37
0.0
 40
11.0
 41
1.5454545455
 42
50.0
 43
0.0
 44
0.0
 50
0.0
 51
0.0
 71
0
 72
100
 73
1
 74
1
 75
0
 76
0
 77
0
 78
0
  0
ENDTAB
  0
TABLE
  2
LTYPE
  5
5
100
AcDbSymbolTable
 70
6
  0
LTYPE
  5
14
100
AcDbSymbolTableRecord
100
AcDbLinetypeTableRecord
  2
BYBLOCK
 70
0
  3

 72
65
 73
0
 40
0.0
  0
LTYPE
  5
15
100
AcDbSymbolTableRecord
100
AcDbLinetypeTableRecord
  2
BYLAYER
 70
0
  3

 72
65
 73
0
 40
0.0
  0
LTYPE
  5
16
100
AcDbSymbolTableRecord
100
AcDbLinetypeTableRecord
  2
CONTINUOUS
 70
64
  3
Solid line
 72
65
 73
0
 40
0.0
  0
LTYPE
  5
1F5
100
AcDbSymbolTableRecord
100
AcDbLinetypeTableRecord
  2
CENTER
 70
64
  3
____ _ ____ _ ____ _ ____ _ ____ _ ____ _ ____
 72
65
 73
4
 40
0.6
 49
0.375
 74
0
 49
-0.075
 74
0
 49
0.075
 74
0
 49
-0.075
 74
0
  0
LTYPE
  5
1F6
100
AcDbSymbolTableRecord
100
AcDbLinetypeTableRecord
  2
HIDDEN
 70
64
  3
- - - - - - - - - - - - - - - - - - - -
 72
65
 73
2
 40
0.2
 49
0.1
 74
0
 49
-0.1
 74
0
  0
LTYPE
  5
1F7
100
AcDbSymbolTableRecord
100
AcDbLinetypeTableRecord
  2
PHANTOM
 70
64
  3
_____ _ _ _____ _ _ _____ _ _ _____
 72
65
 73
6
 40
0.8
 49
0.45
 74
0
 49
-0.05
 74
0
 49
0.1
 74
0
 49
-0.05
 74
0
 49
0.1
 74
0
 49
-0.05
 74
0
  0
LTYPE
  5
1F8
100
AcDbSymbolTableRecord
100
AcDbLinetypeTableRecord
  2
DOT
 70
64
  3
. . . . . . . . . . . . . . . . . . . .
 72
65
 73
2
 40
0.2
 49
0.1
 74
0
 49
-0.1
 74
0
  0
LTYPE
  5
1F9
100
AcDbSymbolTableRecord
100
AcDbLinetypeTableRecord
  2
DASHED
 70
64
  3
- - - - - - - - - - - - - - - - - - - -
 72
65
 73
2
 40
0.2
 49
0.1
 74
0
 49
-0.1
 74
0
  0
ENDTAB
  0
TABLE
  2
LAYER
  5
2
100
AcDbSymbolTable
 70
36
  0
LAYER
  5
10
100
AcDbSymbolTableRecord
100
AcDbLayerTableRecord
  2
0
 70
0
 62
7
  6
CONTINUOUS
370
-3
390
F
  0
LAYER
  5
1FA
100
AcDbSymbolTableRecord
100
AcDbLayerTableRecord
  2
DEFAULT_1
 70
0
 62
7
  6
CENTER
370
-3
390
F
  0
LAYER
  5
1FB
100
AcDbSymbolTableRecord
100
AcDbLayerTableRecord
  2
DEFAULT_2
 70
0
 62
8
  6
HIDDEN
370
-3
390
F
  0
LAYER
  5
1FC
100
AcDbSymbolTableRecord
100
AcDbLayerTableRecord
  2
DEFAULT_3
 70
0
 62
7
  6
PHANTOM
370
-3
390
F
  0
LAYER
  5
1FD
100
AcDbSymbolTableRecord
100
AcDbLayerTableRecord
  2
01___PRT_ALL_DTM_PLN
 70
0
 62
7
  6
CONTINUOUS
370
-3
390
F
  0
LAYER
  5
1FE
100
AcDbSymbolTableRecord
100
AcDbLayerTableRecord
  2
01___PRT_DEF_DTM_PLN
 70
0
 62
7
  6
CONTINUOUS
370
-3
390
F
  0
LAYER
  5
1FF
100
AcDbSymbolTableRecord
100
AcDbLayerTableRecord
  2
02___PRT_ALL_AXES
 70
0
 62
7
  6
CONTINUOUS
370
-3
390
F
  0
LAYER
  5
200
100
AcDbSymbolTableRecord
100
AcDbLayerTableRecord
  2
03___PRT_ALL_CURVES
 70
0
 62
7
  6
CONTINUOUS
370
-3
390
F
  0
LAYER
  5
201
100
AcDbSymbolTableRecord
100
AcDbLayerTableRecord
  2
04___PRT_ALL_DTM_PNT
 70
0
 62
7
  6
CONTINUOUS
370
-3
390
F
  0
LAYER
  5
202
100
AcDbSymbolTableRecord
100
AcDbLayerTableRecord
  2
05___PRT_ALL_DTM_CSYS
 70
0
 62
7
  6
CONTINUOUS
370
-3
390
F
  0
LAYER
  5
203
100
AcDbSymbolTableRecord
100
AcDbLayerTableRecord
  2
05___PRT_DEF_DTM_CSYS
 70
0
 62
7
  6
CONTINUOUS
370
-3
390
F
  0
LAYER
  5
204
100
AcDbSymbolTableRecord
100
AcDbLayerTableRecord
  2
06___PRT_ALL_SURFS
 70
0
 62
7
  6
CONTINUOUS
370
-3
390
F
  0
LAYER
  5
205
100
AcDbSymbolTableRecord
100
AcDbLayerTableRecord
  2
1
 70
0
 62
7
  6
CONTINUOUS
370
-3
390
F
  0
LAYER
  5
206
100
AcDbSymbolTableRecord
100
AcDbLayerTableRecord
  2
10
 70
0
 62
7
  6
CONTINUOUS
370
-3
390
F
  0
LAYER
  5
207
100
AcDbSymbolTableRecord
100
AcDbLayerTableRecord
  2
11
 70
0
 62
7
  6
CONTINUOUS
370
-3
390
F
  0
LAYER
  5
208
100
AcDbSymbolTableRecord
100
AcDbLayerTableRecord
  2
12
 70
0
 62
7
  6
CONTINUOUS
370
-3
390
F
  0
LAYER
  5
209
100
AcDbSymbolTableRecord
100
AcDbLayerTableRecord
  2
13
 70
0
 62
7
  6
CONTINUOUS
370
-3
390
F
  0
LAYER
  5
20A
100
AcDbSymbolTableRecord
100
AcDbLayerTableRecord
  2
14
 70
0
 62
7
  6
CONTINUOUS
370
-3
390
F
  0
LAYER
  5
20B
100
AcDbSymbolTableRecord
100
AcDbLayerTableRecord
  2
15
 70
0
 62
7
  6
CONTINUOUS
370
-3
390
F
  0
LAYER
  5
20C
100
AcDbSymbolTableRecord
100
AcDbLayerTableRecord
  2
16
 70
0
 62
7
  6
CONTINUOUS
370
-3
390
F
  0
LAYER
  5
20D
100
AcDbSymbolTableRecord
100
AcDbLayerTableRecord
  2
17
 70
0
 62
7
  6
CONTINUOUS
370
-3
390
F
  0
LAYER
  5
20E
100
AcDbSymbolTableRecord
100
AcDbLayerTableRecord
  2
18
 70
0
 62
7
  6
CONTINUOUS
370
-3
390
F
  0
LAYER
  5
20F
100
AcDbSymbolTableRecord
100
AcDbLayerTableRecord
  2
19
 70
0
 62
7
  6
CONTINUOUS
370
-3
390
F
  0
LAYER
  5
210
100
AcDbSymbolTableRecord
100
AcDbLayerTableRecord
  2
2
 70
0
 62
7
  6
CONTINUOUS
370
-3
390
F
  0
LAYER
  5
211
100
AcDbSymbolTableRecord
100
AcDbLayerTableRecord
  2
20
 70
0
 62
7
  6
CONTINUOUS
370
-3
390
F
  0
LAYER
  5
212
100
AcDbSymbolTableRecord
100
AcDbLayerTableRecord
  2
21
 70
0
 62
7
  6
CONTINUOUS
370
-3
390
F
  0
LAYER
  5
213
100
AcDbSymbolTableRecord
100
AcDbLayerTableRecord
  2
22
 70
0
 62
7
  6
CONTINUOUS
370
-3
390
F
  0
LAYER
  5
214
100
AcDbSymbolTableRecord
100
AcDbLayerTableRecord
  2
23
 70
0
 62
7
  6
CONTINUOUS
370
-3
390
F
  0
LAYER
  5
215
100
AcDbSymbolTableRecord
100
AcDbLayerTableRecord
  2
24
 70
0
 62
7
  6
CONTINUOUS
370
-3
390
F
  0
LAYER
  5
216
100
AcDbSymbolTableRecord
100
AcDbLayerTableRecord
  2
25
 70
0
 62
7
  6
CONTINUOUS
370
-3
390
F
  0
LAYER
  5
217
100
AcDbSymbolTableRecord
100
AcDbLayerTableRecord
  2
26
 70
0
 62
7
  6
CONTINUOUS
370
-3
390
F
  0
LAYER
  5
218
100
AcDbSymbolTableRecord
100
AcDbLayerTableRecord
  2
27
 70
0
 62
7
  6
CONTINUOUS
370
-3
390
F
  0
LAYER
  5
219
100
AcDbSymbolTableRecord
100
AcDbLayerTableRecord
  2
28
 70
0
 62
7
  6
CONTINUOUS
370
-3
390
F
  0
LAYER
  5
21A
100
AcDbSymbolTableRecord
100
AcDbLayerTableRecord
  2
29
 70
0
 62
7
  6
CONTINUOUS
370
-3
390
F
  0
LAYER
  5
21B
100
AcDbSymbolTableRecord
100
AcDbLayerTableRecord
  2
3
 70
0
 62
7
  6
CONTINUOUS
370
-3
390
F
  0
LAYER
  5
21C
100
AcDbSymbolTableRecord
100
AcDbLayerTableRecord
  2
30
 70
0
 62
7
  6
CONTINUOUS
370
-3
390
F
  0
LAYER
  5
21D
100
AcDbSymbolTableRecord
100
AcDbLayerTableRecord
  2
31
 70
0
 62
7
  6
CONTINUOUS
370
-3
390
F
  0
LAYER
  5
21E
100
AcDbSymbolTableRecord
100
AcDbLayerTableRecord
  2
32
 70
0
 62
7
  6
CONTINUOUS
370
-3
390
F
  0
LAYER
  5
21F
100
AcDbSymbolTableRecord
100
AcDbLayerTableRecord
  2
4
 70
0
 62
7
  6
CONTINUOUS
370
-3
390
F
  0
LAYER
  5
220
100
AcDbSymbolTableRecord
100
AcDbLayerTableRecord
  2
5
 70
0
 62
7
  6
CONTINUOUS
370
-3
390
F
  0
LAYER
  5
221
100
AcDbSymbolTableRecord
100
AcDbLayerTableRecord
  2
6
 70
0
 62
7
  6
CONTINUOUS
370
-3
390
F
  0
LAYER
  5
222
100
AcDbSymbolTableRecord
100
AcDbLayerTableRecord
  2
7
 70
0
 62
7
  6
CONTINUOUS
370
-3
390
F
  0
LAYER
  5
223
100
AcDbSymbolTableRecord
100
AcDbLayerTableRecord
  2
8
 70
0
 62
7
  6
CONTINUOUS
370
-3
390
F
  0
LAYER
  5
224
100
AcDbSymbolTableRecord
100
AcDbLayerTableRecord
  2
9
 70
0
 62
7
  6
CONTINUOUS
370
-3
390
F
  0
LAYER
  5
225
100
AcDbSymbolTableRecord
100
AcDbLayerTableRecord
  2
COOR_SYS
 70
0
 62
7
  6
CONTINUOUS
370
-3
390
F
  0
LAYER
  5
226
100
AcDbSymbolTableRecord
100
AcDbLayerTableRecord
  2
DATUM
 70
0
 62
7
  6
CONTINUOUS
370
-3
390
F
  0
LAYER
  5
227
100
AcDbSymbolTableRecord
100
AcDbLayerTableRecord
  2
DETAIL
 70
0
 62
7
  6
CONTINUOUS
370
-3
390
F
  0
LAYER
  5
228
100
AcDbSymbolTableRecord
100
AcDbLayerTableRecord
  2
DIMENSIONS
 70
0
 62
7
  6
CONTINUOUS
370
-3
390
F
  0
LAYER
  5
229
100
AcDbSymbolTableRecord
100
AcDbLayerTableRecord
  2
NOTE
 70
0
 62
7
  6
CONTINUOUS
370
-3
390
F
  0
LAYER
  5
22A
100
AcDbSymbolTableRecord
100
AcDbLayerTableRecord
  2
REF_DIM
 70
0
 62
7
  6
CONTINUOUS
370
-3
390
F
  0
ENDTAB
  0
TABLE
  2
STYLE
  5
3
100
AcDbSymbolTable
 70
1
  0
STYLE
  5
11
100
AcDbSymbolTableRecord
100
AcDbTextStyleTableRecord
  2
STANDARD
 70
0
 40
0.0
 41
0.8
 50
0.0
 71
0
 42
0.2
  3
txt
  4

  0
STYLE
  5
22B
100
AcDbSymbolTableRecord
100
AcDbTextStyleTableRecord
  2
TEXTSTYLE_1
 70
0
 40
0.0
 41
0.8
 50
0.0
 71
0
 42
0.2
  3
gdt
  4

  0
STYLE
  5
22C
100
AcDbSymbolTableRecord
100
AcDbTextStyleTableRecord
  2
TEXTSTYLE_2
 70
0
 40
0.0
 41
1.0
 50
0.0
 71
0
 42
0.2
  3
txt
  4

  0
STYLE
  5
22D
100
AcDbSymbolTableRecord
100
AcDbTextStyleTableRecord
  2
TEXTSTYLE_3
 70
0
 40
0.0
 41
0.95
 50
0.0
 71
0
 42
0.2
  3
txt
  4

  0
ENDTAB
  0
TABLE
  2
VIEW
  5
6
100
AcDbSymbolTable
 70
0
  0
ENDTAB
  0
TABLE
  2
UCS
  5
7
100
AcDbSymbolTable
 70
0
  0
ENDTAB
  0
TABLE
  2
APPID
  5
9
100
AcDbSymbolTable
 70
1
  0
APPID
  5
22E
100
AcDbSymbolTableRecord
100
AcDbRegAppTableRecord
  2
ACAD
 70
0
  0
ENDTAB
  0
TABLE
  2
BLOCK_RECORD
  5
1
100
AcDbSymbolTable
 70
0
  0
BLOCK_RECORD
  5
22F
100
AcDbSymbolTableRecord
100
AcDbBlockTableRecord
  2
*Model_Space
  0
BLOCK_RECORD
  5
230
100
AcDbSymbolTableRecord
100
AcDbBlockTableRecord
  2
*Paper_Space
  0
BLOCK_RECORD
  5
231
100
AcDbSymbolTableRecord
100
AcDbBlockTableRecord
  2
_FILLED
  0
BLOCK_RECORD
  5
232
100
AcDbSymbolTableRecord
100
AcDbBlockTableRecord
  2
*D0
  0
BLOCK_RECORD
  5
233
100
AcDbSymbolTableRecord
100
AcDbBlockTableRecord
  2
*D1
  0
BLOCK_RECORD
  5
234
100
AcDbSymbolTableRecord
100
AcDbBlockTableRecord
  2
*D2
  0
BLOCK_RECORD
  5
235
100
AcDbSymbolTableRecord
100
AcDbBlockTableRecord
  2
*D3
  0
BLOCK_RECORD
  5
236
100
AcDbSymbolTableRecord
100
AcDbBlockTableRecord
  2
*D4
  0
BLOCK_RECORD
  5
237
100
AcDbSymbolTableRecord
100
AcDbBlockTableRecord
  2
*D5
  0
BLOCK_RECORD
  5
238
100
AcDbSymbolTableRecord
100
AcDbBlockTableRecord
  2
*D6
  0
BLOCK_RECORD
  5
239
100
AcDbSymbolTableRecord
100
AcDbBlockTableRecord
  2
*D7
  0
BLOCK_RECORD
  5
23A
100
AcDbSymbolTableRecord
100
AcDbBlockTableRecord
  2
*D8
  0
BLOCK_RECORD
  5
23B
100
AcDbSymbolTableRecord
100
AcDbBlockTableRecord
  2
*D9
  0
BLOCK_RECORD
  5
23C
100
AcDbSymbolTableRecord
100
AcDbBlockTableRecord
  2
*D10
  0
BLOCK_RECORD
  5
23D
100
AcDbSymbolTableRecord
100
AcDbBlockTableRecord
  2
*D11
  0
BLOCK_RECORD
  5
23E
100
AcDbSymbolTableRecord
100
AcDbBlockTableRecord
  2
NOTES_HEADER_BL2
  0
BLOCK_RECORD
  5
23F
100
AcDbSymbolTableRecord
100
AcDbBlockTableRecord
  2
METRIC_BL1
  0
BLOCK_RECORD
  5
240
100
AcDbSymbolTableRecord
100
AcDbBlockTableRecord
  2
CUSTOM_NOTE_BL0
  0
BLOCK_RECORD
  5
241
100
AcDbSymbolTableRecord
100
AcDbBlockTableRecord
  2
*T1
  0
BLOCK_RECORD
  5
242
100
AcDbSymbolTableRecord
100
AcDbBlockTableRecord
  2
*T2
  0
BLOCK_RECORD
  5
243
100
AcDbSymbolTableRecord
100
AcDbBlockTableRecord
  2
*T3
  0
ENDTAB
  0
TABLE
  2
DIMSTYLE
  5
A
100
AcDbSymbolTable
 70
1
100
AcDbDimStyleTable
 71
0
  0
DIMSTYLE
105
244
100
AcDbSymbolTableRecord
100
AcDbDimStyleTableRecord
  2
STANDARD
 70
0
  3

  4

 40
1.0
 41
0.18
 42
0.0625
 43
0.38
 44
0.125
 45
0.0
 46
0.0
 47
0.02
 48
0.02
140
0.125
141
0.09
142
0.0
143
1.0
144
1.0
145
0.0
146
1.0
147
0.09
 71
1
 72
0
 73
1
 74
1
 75
0
 76
0
 77
0
 78
0
 79
0
170
1
171
1
172
0
173
0
174
0
175
0
176
0
177
0
178
0
270
2
179
2
271
2
272
2
273
2
274
2
275
0
280
0
281
0
282
0
283
1
284
0
285
0
286
0
287
3
288
0
340
11
278
46
341
231
342
231
343
231
344
231
  0
DIMSTYLE
105
245
100
AcDbSymbolTableRecord
100
AcDbDimStyleTableRecord
  2
DIMSTYLE_1
 70
0
  3

  4

 40
1.0
 41
0.18
 42
0.0625
 43
0.38
 44
0.125
 45
0.0
 46
0.0
 47
0.01
 48
0.01
140
0.125
141
0.09
142
0.0
143
1.0
144
1.0
145
0.0
146
1.0
147
0.03125
 71
0
 72
0
 73
1
 74
1
 75
0
 76
0
 77
0
 78
0
 79
0
170
1
171
3
172
0
173
0
174
0
175
0
176
0
177
0
178
0
270
2
179
2
271
2
272
2
273
2
274
3
275
0
280
0
281
0
282
0
283
1
284
0
285
0
286
0
287
3
288
0
340
11
278
46
341
231
342
231
343
231
344
231
  0
DIMSTYLE
105
246
100
AcDbSymbolTableRecord
100
AcDbDimStyleTableRecord
  2
DIMSTYLE_2
 70
0
  3

  4

 40
1.0
 41
0.18
 42
0.0625
 43
0.38
 44
0.125
 45
0.0
 46
0.0
 47
0.01
 48
0.01
140
0.125
141
0.09
142
0.0
143
1.0
144
1.0
145
0.0
146
1.0
147
0.0625
 71
0
 72
0
 73
1
 74
1
 75
0
 76
0
 77
0
 78
0
 79
0
170
1
171
3
172
0
173
0
174
0
175
0
176
0
177
0
178
0
270
2
179
2
271
2
272
2
273
2
274
-1
275
0
280
0
281
0
282
0
283
1
284
0
285
0
286
0
287
3
288
0
340
11
278
46
341
231
342
231
343
231
344
231
  0
ENDTAB
  0
ENDSEC
  0
SECTION
  2
BLOCKS
  0
BLOCK
  5
20
100
AcDbEntity
  8
0
100
AcDbBlockBegin
  2
*Model_Space
 70
0
 10
0.0
 20
0.0
 30
0.0
  3
*Model_Space
  1

  0
ENDBLK
  5
21
100
AcDbEntity
  8
0
100
AcDbBlockEnd
  0
BLOCK
  5
1C
100
AcDbEntity
  8
0
100
AcDbBlockBegin
  2
*Paper_Space
 70
0
 10
0.0
 20
0.0
 30
0.0
  3
*Paper_Space
  1

  0
ENDBLK
  5
1D
100
AcDbEntity
  8
0
100
AcDbBlockEnd
  0
BLOCK
  5
247
100
AcDbEntity
  8
DETAIL
100
AcDbBlockBegin
 62
2
  6
CONTINUOUS
  2
NOTES_HEADER_BL2
 70
64
 10
3.1215
 20
0.9375
  3
NOTES_HEADER_BL2
  1

  0
TEXT
  5
248
100
AcDbEntity
  8
DETAIL
100
AcDbText
 62
2
  6
CONTINUOUS
 10
0.9375
 20
0.8595
  7
STANDARD
 40
0.156
  1
NOTES:  UNLESS OTHERWISE SPECIFIED.
 41
0.8
 72
0
100
AcDbText
  0
ENDBLK
  5
249
100
AcDbEntity
  8
0
  6
BYBLOCK
 62
0
100
AcDbBlockEnd
  0
BLOCK
  5
24A
100
AcDbEntity
  8
0
100
AcDbBlockBegin
 62
2
  6
CONTINUOUS
  2
METRIC_BL1
 70
64
 10
12.2427668563
 20
2.2045347211
  3
METRIC_BL1
  1

  0
TEXT
  5
24B
100
AcDbEntity
  8
0
100
AcDbText
 62
2
  6
CONTINUOUS
 10
11.7640862908
 20
2.1034262814
  7
STANDARD
 40
0.2
  1
METRIC
 41
0.8
 72
0
100
AcDbText
  0
LWPOLYLINE
  5
24C
100
AcDbEntity
  8
0
100
AcDbPolyline
 62
7
  6
CONTINUOUS
 90
2
 70
0
 43
0.0154545455
 10
11.5627668563
 20
2.3845347211
 10
12.9227668563
 20
2.3845347211
  0
LWPOLYLINE
  5
24D
100
AcDbEntity
  8
0
100
AcDbPolyline
 62
7
  6
CONTINUOUS
 90
2
 70
0
 43
0.0154545455
 10
11.5627668563
 20
2.0245347211
 10
12.9227668563
 20
2.0245347211
  0
LWPOLYLINE
  5
24E
100
AcDbEntity
  8
0
100
AcDbPolyline
 62
7
  6
CONTINUOUS
 90
2
 70
0
 43
0.0154545455
 10
12.9227668563
 20
2.3845347211
 10
12.9227668563
 20
2.0245347211
  0
LWPOLYLINE
  5
24F
100
AcDbEntity
  8
0
100
AcDbPolyline
 62
7
  6
CONTINUOUS
 90
2
 70
0
 43
0.0154545455
 10
11.5627668563
 20
2.3845347211
 10
11.5627668563
 20
2.0245347211
  0
ENDBLK
  5
250
100
AcDbEntity
  8
0
  6
BYBLOCK
 62
0
100
AcDbBlockEnd
  0
BLOCK
  5
251
100
AcDbEntity
  8
0
100
AcDbBlockBegin
 62
2
  6
CONTINUOUS
  2
CUSTOM_NOTE_BL0
 70
64
 10
3.6750529031
 20
1.3123857822
  3
CUSTOM_NOTE_BL0
  1

  0
TEXT
  5
252
100
AcDbEntity
  8
0
100
AcDbText
 62
2
  6
CONTINUOUS
 10
0.9376058062
 20
1.2497715643
  7
STANDARD
 40
0.125
  1
1.
 41
0.8
 72
0
100
AcDbText
  0
TEXT
  5
253
100
AcDbEntity
  8
0
100
AcDbText
 62
2
  6
CONTINUOUS
 10
1.3125
 20
1.25
  7
STANDARD
 40
0.125
  1
REFER TO PRODUCT MANUAL ON NI.COM FOR MORE DETAILS.
 41
0.8
 72
0
100
AcDbText
  0
ENDBLK
  5
254
100
AcDbEntity
  8
0
  6
BYBLOCK
 62
0
100
AcDbBlockEnd
  0
BLOCK
  5
255
100
AcDbEntity
  8
0
100
AcDbBlockBegin
  2
_FILLED
 70
64
 10
0.0
 20
0.0
  3
_FILLED
  1

  0
SOLID
  5
256
100
AcDbEntity
  8
0
  6
BYBLOCK
 62
0
100
AcDbTrace
 10
0.0
 20
0.0
 11
-1.0
 21
0.1736111111
 12
-1.0
 22
-0.1736111111
 13
-1.0
 23
-0.1736111111
  0
ENDBLK
  5
257
100
AcDbEntity
  8
0
  6
BYBLOCK
 62
0
100
AcDbBlockEnd
  0
BLOCK
  5
258
100
AcDbEntity
  8
DIMENSIONS
100
AcDbBlockBegin
 62
2
  6
CONTINUOUS
  2
*D0
 70
65
 10
0.0
 20
0.0
  3
*D0
  1

  0
MTEXT
  5
259
100
AcDbEntity
  8
DIMENSIONS
100
AcDbMText
 62
2
  6
CONTINUOUS
  7
STANDARD
 71
3
 72
1
 10
5.1916497976
 20
3.2320934708
 30
0.0
 11
1.0
 21
0.0
 31
0.0
 73
2
 44
0.9
  1
0.12{\ftxt.shx;\W1.000000;\H0.125000; }[.120]
 40
0.125
 41
1.125
  0
LINE
  5
25A
100
AcDbEntity
  8
DIMENSIONS
100
AcDbLine
 62
2
  6
CONTINUOUS
 10
5.8791497976
 20
3.3264736842
 11
5.6923150667
 21
3.3264736842
  0
LINE
  5
25B
100
AcDbEntity
  8
DIMENSIONS
100
AcDbLine
 62
2
  6
CONTINUOUS
 10
5.6923150667
 20
3.3264736842
 11
5.5089528641
 21
3.1695934708
  0
LINE
  5
25C
100
AcDbEntity
  8
DIMENSIONS
100
AcDbLine
 62
2
  6
CONTINUOUS
 10
5.5089528641
 20
3.1695934708
 11
5.2541497976
 21
3.1695934708
  0
ENDBLK
  5
25D
100
AcDbEntity
  8
0
  6
BYBLOCK
 62
0
100
AcDbBlockEnd
  0
BLOCK
  5
25E
100
AcDbEntity
  8
DIMENSIONS
100
AcDbBlockBegin
 62
2
  6
CONTINUOUS
  2
*D1
 70
65
 10
0.0
 20
0.0
  3
*D1
  1

  0
MTEXT
  5
25F
100
AcDbEntity
  8
DIMENSIONS
100
AcDbMText
 62
2
  6
CONTINUOUS
  7
STANDARD
 71
3
 72
1
 10
5.1916497976
 20
3.5089736842
 30
0.0
 11
1.0
 21
0.0
 31
0.0
 73
2
 44
0.9
  1
0.00{\ftxt.shx;\W1.000000;\H0.125000; }[.000]
 40
0.125
 41
1.125
  0
LINE
  5
260
100
AcDbEntity
  8
DIMENSIONS
100
AcDbLine
 62
2
  6
CONTINUOUS
 10
5.9056497976
 20
3.4464736842
 11
5.2541497976
 21
3.4464736842
  0
ENDBLK
  5
261
100
AcDbEntity
  8
0
  6
BYBLOCK
 62
0
100
AcDbBlockEnd
  0
BLOCK
  5
262
100
AcDbEntity
  8
DIMENSIONS
100
AcDbBlockBegin
 62
2
  6
CONTINUOUS
  2
*D2
 70
65
 10
0.0
 20
0.0
  3
*D2
  1

  0
MTEXT
  5
263
100
AcDbEntity
  8
DIMENSIONS
100
AcDbMText
 62
2
  6
CONTINUOUS
  7
STANDARD
 71
3
 72
1
 10
5.1916497976
 20
7.9463365814
 30
0.0
 11
1.0
 21
0.0
 31
0.0
 73
2
 44
0.9
  1
4.27{\ftxt.shx;\W1.000000;\H0.125000; }[4.271]
 40
0.125
 41
1.225
  0
LINE
  5
264
100
AcDbEntity
  8
DIMENSIONS
100
AcDbLine
 62
2
  6
CONTINUOUS
 10
5.8791497976
 20
7.7174736842
 11
5.6626070505
 21
7.7174736842
  0
LINE
  5
265
100
AcDbEntity
  8
DIMENSIONS
100
AcDbLine
 62
2
  6
CONTINUOUS
 10
5.6626070505
 20
7.7174736842
 11
5.4366934543
 21
7.8838365814
  0
LINE
  5
266
100
AcDbEntity
  8
DIMENSIONS
100
AcDbLine
 62
2
  6
CONTINUOUS
 10
5.4366934543
 20
7.8838365814
 11
5.2541497976
 21
7.8838365814
  0
ENDBLK
  5
267
100
AcDbEntity
  8
0
  6
BYBLOCK
 62
0
100
AcDbBlockEnd
  0
BLOCK
  5
268
100
AcDbEntity
  8
DIMENSIONS
100
AcDbBlockBegin
 62
2
  6
CONTINUOUS
  2
*D3
 70
65
 10
0.0
 20
0.0
  3
*D3
  1

  0
MTEXT
  5
269
100
AcDbEntity
  8
DIMENSIONS
100
AcDbMText
 62
2
  6
CONTINUOUS
  7
STANDARD
 71
3
 72
1
 10
5.1916497976
 20
7.6599736842
 30
0.0
 11
1.0
 21
0.0
 31
0.0
 73
2
 44
0.9
  1
4.15{\ftxt.shx;\W1.000000;\H0.125000; }[4.151]
 40
0.125
 41
1.225
  0
LINE
  5
26A
100
AcDbEntity
  8
DIMENSIONS
100
AcDbLine
 62
2
  6
CONTINUOUS
 10
5.9056497976
 20
7.5974736842
 11
5.2541497976
 21
7.5974736842
  0
ENDBLK
  5
26B
100
AcDbEntity
  8
0
  6
BYBLOCK
 62
0
100
AcDbBlockEnd
  0
BLOCK
  5
26C
100
AcDbEntity
  8
DIMENSIONS
100
AcDbBlockBegin
 62
2
  6
CONTINUOUS
  2
*D4
 70
65
 10
0.0
 20
0.0
  3
*D4
  1

  0
MTEXT
  5
26D
100
AcDbEntity
  8
DIMENSIONS
100
AcDbMText
 62
2
  6
CONTINUOUS
  7
STANDARD
 71
1
 72
1
 10
9.2542202013
 20
8.4691325475
 30
0.0
 11
0.0
 21
1.0
 31
0.0
 73
2
 44
0.9
  1
0.11{\ftxt.shx;\W1.000000;\H0.125000; }[.105]
 40
0.125
 41
1.125
  0
LINE
  5
26E
100
AcDbEntity
  8
DIMENSIONS
100
AcDbLine
 62
2
  6
CONTINUOUS
 10
9.4051388931
 20
7.7799736842
 11
9.4051388931
 21
8.1109003809
  0
LINE
  5
26F
100
AcDbEntity
  8
DIMENSIONS
100
AcDbLine
 62
2
  6
CONTINUOUS
 10
9.4051388931
 20
8.1109003809
 11
9.3167202013
 21
8.2213192544
  0
LINE
  5
270
100
AcDbEntity
  8
DIMENSIONS
100
AcDbLine
 62
2
  6
CONTINUOUS
 10
9.3167202013
 20
8.2213192544
 11
9.3167202013
 21
8.4066325475
  0
ENDBLK
  5
271
100
AcDbEntity
  8
0
  6
BYBLOCK
 62
0
100
AcDbBlockEnd
  0
BLOCK
  5
272
100
AcDbEntity
  8
DIMENSIONS
100
AcDbBlockBegin
 62
2
  6
CONTINUOUS
  2
*D5
 70
65
 10
0.0
 20
0.0
  3
*D5
  1

  0
MTEXT
  5
273
100
AcDbEntity
  8
DIMENSIONS
100
AcDbMText
 62
2
  6
CONTINUOUS
  7
STANDARD
 71
1
 72
1
 10
9.4476388931
 20
8.4691325475
 30
0.0
 11
0.0
 21
1.0
 31
0.0
 73
2
 44
0.9
  1
0.00{\ftxt.shx;\W1.000000;\H0.125000; }[.000]
 40
0.125
 41
1.125
  0
LINE
  5
274
100
AcDbEntity
  8
DIMENSIONS
100
AcDbLine
 62
2
  6
CONTINUOUS
 10
9.5101388931
 20
7.7799736842
 11
9.5101388931
 21
8.4066325475
  0
ENDBLK
  5
275
100
AcDbEntity
  8
0
  6
BYBLOCK
 62
0
100
AcDbBlockEnd
  0
BLOCK
  5
276
100
AcDbEntity
  8
DIMENSIONS
100
AcDbBlockBegin
 62
2
  6
CONTINUOUS
  2
*D6
 70
65
 10
0.0
 20
0.0
  3
*D6
  1

  0
MTEXT
  5
277
100
AcDbEntity
  8
DIMENSIONS
100
AcDbMText
 62
2
  6
CONTINUOUS
  7
STANDARD
 71
1
 72
1
 10
9.0626388931
 20
8.4691325475
 30
0.0
 11
0.0
 21
1.0
 31
0.0
 73
2
 44
0.9
  1
2X 0.39{\ftxt.shx;\W1.000000;\H0.125000; }[.385]
 40
0.125
 41
1.425
  0
LINE
  5
278
100
AcDbEntity
  8
DIMENSIONS
100
AcDbLine
 62
2
  6
CONTINUOUS
 10
9.1251388931
 20
7.7819736842
 11
9.1251388931
 21
8.4066325475
  0
ENDBLK
  5
279
100
AcDbEntity
  8
0
  6
BYBLOCK
 62
0
100
AcDbBlockEnd
  0
BLOCK
  5
27A
100
AcDbEntity
  8
DIMENSIONS
100
AcDbBlockBegin
 62
2
  6
CONTINUOUS
  2
*D7
 70
65
 10
0.0
 20
0.0
  3
*D7
  1

  0
MTEXT
  5
27B
100
AcDbEntity
  8
DIMENSIONS
100
AcDbMText
 62
2
  6
CONTINUOUS
  7
STANDARD
 71
1
 72
1
 10
6.3691497976
 20
8.4691325475
 30
0.0
 11
0.0
 21
1.0
 31
0.0
 73
2
 44
0.9
  1
0.25{\ftxt.shx;\W1.000000;\H0.125000; }[.245]
 40
0.125
 41
1.125
  0
LINE
  5
27C
100
AcDbEntity
  8
DIMENSIONS
100
AcDbLine
 62
2
  6
CONTINUOUS
 10
6.4316497976
 20
7.7799736842
 11
6.4316497976
 21
8.4066325475
  0
ENDBLK
  5
27D
100
AcDbEntity
  8
0
  6
BYBLOCK
 62
0
100
AcDbBlockEnd
  0
BLOCK
  5
27E
100
AcDbEntity
  8
DIMENSIONS
100
AcDbBlockBegin
 62
2
  6
CONTINUOUS
  2
*D8
 70
65
 10
0.0
 20
0.0
  3
*D8
  1

  0
MTEXT
  5
27F
100
AcDbEntity
  8
DIMENSIONS
100
AcDbMText
 62
2
  6
CONTINUOUS
  7
STANDARD
 71
1
 72
1
 10
6.1241497976
 20
8.4691325475
 30
0.0
 11
0.0
 21
1.0
 31
0.0
 73
2
 44
0.9
  1
2X 0.00{\ftxt.shx;\W1.000000;\H0.125000; }[.000]
 40
0.125
 41
1.425
  0
LINE
  5
280
100
AcDbEntity
  8
DIMENSIONS
100
AcDbLine
 62
2
  6
CONTINUOUS
 10
6.1866497976
 20
7.8784736842
 11
6.1866497976
 21
8.4066325475
  0
ENDBLK
  5
281
100
AcDbEntity
  8
0
  6
BYBLOCK
 62
0
100
AcDbBlockEnd
  0
BLOCK
  5
282
100
AcDbEntity
  8
DIMENSIONS
100
AcDbBlockBegin
 62
2
  6
CONTINUOUS
  2
*D9
 70
65
 10
0.0
 20
0.0
  3
*D9
  1

  0
MTEXT
  5
283
100
AcDbEntity
  8
DIMENSIONS
100
AcDbMText
 62
2
  6
CONTINUOUS
  7
STANDARD
 71
1
 72
1
 10
5.8791497976
 20
8.4691325475
 30
0.0
 11
0.0
 21
1.0
 31
0.0
 73
2
 44
0.9
  1
0.25{\ftxt.shx;\W1.000000;\H0.125000; }[.245]
 40
0.125
 41
1.125
  0
LINE
  5
284
100
AcDbEntity
  8
DIMENSIONS
100
AcDbLine
 62
2
  6
CONTINUOUS
 10
5.9416497976
 20
7.7799736842
 11
5.9416497976
 21
8.4066325475
  0
ENDBLK
  5
285
100
AcDbEntity
  8
0
  6
BYBLOCK
 62
0
100
AcDbBlockEnd
  0
BLOCK
  5
286
100
AcDbEntity
  8
REF_DIM
100
AcDbBlockBegin
 62
2
  6
CONTINUOUS
  2
*D10
 70
65
 10
0.0
 20
0.0
  3
*D10
  1

  0
MTEXT
  5
287
100
AcDbEntity
  8
REF_DIM
100
AcDbMText
 62
2
  6
CONTINUOUS
  7
STANDARD
 71
2
 72
1
 10
7.4316497976
 20
5.5844736842
 30
0.0
 11
1.0
 21
0.0
 31
0.0
 73
2
 44
0.9
  1
(4.39{\ftxt.shx;\W1.000000;\H0.125000; }[4.391])
 40
0.125
 41
1.425
  0
LINE
  5
288
100
AcDbEntity
  8
REF_DIM
100
AcDbLine
 62
2
  6
CONTINUOUS
 10
6.4941497976
 20
3.3264736842
 11
7.5566497976
 21
3.3264736842
  0
LINE
  5
289
100
AcDbEntity
  8
REF_DIM
100
AcDbLine
 62
2
  6
CONTINUOUS
 10
6.4941497976
 20
7.7174736842
 11
7.5566497976
 21
7.7174736842
  0
LINE
  5
28A
100
AcDbEntity
  8
REF_DIM
100
AcDbLine
 62
2
  6
CONTINUOUS
 10
7.4316497976
 20
3.3264736842
 11
7.4316497976
 21
5.3969735107
  0
LINE
  5
28B
100
AcDbEntity
  8
REF_DIM
100
AcDbLine
 62
2
  6
CONTINUOUS
 10
7.4316497976
 20
7.7174736842
 11
7.4316497976
 21
5.6469736842
  0
INSERT
  5
28C
100
AcDbEntity
  8
REF_DIM
100
AcDbBlockReference
 62
2
  6
CONTINUOUS
  2
_FILLED
 10
7.4316497976
 20
3.3264736842
 41
0.18
 42
0.18
 43
0.18
 50
270.0
  0
INSERT
  5
28D
100
AcDbEntity
  8
REF_DIM
100
AcDbBlockReference
 62
2
  6
CONTINUOUS
  2
_FILLED
 10
7.4316497976
 20
7.7174736842
 41
0.18
 42
0.18
 43
0.18
 50
90.0
  0
ENDBLK
  5
28E
100
AcDbEntity
  8
0
  6
BYBLOCK
 62
0
100
AcDbBlockEnd
  0
BLOCK
  5
28F
100
AcDbEntity
  8
REF_DIM
100
AcDbBlockBegin
 62
2
  6
CONTINUOUS
  2
*D11
 70
65
 10
0.0
 20
0.0
  3
*D11
  1

  0
MTEXT
  5
290
100
AcDbEntity
  8
REF_DIM
100
AcDbMText
 62
2
  6
CONTINUOUS
  7
STANDARD
 71
3
 72
1
 10
5.1916497976
 20
2.637314821
 30
0.0
 11
1.0
 21
0.0
 31
0.0
 73
2
 44
0.9
  1
(0.49{\ftxt.shx;\W1.000000;\H0.125000; }[.490])
 40
0.125
 41
1.325
  0
LINE
  5
291
100
AcDbEntity
  8
REF_DIM
100
AcDbLine
 62
2
  6
CONTINUOUS
 10
5.9416497976
 20
3.2639736842
 11
5.9416497976
 21
2.449814821
  0
LINE
  5
292
100
AcDbEntity
  8
REF_DIM
100
AcDbLine
 62
2
  6
CONTINUOUS
 10
6.4316497976
 20
3.2639736842
 11
6.4316497976
 21
2.449814821
  0
LINE
  5
293
100
AcDbEntity
  8
REF_DIM
100
AcDbLine
 62
2
  6
CONTINUOUS
 10
5.9416497976
 20
2.574814821
 11
5.2541497976
 21
2.574814821
  0
LINE
  5
294
100
AcDbEntity
  8
REF_DIM
100
AcDbLine
 62
2
  6
CONTINUOUS
 10
6.4316497976
 20
2.574814821
 11
6.7916497976
 21
2.574814821
  0
INSERT
  5
295
100
AcDbEntity
  8
REF_DIM
100
AcDbBlockReference
 62
2
  6
CONTINUOUS
  2
_FILLED
 10
5.9416497976
 20
2.574814821
 41
0.18
 42
0.18
 43
0.18
  0
INSERT
  5
296
100
AcDbEntity
  8
REF_DIM
100
AcDbBlockReference
 62
2
  6
CONTINUOUS
  2
_FILLED
 10
6.4316497976
 20
2.574814821
 41
0.18
 42
0.18
 43
0.18
 50
180.0
  0
ENDBLK
  5
297
100
AcDbEntity
  8
0
  6
BYBLOCK
 62
0
100
AcDbBlockEnd
  0
BLOCK
  5
298
100
AcDbEntity
  8
0
100
AcDbBlockBegin
  2
*T1
 70
1
 10
0.0
 20
0.0
  3
*T1
  1

  0
LINE
  5
299
100
AcDbEntity
  8
0
100
AcDbLine
 62
2
  6
CONTINUOUS
 10
0.0
 20
0.0
 11
3.375
 21
0.0
  0
LINE
  5
29A
100
AcDbEntity
  8
0
100
AcDbLine
 62
2
  6
CONTINUOUS
 10
0.0
 20
0.0
 11
0.0
 21
-0.313
  0
LINE
  5
29B
100
AcDbEntity
  8
0
100
AcDbLine
 62
2
  6
CONTINUOUS
 10
0.0
 20
-0.313
 11
3.375
 21
-0.313
  0
LINE
  5
29C
100
AcDbEntity
  8
0
100
AcDbLine
 62
2
  6
CONTINUOUS
 10
3.375
 20
0.0
 11
3.375
 21
-0.313
  0
MTEXT
  5
29D
100
AcDbEntity
  8
DETAIL
100
AcDbMText
 62
2
  6
CONTINUOUS
  7
STANDARD
 71
1
 72
1
 10
0.0625
 20
-0.078125
 30
0.0
 11
1.0
 21
0.0
 31
0.0
 73
2
 44
0.9
  1
    COPYRIGHT    2023
 40
0.053
 41
1.7808
  0
ENDBLK
  5
29E
100
AcDbEntity
  8
0
  6
BYBLOCK
 62
0
100
AcDbBlockEnd
  0
BLOCK
  5
29F
100
AcDbEntity
  8
0
100
AcDbBlockBegin
  2
*T2
 70
1
 10
0.0
 20
0.0
  3
*T2
  1

  0
LINE
  5
2A0
100
AcDbEntity
  8
0
100
AcDbLine
 62
2
  6
CONTINUOUS
 10
0.0
 20
0.0
 11
3.6798
 21
0.0
  0
LINE
  5
2A1
100
AcDbEntity
  8
0
100
AcDbLine
 62
2
  6
CONTINUOUS
 10
0.0
 20
0.0
 11
0.0
 21
-1.709
  0
LINE
  5
2A2
100
AcDbEntity
  8
0
100
AcDbLine
 62
2
  6
CONTINUOUS
 10
0.0
 20
-1.14
 11
3.6798
 21
-1.14
  0
LINE
  5
2A3
100
AcDbEntity
  8
0
100
AcDbLine
 62
2
  6
CONTINUOUS
 10
0.0
 20
-1.569
 11
3.6798
 21
-1.569
  0
LINE
  5
2A4
100
AcDbEntity
  8
0
100
AcDbLine
 62
2
  6
CONTINUOUS
 10
0.0
 20
-1.709
 11
3.6798
 21
-1.709
  0
LINE
  5
2A5
100
AcDbEntity
  8
0
100
AcDbLine
 62
2
  6
CONTINUOUS
 10
0.3688
 20
-1.14
 11
0.3688
 21
-1.569
  0
LINE
  5
2A6
100
AcDbEntity
  8
0
100
AcDbLine
 62
2
  6
CONTINUOUS
 10
0.6998
 20
-1.569
 11
0.6998
 21
-1.709
  0
LINE
  5
2A7
100
AcDbEntity
  8
0
100
AcDbLine
 62
2
  6
CONTINUOUS
 10
1.0808
 20
-1.14
 11
1.0808
 21
-1.569
  0
LINE
  5
2A8
100
AcDbEntity
  8
0
100
AcDbLine
 62
2
  6
CONTINUOUS
 10
2.6798
 20
-1.569
 11
2.6798
 21
-1.709
  0
LINE
  5
2A9
100
AcDbEntity
  8
0
100
AcDbLine
 62
2
  6
CONTINUOUS
 10
3.6798
 20
0.0
 11
3.6798
 21
-1.709
  0
MTEXT
  5
2AA
100
AcDbEntity
  8
NOTE
100
AcDbMText
 62
7
  6
CONTINUOUS
  7
STANDARD
 71
2
 72
1
 10
1.8399
 20
-0.6091875
 30
0.0
 11
1.0
 21
0.0
 31
0.0
 73
2
 44
0.9
  1
NI-2800 SWITCHBLOCK\PFILLER PANEL
 40
0.15625
 41
4.75
  0
MTEXT
  5
2AB
100
AcDbEntity
  8
DETAIL
100
AcDbMText
 62
7
  6
CONTINUOUS
  7
STANDARD
 71
2
 72
1
 10
2.3803
 20
-1.338875
 30
0.0
 11
1.0
 21
0.0
 31
0.0
 73
2
 44
0.9
  1
05/30/2023
 40
0.15625
 41
2.5
  0
MTEXT
  5
2AC
100
AcDbEntity
  8
DETAIL
100
AcDbMText
 62
7
  6
CONTINUOUS
  7
STANDARD
 71
3
 72
1
 10
0.6373
 20
-1.589
 30
0.0
 11
1.0
 21
0.0
 31
0.0
 73
2
 44
0.9
  1
1/1
 40
0.1
 41
0.48
  0
MTEXT
  5
2AD
100
AcDbEntity
  8
DETAIL
100
AcDbMText
 62
7
  6
CONTINUOUS
  7
STANDARD
 71
1
 72
1
 10
2.7423
 20
-1.589
 30
0.0
 11
1.0
 21
0.0
 31
0.0
 73
2
 44
0.9
  1
    1    1
 40
0.1
 41
1.6
  0
ENDBLK
  5
2AE
100
AcDbEntity
  8
0
  6
BYBLOCK
 62
0
100
AcDbBlockEnd
  0
BLOCK
  5
2AF
100
AcDbEntity
  8
0
100
AcDbBlockBegin
  2
*T3
 70
1
 10
0.0
 20
0.0
  3
*T3
  1

  0
LINE
  5
2B0
100
AcDbEntity
  8
0
100
AcDbLine
 62
2
  6
CONTINUOUS
 10
0.0
 20
0.0
 11
1.0
 21
0.0
  0
LINE
  5
2B1
100
AcDbEntity
  8
0
100
AcDbLine
 62
2
  6
CONTINUOUS
 10
0.0
 20
0.0
 11
0.0
 21
-0.0005
  0
LINE
  5
2B2
100
AcDbEntity
  8
0
100
AcDbLine
 62
2
  6
CONTINUOUS
 10
0.0
 20
-0.0005
 11
1.0
 21
-0.0005
  0
LINE
  5
2B3
100
AcDbEntity
  8
0
100
AcDbLine
 62
2
  6
CONTINUOUS
 10
1.0
 20
0.0
 11
1.0
 21
-0.0005
  0
MTEXT
  5
2B4
100
AcDbEntity
  8
DETAIL
100
AcDbMText
 62
2
  6
CONTINUOUS
  7
STANDARD
 71
3
 72
1
 10
0.9375
 20
-0.078125
 30
0.0
 11
1.0
 21
0.0
 31
0.0
 73
2
 44
0.9
  1
CU_FILLER-PANEL_NI-2800_SWITCHB
 40
0.057262
 41
2.8401952
  0
ENDBLK
  5
2B5
100
AcDbEntity
  8
0
  6
BYBLOCK
 62
0
100
AcDbBlockEnd
  0
ENDSEC
  0
SECTION
  2
ENTITIES
  0
SPLINE
  5
2B6
100
AcDbEntity
  8
0
100
AcDbSpline
 62
2
  6
CONTINUOUS
 70
2
 71
3
 72
26
 73
22
 74
0
 42
0.0000001
 43
0.0000001
 44
0.0000000001
 40
0.0
 40
0.0
 40
0.0
 40
0.0
 40
1.0
 40
1.0
 40
1.0
 40
2.0
 40
2.0
 40
2.0
 40
3.0
 40
3.0
 40
3.0
 40
4.0
 40
4.0
 40
4.0
 40
5.0
 40
5.0
 40
5.0
 40
6.0
 40
6.0
 40
6.0
 40
7.0
 40
7.0
 40
7.0
 40
7.0
 10
13.27138341
 20
1.8953952
 30
0.0
 10
13.3078581345
 20
1.8953952
 30
0.0
 10
13.336736215
 20
1.8658902431
 30
0.0
 10
13.336736215
 20
1.82778885
 30
0.0
 10
13.336736215
 20
1.82778885
 30
0.0
 10
13.336736215
 20
1.699336785
 30
0.0
 10
13.336736215
 20
1.699336785
 30
0.0
 10
13.336736215
 20
1.699336785
 30
0.0
 10
13.27138341
 20
1.699336785
 30
0.0
 10
13.27138341
 20
1.699336785
 30
0.0
 10
13.27138341
 20
1.699336785
 30
0.0
 10
13.27138341
 20
1.830042395
 30
0.0
 10
13.27138341
 20
1.830042395
 30
0.0
 10
13.27138341
 20
1.830042395
 30
0.0
 10
13.206030605
 20
1.830042395
 30
0.0
 10
13.206030605
 20
1.830042395
 30
0.0
 10
13.206030605
 20
1.830042395
 30
0.0
 10
13.206030605
 20
1.8953952
 30
0.0
 10
13.206030605
 20
1.8953952
 30
0.0
 10
13.206030605
 20
1.8953952
 30
0.0
 10
13.27138341
 20
1.8953952
 30
0.0
 10
13.27138341
 20
1.8953952
 30
0.0
  0
SPLINE
  5
2B7
100
AcDbEntity
  8
0
100
AcDbSpline
 62
2
  6
CONTINUOUS
 70
2
 71
3
 72
17
 73
13
 74
0
 42
0.0000001
 43
0.0000001
 44
0.0000000001
 40
0.0
 40
0.0
 40
0.0
 40
0.0
 40
1.0
 40
1.0
 40
1.0
 40
2.0
 40
2.0
 40
2.0
 40
3.0
 40
3.0
 40
3.0
 40
4.0
 40
4.0
 40
4.0
 40
4.0
 10
13.43814574
 20
1.8953952
 30
0.0
 10
13.43814574
 20
1.8953952
 30
0.0
 10
13.43814574
 20
1.699336785
 30
0.0
 10
13.43814574
 20
1.699336785
 30
0.0
 10
13.4015315842
 20
1.699336785
 30
0.0
 10
13.372792935
 20
1.7293642724
 30
0.0
 10
13.372792935
 20
1.76468959
 30
0.0
 10
13.372792935
 20
1.76468959
 30
0.0
 10
13.372792935
 20
1.8953952
 30
0.0
 10
13.372792935
 20
1.8953952
 30
0.0
 10
13.372792935
 20
1.8953952
 30
0.0
 10
13.43814574
 20
1.8953952
 30
0.0
 10
13.43814574
 20
1.8953952
 30
0.0
  0
MTEXT
  5
2B8
100
AcDbEntity
  8
0
100
AcDbMText
 62
7
  6
CONTINUOUS
  7
STANDARD
 71
2
 72
1
 10
13.249725
 20
0.636084
 30
0.0
 11
1.0
 21
0.0
 31
0.0
 73
2
 44
0.9
  1
B
 40
0.15625
 41
0.125
  0
MTEXT
  5
2B9
100
AcDbEntity
  8
0
100
AcDbMText
 62
7
  6
CONTINUOUS
  7
STANDARD
 71
2
 72
1
 10
12.275406648
 20
1.4542432371
 30
0.0
 11
1.0
 21
0.0
 31
0.0
 73
2
 44
0.9
  1
DO NOT SCALE DRAWING
 40
0.095
 41
1.52
  0
MTEXT
  5
2BA
100
AcDbEntity
  8
0
100
AcDbMText
 62
2
  6
CONTINUOUS
  7
TEXTSTYLE_2
 71
2
 72
1
 10
12.274621
 20
1.754789
 30
0.0
 11
1.0
 21
0.0
 31
0.0
 73
2
 44
0.9
  1
AND [INCHES].
 40
0.053254
 41
0.692302
  0
MTEXT
  5
2BB
100
AcDbEntity
  8
0
100
AcDbMText
 62
2
  6
CONTINUOUS
  7
TEXTSTYLE_2
 71
2
 72
1
 10
12.268822
 20
1.84654
 30
0.0
 11
1.0
 21
0.0
 31
0.0
 73
2
 44
0.9
  1
DIMENSIONS ARE IN MILLIMETERS
 40
0.053254
 41
1.544366
  0
MTEXT
  5
2BC
100
AcDbEntity
  8
0
100
AcDbMText
 62
2
  6
CONTINUOUS
  7
TEXTSTYLE_2
 71
2
 72
1
 10
12.268822
 20
1.935171
 30
0.0
 11
1.0
 21
0.0
 31
0.0
 73
2
 44
0.9
  1
UNLESS OTHERWISE SPECIFIED
 40
0.053254
 41
1.384604
  0
MTEXT
  5
2BD
100
AcDbEntity
  8
0
100
AcDbMText
 62
2
  6
CONTINUOUS
  7
TEXTSTYLE_2
 71
1
 72
1
 10
14.176497
 20
0.802692
 30
0.0
 11
1.0
 21
0.0
 31
0.0
 73
2
 44
0.9
  1
MM/DD/YYYY
 40
0.053254
 41
0.53254
  0
MTEXT
  5
2BE
100
AcDbEntity
  8
0
100
AcDbMText
 62
2
  6
CONTINUOUS
  7
TEXTSTYLE_2
 71
1
 72
1
 10
13.145085
 20
0.802692
 30
0.0
 11
1.0
 21
0.0
 31
0.0
 73
2
 44
0.9
  1
SIZE
 40
0.053254
 41
0.213016
  0
MTEXT
  5
2BF
100
AcDbEntity
  8
0
100
AcDbMText
 62
7
  6
CONTINUOUS
  7
TEXTSTYLE_2
 71
1
 72
1
 10
13.436331
 20
0.629757
 30
0.0
 11
1.0
 21
0.0
 31
0.0
 73
2
 44
0.9
  1
7U296
 40
0.143155
 41
0.715775
  0
MTEXT
  5
2C0
100
AcDbEntity
  8
0
100
AcDbMText
 62
2
  6
CONTINUOUS
  7
TEXTSTYLE_3
 71
2
 72
1
 10
13.797783
 20
0.802692
 30
0.0
 11
1.0
 21
0.0
 31
0.0
 73
2
 44
0.9
  1
CODE IDENT NO.
 40
0.053254
 41
0.7082782
  0
MTEXT
  5
2C1
100
AcDbEntity
  8
0
100
AcDbMText
 62
2
  6
CONTINUOUS
  7
TEXTSTYLE_2
 71
1
 72
1
 10
13.3473507564
 20
1.5929525887
 30
0.0
 11
1.0
 21
0.0
 31
0.0
 73
2
 44
0.9
  1
TITLE
 40
0.053254
 41
0.26627
  0
MTEXT
  5
2C2
100
AcDbEntity
  8
0
100
AcDbMText
 62
2
  6
CONTINUOUS
  7
TEXTSTYLE_2
 71
1
 72
1
 10
15.732682
 20
1.744072
 30
0.0
 11
1.0
 21
0.0
 31
0.0
 73
2
 44
0.9
  1
AUSTIN, TEXAS
 40
0.069617
 41
0.905021
  0
MTEXT
  5
2C3
100
AcDbEntity
  8
0
100
AcDbMText
 62
2
  6
CONTINUOUS
  7
TEXTSTYLE_2
 71
1
 72
1
 10
13.090377
 20
0.358517
 30
0.0
 11
1.0
 21
0.0
 31
0.0
 73
2
 44
0.9
  1
SCALE:
 40
0.053254
 41
0.319524
  0
MTEXT
  5
2C4
100
AcDbEntity
  8
0
100
AcDbMText
 62
2
  6
CONTINUOUS
  7
TEXTSTYLE_2
 71
1
 72
1
 10
15.789224
 20
0.362499
 30
0.0
 11
1.0
 21
0.0
 31
0.0
 73
2
 44
0.9
  1
SHEET    OF
 40
0.057262
 41
0.629882
  0
MTEXT
  5
2C5
100
AcDbEntity
  8
0
100
AcDbMText
 62
2
  6
CONTINUOUS
  7
STANDARD
 71
1
 72
1
 10
11.5563608323
 20
1.2384285806
 30
0.0
 11
1.0
 21
0.0
 31
0.0
 73
2
 44
0.9
  1
THIRD ANGLE PROJECTION
 40
0.08
 41
1.408
  0
MTEXT
  5
2C6
100
AcDbEntity
  8
0
100
AcDbMText
 62
7
  6
CONTINUOUS
  7
STANDARD
 71
2
 72
1
 10
14.8815019183
 20
2.220013061
 30
0.0
 11
1.0
 21
0.0
 31
0.0
 73
2
 44
0.9
  1
CUSTOMER DRAWING
 40
0.15625
 41
2.0
  0
MTEXT
  5
2C7
100
AcDbEntity
  8
0
100
AcDbMText
 62
2
  6
CONTINUOUS
  7
STANDARD
 71
1
 72
1
 10
0.5582879959
 20
10.5546479011
 30
0.0
 11
1.0
 21
0.0
 31
0.0
 73
2
 44
0.9
  1
NATIONAL INSTRUMENTS CORPORATION AND ITS LICENSORS. ALL RIGHTS RESERVED
 40
0.053
 41
3.0104
  0
MTEXT
  5
2C8
100
AcDbEntity
  8
0
100
AcDbMText
 62
2
  6
CONTINUOUS
  7
STANDARD
 71
1
 72
1
 10
0.9460128297
 20
10.6893269917
 30
0.0
 11
1.0
 21
0.0
 31
0.0
 73
2
 44
0.9
  1
c
 40
0.053
 41
0.0424
  0
MTEXT
  5
2C9
100
AcDbEntity
  8
0
100
AcDbMText
 62
2
  6
CONTINUOUS
  7
TEXTSTYLE_2
 71
1
 72
1
 10
16.217682
 20
1.919072
 30
0.0
 11
1.0
 21
0.0
 31
0.0
 73
2
 44
0.9
  1
NI.COM
 40
0.069617
 41
0.417702
  0
INSERT
  5
2CA
100
AcDbEntity
  8
0
100
AcDbBlockReference
 62
2
  6
CONTINUOUS
  2
CUSTOM_NOTE_BL0
 10
3.6750529031
 20
1.3123857822
  0
INSERT
  5
2CB
100
AcDbEntity
  8
0
100
AcDbBlockReference
 62
2
  6
CONTINUOUS
  2
METRIC_BL1
 10
12.2427668563
 20
2.2045347211
  0
DIMENSION
  5
2CC
100
AcDbEntity
  8
DIMENSIONS
100
AcDbDimension
 62
2
  6
CONTINUOUS
  2
*D0
 10
5.9681497976
 20
3.4464736842
 11
4.6291497976
 21
3.1695934708
 70
166
 71
3
 72
2
 41
0.9
 42
0.12
  3
DIMSTYLE_1
100
AcDbOrdinateDimension
 13
5.8791497976
 23
3.3264736842
 14
5.2541497976
 24
3.1695934708
  0
DIMENSION
  5
2CD
100
AcDbEntity
  8
DIMENSIONS
100
AcDbDimension
 62
2
  6
CONTINUOUS
  2
*D1
 10
5.9681497976
 20
3.4464736842
 11
4.6291497976
 21
3.4464736842
 70
166
 71
3
 72
2
 41
0.9
  3
DIMSTYLE_1
100
AcDbOrdinateDimension
 13
5.9056497976
 23
3.4464736842
 14
5.2541497976
 24
3.4464736842
  0
DIMENSION
  5
2CE
100
AcDbEntity
  8
DIMENSIONS
100
AcDbDimension
 62
2
  6
CONTINUOUS
  2
*D2
 10
5.9416497976
 20
3.4464736842
 11
4.5791497976
 21
7.8838365814
 70
166
 71
3
 72
2
 41
0.9
 42
4.271
  3
DIMSTYLE_1
100
AcDbOrdinateDimension
 13
5.8791497976
 23
7.7174736842
 14
5.2541497976
 24
7.8838365814
  0
DIMENSION
  5
2CF
100
AcDbEntity
  8
DIMENSIONS
100
AcDbDimension
 62
2
  6
CONTINUOUS
  2
*D3
 10
5.9681497976
 20
3.4464736842
 11
4.5791497976
 21
7.5974736842
 70
166
 71
3
 72
2
 41
0.9
 42
4.151
  3
DIMSTYLE_1
100
AcDbOrdinateDimension
 13
5.9056497976
 23
7.5974736842
 14
5.2541497976
 24
7.5974736842
  0
DIMENSION
  5
2D0
100
AcDbEntity
  8
DIMENSIONS
100
AcDbDimension
 62
2
  6
CONTINUOUS
  2
*D4
 10
9.5101388931
 20
7.7174736842
 11
9.3167202013
 21
9.0316325475
 70
230
 71
1
 72
2
 41
0.9
 42
0.105
  3
DIMSTYLE_1
100
AcDbOrdinateDimension
 13
9.4051388931
 23
7.7799736842
 14
9.3167202013
 24
8.4066325475
  0
DIMENSION
  5
2D1
100
AcDbEntity
  8
DIMENSIONS
100
AcDbDimension
 62
2
  6
CONTINUOUS
  2
*D5
 10
9.5101388931
 20
7.7174736842
 11
9.5101388931
 21
9.0316325475
 70
230
 71
1
 72
2
 41
0.9
  3
DIMSTYLE_1
100
AcDbOrdinateDimension
 13
9.5101388931
 23
7.7799736842
 14
9.5101388931
 24
8.4066325475
  0
DIMENSION
  5
2D2
100
AcDbEntity
  8
DIMENSIONS
100
AcDbDimension
 62
2
  6
CONTINUOUS
  2
*D6
 10
9.5101388931
 20
7.7194736842
 11
9.1251388931
 21
9.1816325475
 70
230
 71
1
 72
2
 41
0.9
 42
0.385
  1
2X <>
  3
DIMSTYLE_1
100
AcDbOrdinateDimension
 13
9.1251388931
 23
7.7819736842
 14
9.1251388931
 24
8.4066325475
  0
DIMENSION
  5
2D3
100
AcDbEntity
  8
DIMENSIONS
100
AcDbDimension
 62
2
  6
CONTINUOUS
  2
*D7
 10
6.1866497976
 20
7.8159736842
 11
6.4316497976
 21
9.0316325475
 70
230
 71
1
 72
2
 41
0.9
 42
0.245
  3
DIMSTYLE_1
100
AcDbOrdinateDimension
 13
6.4316497976
 23
7.7799736842
 14
6.4316497976
 24
8.4066325475
  0
DIMENSION
  5
2D4
100
AcDbEntity
  8
DIMENSIONS
100
AcDbDimension
 62
2
  6
CONTINUOUS
  2
*D8
 10
6.1866497976
 20
7.8159736842
 11
6.1866497976
 21
9.1816325475
 70
230
 71
1
 72
2
 41
0.9
  1
2X <>
  3
DIMSTYLE_1
100
AcDbOrdinateDimension
 13
6.1866497976
 23
7.8784736842
 14
6.1866497976
 24
8.4066325475
  0
DIMENSION
  5
2D5
100
AcDbEntity
  8
DIMENSIONS
100
AcDbDimension
 62
2
  6
CONTINUOUS
  2
*D9
 10
6.1866497976
 20
7.7174736842
 11
5.9416497976
 21
9.0316325475
 70
230
 71
1
 72
2
 41
0.9
 42
0.245
  3
DIMSTYLE_1
100
AcDbOrdinateDimension
 13
5.9416497976
 23
7.7799736842
 14
5.9416497976
 24
8.4066325475
  0
DIMENSION
  5
2D6
100
AcDbEntity
  8
REF_DIM
100
AcDbDimension
 62
2
  6
CONTINUOUS
  2
*D10
 10
7.4316497976
 20
7.7174736842
 11
7.4316497976
 21
5.5219736842
 70
160
 71
2
 72
2
 41
0.9
 42
4.391
  1
(<>)
  3
DIMSTYLE_2
100
AcDbAlignedDimension
 13
6.4316497976
 23
3.3264736842
 14
6.4316497976
 24
7.7174736842
 50
90.0
100
AcDbRotatedDimension
  0
DIMENSION
  5
2D7
100
AcDbEntity
  8
REF_DIM
100
AcDbDimension
 62
2
  6
CONTINUOUS
  2
*D11
 10
6.4316497976
 20
2.574814821
 11
4.5291497976
 21
2.574814821
 70
160
 71
3
 72
2
 41
0.9
 42
0.49
  1
(<>)
  3
DIMSTYLE_2
100
AcDbAlignedDimension
 13
5.9416497976
 23
3.3264736842
 14
6.4316497976
 24
3.3264736842
100
AcDbRotatedDimension
  0
ACAD_TABLE
  5
2D8
100
AcDbEntity
  8
0
 62
2
  6
CONTINUOUS
100
AcDbBlockReference
  2
*T1
 10
0.2500058658
 20
10.7585991628
 30
0.0
100
AcDbTable
342
       6FB
343
241
 11
1.0
 21
0.0
 31
0.0
 90
22
 91
1
 92
1
 93
0
 94
0
 95
0
 96
0
141
0.313
142
3.375
171
1
172
0
173
0
174
0
175
1
176
1
 91
33
178
0
145
0.0
301
CELL_VALUE
 90
4
  1
    COPYRIGHT    2023
304
ACVALUE_END
170
1
140
0.053
  0
ACAD_TABLE
  5
2D9
100
AcDbEntity
  8
0
 62
2
  6
CONTINUOUS
100
AcDbBlockReference
  2
*T2
 10
13.0652424456
 20
1.9695308512
 30
0.0
100
AcDbTable
342
       6FB
343
242
 11
1.0
 21
0.0
 31
0.0
 90
22
 91
5
 92
6
 93
16
 94
0
 95
0
 96
0
 41
0.0
141
0.469
141
0.671
141
0.125
141
0.304
141
0.14
142
0.3688
142
0.331
142
0.381
142
1.599
142
0.571
142
0.429
171
1
172
0
173
0
174
0
175
6
176
1
 91
33
178
0
145
0.0
301
CELL_VALUE
 90
4
  1
 
304
ACVALUE_END
170
1
140
0.15625
171
1
172
0
173
1
174
0
175
1
176
1
 91
1
178
0
145
0.0
170
1
171
1
172
0
173
1
174
0
175
1
176
1
 91
1
178
0
145
0.0
170
1
171
1
172
0
173
1
174
0
175
1
176
1
 91
1
178
0
145
0.0
170
1
171
1
172
0
173
1
174
0
175
1
176
1
 91
1
178
0
145
0.0
170
1
171
1
172
0
173
1
174
0
175
1
176
1
 91
1
178
0
145
0.0
170
1
171
1
172
0
173
0
174
0
175
6
176
1
 91
41
178
0
145
0.0
301
CELL_VALUE
 90
4
  1
NI-2800 SWITCHBLOCK\PFILLER PANEL
304
ACVALUE_END
170
5
140
0.15625
 64
7
171
1
172
0
173
1
174
0
175
1
176
1
 91
1
178
0
145
0.0
170
1
171
1
172
0
173
1
174
0
175
1
176
1
 91
1
178
0
145
0.0
170
1
171
1
172
0
173
1
174
0
175
1
176
1
 91
1
178
0
145
0.0
170
1
171
1
172
0
173
1
174
0
175
1
176
1
 91
1
178
0
145
0.0
170
1
171
1
172
0
173
1
174
0
175
1
176
1
 91
1
178
0
145
0.0
170
1
171
1
172
0
173
0
174
0
175
1
176
1
 91
33
178
0
145
0.0
301
CELL_VALUE
 90
4
  1
 
304
ACVALUE_END
170
1
140
0.15625
171
1
172
0
173
0
174
0
175
2
176
1
 91
33
178
0
145
0.0
301
CELL_VALUE
 90
4
  1
 
304
ACVALUE_END
170
1
140
0.15625
171
1
172
0
173
1
174
0
175
1
176
1
 91
1
178
0
145
0.0
170
1
171
1
172
0
173
0
174
0
175
3
176
1
 91
33
178
0
145
0.0
301
CELL_VALUE
 90
4
  1
 
304
ACVALUE_END
170
1
140
0.15625
171
1
172
0
173
1
174
0
175
1
176
1
 91
1
178
0
145
0.0
170
1
171
1
172
0
173
1
174
0
175
1
176
1
 91
1
178
0
145
0.0
170
1
171
1
172
0
173
0
174
0
175
1
176
1
 91
33
178
0
145
0.0
301
CELL_VALUE
 90
4
  1
 
304
ACVALUE_END
170
1
140
0.15625
171
1
172
0
173
0
174
0
175
2
176
1
 91
33
178
0
145
0.0
301
CELL_VALUE
 90
4
  1
 
304
ACVALUE_END
170
1
140
0.15625
171
1
172
0
173
1
174
0
175
1
176
1
 91
1
178
0
145
0.0
170
1
171
1
172
0
173
0
174
0
175
3
176
1
 91
41
178
0
145
0.0
301
CELL_VALUE
 90
4
  1
05/30/2023
304
ACVALUE_END
170
5
140
0.15625
 64
7
171
1
172
0
173
1
174
0
175
1
176
1
 91
1
178
0
145
0.0
170
1
171
1
172
0
173
1
174
0
175
1
176
1
 91
1
178
0
145
0.0
170
1
171
1
172
0
173
0
174
0
175
2
176
1
 91
41
178
0
145
0.0
301
CELL_VALUE
 90
4
  1
1/1
304
ACVALUE_END
170
6
140
0.1
 64
7
171
1
172
0
173
1
174
0
175
1
176
1
 91
1
178
0
145
0.0
170
1
171
1
172
0
173
0
174
0
175
2
176
1
 91
33
178
0
145
0.0
301
CELL_VALUE
 90
4
  1
 
304
ACVALUE_END
170
1
140
0.15625
171
1
172
0
173
1
174
0
175
1
176
1
 91
1
178
0
145
0.0
170
1
171
1
172
0
173
0
174
0
175
2
176
1
 91
41
178
0
145
0.0
301
CELL_VALUE
 90
4
  1
    1    1
304
ACVALUE_END
170
4
140
0.1
 64
7
171
1
172
0
173
1
174
0
175
1
176
1
 91
1
178
0
145
0.0
170
1
  0
ACAD_TABLE
  5
2DA
100
AcDbEntity
  8
0
 62
2
  6
CONTINUOUS
100
AcDbBlockReference
  2
*T3
 10
15.7461638083
 20
0.2607424503
 30
0.0
100
AcDbTable
342
       6FB
343
243
 11
1.0
 21
0.0
 31
0.0
 90
22
 91
1
 92
1
 93
16
 94
0
 95
0
 96
0
 41
0.0
141
0.0005
142
1.0
171
1
172
0
173
0
174
0
175
1
176
1
 91
33
178
0
145
0.0
301
CELL_VALUE
 90
4
  1
CU_FILLER-PANEL_NI-2800_SWITCHB
304
ACVALUE_END
170
3
140
0.057262
  0
LEADER
  5
2DB
100
AcDbEntity
  8
DETAIL
100
AcDbLeader
 62
2
  6
CONTINUOUS
  3
STANDARD
 71
1
 72
0
 73
0
 75
0
 40
0.125
 41
2.7
 76
3
 10
6.1030424947
 20
7.5086284466
 30
0.0
 10
5.1898462083
 20
6.8906473219
 30
0.0
 10
5.0098462083
 20
6.8906473219
 30
0.0
340
2DC
1001
ACAD
1000
DSTYLE
1002
{
1070
77
1070
0
1002
}
  0
MTEXT
  5
2DC
102
{ACAD_REACTORS
330
2DB
102
}
100
AcDbEntity
  8
DETAIL
100
AcDbMText
 62
2
  6
CONTINUOUS
  7
STANDARD
 71
3
 72
1
 10
5.0098462083
 20
6.9531473219
 30
0.0
 11
1.0
 21
0.0
 31
0.0
 73
2
 44
0.9
  1
2X M2.5X0.45 CAPTIVE SCREWS
 40
0.125
 41
2.7
  0
INSERT
  5
2DD
100
AcDbEntity
  8
DETAIL
100
AcDbBlockReference
 62
2
  6
CONTINUOUS
  2
NOTES_HEADER_BL2
 10
3.1215
 20
0.9375
  0
LWPOLYLINE
  5
2DE
100
AcDbEntity
  8
0
100
AcDbPolyline
 62
7
  6
CONTINUOUS
 90
2
 70
0
 43
0.0200000008
 10
0.25
 20
10.758589
 10
0.25
 20
0.258589
  0
LINE
  5
2DF
100
AcDbEntity
  8
0
100
AcDbLine
 62
7
  6
CONTINUOUS
 10
12.3962658799
 20
0.7462095293
 11
12.8357572221
 21
0.8589530402
  0
LWPOLYLINE
  5
2E0
100
AcDbEntity
  8
0
100
AcDbPolyline
 62
7
  6
CONTINUOUS
 90
2
 70
0
 43
0.0200000008
 10
0.25
 20
0.258589
 10
16.75
 20
0.258589
  0
LINE
  5
2E1
100
AcDbEntity
  8
0
100
AcDbLine
 62
2
  6
CONTINUOUS
 10
11.6146008393
 20
0.6418595933
 11
11.802287918
 21
0.6418595933
  0
LINE
  5
2E2
100
AcDbEntity
  8
0
100
AcDbLine
 62
2
  6
CONTINUOUS
 10
11.8335379479
 20
0.6418595933
 11
11.8960380076
 21
0.6418595933
  0
LINE
  5
2E3
100
AcDbEntity
  8
0
100
AcDbLine
 62
2
  6
CONTINUOUS
 10
11.9272880375
 20
0.6418595933
 11
12.557543179
 21
0.6418595933
  0
LINE
  5
2E4
100
AcDbEntity
  8
0
100
AcDbLine
 62
2
  6
CONTINUOUS
 10
12.5887932089
 20
0.6418595933
 11
12.6512932686
 21
0.6418595933
  0
LINE
  5
2E5
100
AcDbEntity
  8
0
100
AcDbLine
 62
2
  6
CONTINUOUS
 10
12.6825432985
 20
0.6418595933
 11
12.8982572819
 21
0.6418595933
  0
LINE
  5
2E6
100
AcDbEntity
  8
0
100
AcDbLine
 62
2
  6
CONTINUOUS
 10
13.065325
 20
1.077557
 11
11.482032
 21
1.077557
  0
LINE
  5
2E7
100
AcDbEntity
  8
0
100
AcDbLine
 62
2
  6
CONTINUOUS
 10
11.482032
 20
1.326524
 11
13.065325
 21
1.326524
  0
LINE
  5
2E8
100
AcDbEntity
  8
0
100
AcDbLine
 62
2
  6
CONTINUOUS
 10
13.065325
 20
1.632876
 11
16.750025
 21
1.632876
  0
LINE
  5
2E9
100
AcDbEntity
  8
0
100
AcDbLine
 62
2
  6
CONTINUOUS
 10
13.206030605
 20
1.699336785
 11
13.1406778
 21
1.699336785
  0
LINE
  5
2EA
100
AcDbEntity
  8
0
100
AcDbLine
 62
2
  6
CONTINUOUS
 10
13.1406778
 20
1.830042395
 11
13.206030605
 21
1.830042395
  0
LWPOLYLINE
  5
2EB
100
AcDbEntity
  8
0
100
AcDbPolyline
 62
7
  6
CONTINUOUS
 90
2
 70
0
 43
0.0200000008
 10
11.4718052732
 20
1.9701650509
 10
16.75
 20
1.970721
  0
LINE
  5
2EC
100
AcDbEntity
  8
0
100
AcDbLine
 62
7
  6
CONTINUOUS
 10
12.3962658799
 20
0.5361608992
 11
12.8357572221
 21
0.4247609248
  0
LWPOLYLINE
  5
2ED
100
AcDbEntity
  8
0
100
AcDbPolyline
 62
7
  6
CONTINUOUS
 90
2
 70
0
 43
0.0200000008
 10
11.482032
 20
0.25
 10
11.482032
 20
1.970721
  0
LINE
  5
2EE
100
AcDbEntity
  8
0
100
AcDbLine
 62
2
  6
CONTINUOUS
 10
11.8647879778
 20
0.3865620904
 11
11.8647879778
 21
0.5793595336
  0
LINE
  5
2EF
100
AcDbEntity
  8
0
100
AcDbLine
 62
2
  6
CONTINUOUS
 10
11.8647879778
 20
0.6106095634
 11
11.8647879778
 21
0.6731096232
  0
LINE
  5
2F0
100
AcDbEntity
  8
0
100
AcDbLine
 62
2
  6
CONTINUOUS
 10
11.8647879778
 20
0.704359653
 11
11.8647879778
 21
0.8911570904
  0
LINE
  5
2F1
100
AcDbEntity
  8
0
100
AcDbLine
 62
7
  6
CONTINUOUS
 10
12.3962658799
 20
0.5361608992
 11
12.3962658799
 21
0.7462095293
  0
LINE
  5
2F2
100
AcDbEntity
  8
0
100
AcDbLine
 62
7
  6
CONTINUOUS
 10
12.8357572221
 20
0.4247609248
 11
12.8357572221
 21
0.8589530402
  0
LWPOLYLINE
  5
2F3
100
AcDbEntity
  8
0
100
AcDbPolyline
 62
7
  6
CONTINUOUS
 90
2
 70
0
 43
0.0200000008
 10
13.065325
 20
1.970721
 10
13.065325
 20
0.258589
  0
LINE
  5
2F4
100
AcDbEntity
  8
0
100
AcDbLine
 62
2
  6
CONTINUOUS
 10
13.1406778
 20
1.699336785
 11
13.1406778
 21
1.830042395
  0
LINE
  5
2F5
100
AcDbEntity
  8
0
100
AcDbLine
 62
2
  6
CONTINUOUS
 10
13.206030605
 20
1.830042395
 11
13.206030605
 21
1.699336785
  0
LWPOLYLINE
  5
2F6
100
AcDbEntity
  8
0
100
AcDbPolyline
 62
7
  6
CONTINUOUS
 90
2
 70
0
 43
0.0200000008
 10
16.75
 20
10.758589
 10
0.25
 20
10.758589
  0
LINE
  5
2F7
100
AcDbEntity
  8
0
100
AcDbLine
 62
2
  6
CONTINUOUS
 10
13.1406778
 20
1.8298589931
 11
13.1408612019
 21
1.830042395
  0
LINE
  5
2F8
100
AcDbEntity
  8
0
100
AcDbLine
 62
2
  6
CONTINUOUS
 10
13.206030605
 20
1.8952117981
 11
13.2062140069
 21
1.8953952
  0
LINE
  5
2F9
100
AcDbEntity
  8
0
100
AcDbLine
 62
2
  6
CONTINUOUS
 10
13.1406778
 20
1.8284779251
 11
13.1422422699
 21
1.830042395
  0
LINE
  5
2FA
100
AcDbEntity
  8
0
100
AcDbLine
 62
2
  6
CONTINUOUS
 10
13.206030605
 20
1.8938307301
 11
13.2075950749
 21
1.8953952
  0
LINE
  5
2FB
100
AcDbEntity
  8
0
100
AcDbLine
 62
2
  6
CONTINUOUS
 10
13.1406778
 20
1.8270968572
 11
13.1436233378
 21
1.830042395
  0
LINE
  5
2FC
100
AcDbEntity
  8
0
100
AcDbLine
 62
2
  6
CONTINUOUS
 10
13.206030605
 20
1.8924496622
 11
13.2089761428
 21
1.8953952
  0
LINE
  5
2FD
100
AcDbEntity
  8
0
100
AcDbLine
 62
2
  6
CONTINUOUS
 10
13.1406778
 20
1.8257157893
 11
13.1450044057
 21
1.830042395
  0
LINE
  5
2FE
100
AcDbEntity
  8
0
100
AcDbLine
 62
2
  6
CONTINUOUS
 10
13.206030605
 20
1.8910685943
 11
13.2103572107
 21
1.8953952
  0
LINE
  5
2FF
100
AcDbEntity
  8
0
100
AcDbLine
 62
2
  6
CONTINUOUS
 10
13.1406778
 20
1.8243347213
 11
13.1463854737
 21
1.830042395
  0
LINE
  5
300
100
AcDbEntity
  8
0
100
AcDbLine
 62
2
  6
CONTINUOUS
 10
13.206030605
 20
1.8896875263
 11
13.2117382787
 21
1.8953952
  0
LINE
  5
301
100
AcDbEntity
  8
0
100
AcDbLine
 62
2
  6
CONTINUOUS
 10
13.1406778
 20
1.8229536534
 11
13.1477665416
 21
1.830042395
  0
LINE
  5
302
100
AcDbEntity
  8
0
100
AcDbLine
 62
2
  6
CONTINUOUS
 10
13.206030605
 20
1.8883064584
 11
13.2131193466
 21
1.8953952
  0
LINE
  5
303
100
AcDbEntity
  8
0
100
AcDbLine
 62
2
  6
CONTINUOUS
 10
13.1406778
 20
1.8215725855
 11
13.1491476095
 21
1.830042395
  0
LINE
  5
304
100
AcDbEntity
  8
0
100
AcDbLine
 62
2
  6
CONTINUOUS
 10
13.206030605
 20
1.8869253905
 11
13.2145004145
 21
1.8953952
  0
LINE
  5
305
100
AcDbEntity
  8
0
100
AcDbLine
 62
2
  6
CONTINUOUS
 10
13.1406778
 20
1.8201915175
 11
13.1505286775
 21
1.830042395
  0
LINE
  5
306
100
AcDbEntity
  8
0
100
AcDbLine
 62
2
  6
CONTINUOUS
 10
13.206030605
 20
1.8855443225
 11
13.2158814825
 21
1.8953952
  0
LINE
  5
307
100
AcDbEntity
  8
0
100
AcDbLine
 62
2
  6
CONTINUOUS
 10
13.1406778
 20
1.8188104496
 11
13.1519097454
 21
1.830042395
  0
LINE
  5
308
100
AcDbEntity
  8
0
100
AcDbLine
 62
2
  6
CONTINUOUS
 10
13.206030605
 20
1.8841632546
 11
13.2172625504
 21
1.8953952
  0
LINE
  5
309
100
AcDbEntity
  8
0
100
AcDbLine
 62
2
  6
CONTINUOUS
 10
13.1406778
 20
1.8174293817
 11
13.1532908133
 21
1.830042395
  0
LINE
  5
30A
100
AcDbEntity
  8
0
100
AcDbLine
 62
2
  6
CONTINUOUS
 10
13.206030605
 20
1.8827821867
 11
13.2186436183
 21
1.8953952
  0
LINE
  5
30B
100
AcDbEntity
  8
0
100
AcDbLine
 62
2
  6
CONTINUOUS
 10
13.1406778
 20
1.8160483138
 11
13.1546718812
 21
1.830042395
  0
LINE
  5
30C
100
AcDbEntity
  8
0
100
AcDbLine
 62
2
  6
CONTINUOUS
 10
13.206030605
 20
1.8814011188
 11
13.2200246862
 21
1.8953952
  0
LINE
  5
30D
100
AcDbEntity
  8
0
100
AcDbLine
 62
2
  6
CONTINUOUS
 10
13.1406778
 20
1.8146672458
 11
13.1560529492
 21
1.830042395
  0
LINE
  5
30E
100
AcDbEntity
  8
0
100
AcDbLine
 62
2
  6
CONTINUOUS
 10
13.206030605
 20
1.8800200508
 11
13.2214057542
 21
1.8953952
  0
LINE
  5
30F
100
AcDbEntity
  8
0
100
AcDbLine
 62
2
  6
CONTINUOUS
 10
13.1406778
 20
1.8132861779
 11
13.1574340171
 21
1.830042395
  0
LINE
  5
310
100
AcDbEntity
  8
0
100
AcDbLine
 62
2
  6
CONTINUOUS
 10
13.206030605
 20
1.8786389829
 11
13.2227868221
 21
1.8953952
  0
LINE
  5
311
100
AcDbEntity
  8
0
100
AcDbLine
 62
2
  6
CONTINUOUS
 10
13.1406778
 20
1.81190511
 11
13.158815085
 21
1.830042395
  0
LINE
  5
312
100
AcDbEntity
  8
0
100
AcDbLine
 62
2
  6
CONTINUOUS
 10
13.206030605
 20
1.877257915
 11
13.22416789
 21
1.8953952
  0
LINE
  5
313
100
AcDbEntity
  8
0
100
AcDbLine
 62
2
  6
CONTINUOUS
 10
13.1406778
 20
1.810524042
 11
13.160196153
 21
1.830042395
  0
LINE
  5
314
100
AcDbEntity
  8
0
100
AcDbLine
 62
2
  6
CONTINUOUS
 10
13.206030605
 20
1.875876847
 11
13.225548958
 21
1.8953952
  0
LINE
  5
315
100
AcDbEntity
  8
0
100
AcDbLine
 62
2
  6
CONTINUOUS
 10
13.1406778
 20
1.8091429741
 11
13.1615772209
 21
1.830042395
  0
LINE
  5
316
100
AcDbEntity
  8
0
100
AcDbLine
 62
2
  6
CONTINUOUS
 10
13.206030605
 20
1.8744957791
 11
13.2269300259
 21
1.8953952
  0
LINE
  5
317
100
AcDbEntity
  8
0
100
AcDbLine
 62
2
  6
CONTINUOUS
 10
13.1406778
 20
1.8077619062
 11
13.1629582888
 21
1.830042395
  0
LINE
  5
318
100
AcDbEntity
  8
0
100
AcDbLine
 62
2
  6
CONTINUOUS
 10
13.206030605
 20
1.8731147112
 11
13.2283110938
 21
1.8953952
  0
LINE
  5
319
100
AcDbEntity
  8
0
100
AcDbLine
 62
2
  6
CONTINUOUS
 10
13.1406778
 20
1.8063808382
 11
13.1643393568
 21
1.830042395
  0
LINE
  5
31A
100
AcDbEntity
  8
0
100
AcDbLine
 62
2
  6
CONTINUOUS
 10
13.206030605
 20
1.8717336432
 11
13.2296921618
 21
1.8953952
  0
LINE
  5
31B
100
AcDbEntity
  8
0
100
AcDbLine
 62
2
  6
CONTINUOUS
 10
13.1406778
 20
1.8049997703
 11
13.1657204247
 21
1.830042395
  0
LINE
  5
31C
100
AcDbEntity
  8
0
100
AcDbLine
 62
2
  6
CONTINUOUS
 10
13.206030605
 20
1.8703525753
 11
13.2310732297
 21
1.8953952
  0
LINE
  5
31D
100
AcDbEntity
  8
0
100
AcDbLine
 62
2
  6
CONTINUOUS
 10
13.1406778
 20
1.8036187024
 11
13.1671014926
 21
1.830042395
  0
LINE
  5
31E
100
AcDbEntity
  8
0
100
AcDbLine
 62
2
  6
CONTINUOUS
 10
13.206030605
 20
1.8689715074
 11
13.2324542976
 21
1.8953952
  0
LINE
  5
31F
100
AcDbEntity
  8
0
100
AcDbLine
 62
2
  6
CONTINUOUS
 10
13.1406778
 20
1.8022376344
 11
13.1684825606
 21
1.830042395
  0
LINE
  5
320
100
AcDbEntity
  8
0
100
AcDbLine
 62
2
  6
CONTINUOUS
 10
13.206030605
 20
1.8675904394
 11
13.2338353656
 21
1.8953952
  0
LINE
  5
321
100
AcDbEntity
  8
0
100
AcDbLine
 62
2
  6
CONTINUOUS
 10
13.1406778
 20
1.8008565665
 11
13.1698636285
 21
1.830042395
  0
LINE
  5
322
100
AcDbEntity
  8
0
100
AcDbLine
 62
2
  6
CONTINUOUS
 10
13.206030605
 20
1.8662093715
 11
13.2352164335
 21
1.8953952
  0
LINE
  5
323
100
AcDbEntity
  8
0
100
AcDbLine
 62
2
  6
CONTINUOUS
 10
13.1406778
 20
1.7994754986
 11
13.1712446964
 21
1.830042395
  0
LINE
  5
324
100
AcDbEntity
  8
0
100
AcDbLine
 62
2
  6
CONTINUOUS
 10
13.206030605
 20
1.8648283036
 11
13.2365975014
 21
1.8953952
  0
LINE
  5
325
100
AcDbEntity
  8
0
100
AcDbLine
 62
2
  6
CONTINUOUS
 10
13.1406778
 20
1.7980944306
 11
13.1726257644
 21
1.830042395
  0
LINE
  5
326
100
AcDbEntity
  8
0
100
AcDbLine
 62
2
  6
CONTINUOUS
 10
13.206030605
 20
1.8634472356
 11
13.2379785694
 21
1.8953952
  0
LINE
  5
327
100
AcDbEntity
  8
0
100
AcDbLine
 62
2
  6
CONTINUOUS
 10
13.1406778
 20
1.7967133627
 11
13.1740068323
 21
1.830042395
  0
LINE
  5
328
100
AcDbEntity
  8
0
100
AcDbLine
 62
2
  6
CONTINUOUS
 10
13.206030605
 20
1.8620661677
 11
13.2393596373
 21
1.8953952
  0
LINE
  5
329
100
AcDbEntity
  8
0
100
AcDbLine
 62
2
  6
CONTINUOUS
 10
13.1406778
 20
1.7953322948
 11
13.1753879002
 21
1.830042395
  0
LINE
  5
32A
100
AcDbEntity
  8
0
100
AcDbLine
 62
2
  6
CONTINUOUS
 10
13.206030605
 20
1.8606850998
 11
13.2407407052
 21
1.8953952
  0
LINE
  5
32B
100
AcDbEntity
  8
0
100
AcDbLine
 62
2
  6
CONTINUOUS
 10
13.1406778
 20
1.7939512268
 11
13.1767689682
 21
1.830042395
  0
LINE
  5
32C
100
AcDbEntity
  8
0
100
AcDbLine
 62
2
  6
CONTINUOUS
 10
13.206030605
 20
1.8593040318
 11
13.2421217732
 21
1.8953952
  0
LINE
  5
32D
100
AcDbEntity
  8
0
100
AcDbLine
 62
2
  6
CONTINUOUS
 10
13.1406778
 20
1.7925701589
 11
13.1781500361
 21
1.830042395
  0
LINE
  5
32E
100
AcDbEntity
  8
0
100
AcDbLine
 62
2
  6
CONTINUOUS
 10
13.206030605
 20
1.8579229639
 11
13.2435028411
 21
1.8953952
  0
LINE
  5
32F
100
AcDbEntity
  8
0
100
AcDbLine
 62
2
  6
CONTINUOUS
 10
13.1406778
 20
1.791189091
 11
13.179531104
 21
1.830042395
  0
LINE
  5
330
100
AcDbEntity
  8
0
100
AcDbLine
 62
2
  6
CONTINUOUS
 10
13.206030605
 20
1.856541896
 11
13.244883909
 21
1.8953952
  0
LINE
  5
331
100
AcDbEntity
  8
0
100
AcDbLine
 62
2
  6
CONTINUOUS
 10
13.1406778
 20
1.789808023
 11
13.180912172
 21
1.830042395
  0
LINE
  5
332
100
AcDbEntity
  8
0
100
AcDbLine
 62
2
  6
CONTINUOUS
 10
13.206030605
 20
1.855160828
 11
13.246264977
 21
1.8953952
  0
LINE
  5
333
100
AcDbEntity
  8
0
100
AcDbLine
 62
2
  6
CONTINUOUS
 10
13.1406778
 20
1.7884269551
 11
13.1822932399
 21
1.830042395
  0
LINE
  5
334
100
AcDbEntity
  8
0
100
AcDbLine
 62
2
  6
CONTINUOUS
 10
13.206030605
 20
1.8537797601
 11
13.2476460449
 21
1.8953952
  0
LINE
  5
335
100
AcDbEntity
  8
0
100
AcDbLine
 62
2
  6
CONTINUOUS
 10
13.1406778
 20
1.7870458872
 11
13.1836743078
 21
1.830042395
  0
LINE
  5
336
100
AcDbEntity
  8
0
100
AcDbLine
 62
2
  6
CONTINUOUS
 10
13.206030605
 20
1.8523986922
 11
13.2490271128
 21
1.8953952
  0
LINE
  5
337
100
AcDbEntity
  8
0
100
AcDbLine
 62
2
  6
CONTINUOUS
 10
13.1406778
 20
1.7856648192
 11
13.1850553758
 21
1.830042395
  0
LINE
  5
338
100
AcDbEntity
  8
0
100
AcDbLine
 62
2
  6
CONTINUOUS
 10
13.206030605
 20
1.8510176242
 11
13.2504081808
 21
1.8953952
  0
LINE
  5
339
100
AcDbEntity
  8
0
100
AcDbLine
 62
2
  6
CONTINUOUS
 10
13.1406778
 20
1.7842837513
 11
13.1864364437
 21
1.830042395
  0
LINE
  5
33A
100
AcDbEntity
  8
0
100
AcDbLine
 62
2
  6
CONTINUOUS
 10
13.206030605
 20
1.8496365563
 11
13.2517892487
 21
1.8953952
  0
LINE
  5
33B
100
AcDbEntity
  8
0
100
AcDbLine
 62
2
  6
CONTINUOUS
 10
13.1406778
 20
1.7829026834
 11
13.1878175116
 21
1.830042395
  0
LINE
  5
33C
100
AcDbEntity
  8
0
100
AcDbLine
 62
2
  6
CONTINUOUS
 10
13.206030605
 20
1.8482554884
 11
13.2531703166
 21
1.8953952
  0
LINE
  5
33D
100
AcDbEntity
  8
0
100
AcDbLine
 62
2
  6
CONTINUOUS
 10
13.1406778
 20
1.7815216155
 11
13.1891985795
 21
1.830042395
  0
LINE
  5
33E
100
AcDbEntity
  8
0
100
AcDbLine
 62
2
  6
CONTINUOUS
 10
13.206030605
 20
1.8468744205
 11
13.2545513845
 21
1.8953952
  0
LINE
  5
33F
100
AcDbEntity
  8
0
100
AcDbLine
 62
2
  6
CONTINUOUS
 10
13.1406778
 20
1.7801405475
 11
13.1905796475
 21
1.830042395
  0
LINE
  5
340
100
AcDbEntity
  8
0
100
AcDbLine
 62
2
  6
CONTINUOUS
 10
13.206030605
 20
1.8454933525
 11
13.2559324525
 21
1.8953952
  0
LINE
  5
341
100
AcDbEntity
  8
0
100
AcDbLine
 62
2
  6
CONTINUOUS
 10
13.1406778
 20
1.7787594796
 11
13.1919607154
 21
1.830042395
  0
LINE
  5
342
100
AcDbEntity
  8
0
100
AcDbLine
 62
2
  6
CONTINUOUS
 10
13.206030605
 20
1.8441122846
 11
13.2573135204
 21
1.8953952
  0
LINE
  5
343
100
AcDbEntity
  8
0
100
AcDbLine
 62
2
  6
CONTINUOUS
 10
13.1406778
 20
1.7773784117
 11
13.1933417833
 21
1.830042395
  0
LINE
  5
344
100
AcDbEntity
  8
0
100
AcDbLine
 62
2
  6
CONTINUOUS
 10
13.206030605
 20
1.8427312167
 11
13.2586945883
 21
1.8953952
  0
LINE
  5
345
100
AcDbEntity
  8
0
100
AcDbLine
 62
2
  6
CONTINUOUS
 10
13.1406778
 20
1.7759973437
 11
13.1947228513
 21
1.830042395
  0
LINE
  5
346
100
AcDbEntity
  8
0
100
AcDbLine
 62
2
  6
CONTINUOUS
 10
13.206030605
 20
1.8413501487
 11
13.2600756563
 21
1.8953952
  0
LINE
  5
347
100
AcDbEntity
  8
0
100
AcDbLine
 62
2
  6
CONTINUOUS
 10
13.1406778
 20
1.7746162758
 11
13.1961039192
 21
1.830042395
  0
LINE
  5
348
100
AcDbEntity
  8
0
100
AcDbLine
 62
2
  6
CONTINUOUS
 10
13.206030605
 20
1.8399690808
 11
13.2614567242
 21
1.8953952
  0
LINE
  5
349
100
AcDbEntity
  8
0
100
AcDbLine
 62
2
  6
CONTINUOUS
 10
13.1406778
 20
1.7732352079
 11
13.1974849871
 21
1.830042395
  0
LINE
  5
34A
100
AcDbEntity
  8
0
100
AcDbLine
 62
2
  6
CONTINUOUS
 10
13.206030605
 20
1.8385880129
 11
13.2628377921
 21
1.8953952
  0
LINE
  5
34B
100
AcDbEntity
  8
0
100
AcDbLine
 62
2
  6
CONTINUOUS
 10
13.1406778
 20
1.7718541399
 11
13.1988660551
 21
1.830042395
  0
LINE
  5
34C
100
AcDbEntity
  8
0
100
AcDbLine
 62
2
  6
CONTINUOUS
 10
13.206030605
 20
1.8372069449
 11
13.2642188601
 21
1.8953952
  0
LINE
  5
34D
100
AcDbEntity
  8
0
100
AcDbLine
 62
2
  6
CONTINUOUS
 10
13.1406778
 20
1.770473072
 11
13.200247123
 21
1.830042395
  0
LINE
  5
34E
100
AcDbEntity
  8
0
100
AcDbLine
 62
2
  6
CONTINUOUS
 10
13.206030605
 20
1.835825877
 11
13.265599928
 21
1.8953952
  0
LINE
  5
34F
100
AcDbEntity
  8
0
100
AcDbLine
 62
2
  6
CONTINUOUS
 10
13.1406778
 20
1.7690920041
 11
13.2016281909
 21
1.830042395
  0
LINE
  5
350
100
AcDbEntity
  8
0
100
AcDbLine
 62
2
  6
CONTINUOUS
 10
13.206030605
 20
1.8344448091
 11
13.2669809959
 21
1.8953952
  0
LINE
  5
351
100
AcDbEntity
  8
0
100
AcDbLine
 62
2
  6
CONTINUOUS
 10
13.1406778
 20
1.7677109361
 11
13.2030092589
 21
1.830042395
  0
LINE
  5
352
100
AcDbEntity
  8
0
100
AcDbLine
 62
2
  6
CONTINUOUS
 10
13.206030605
 20
1.8330637411
 11
13.2683620639
 21
1.8953952
  0
LINE
  5
353
100
AcDbEntity
  8
0
100
AcDbLine
 62
2
  6
CONTINUOUS
 10
13.1406778
 20
1.7663298682
 11
13.2043903268
 21
1.830042395
  0
LINE
  5
354
100
AcDbEntity
  8
0
100
AcDbLine
 62
2
  6
CONTINUOUS
 10
13.206030605
 20
1.8316826732
 11
13.2697431318
 21
1.8953952
  0
LINE
  5
355
100
AcDbEntity
  8
0
100
AcDbLine
 62
2
  6
CONTINUOUS
 10
13.1406778
 20
1.7649488003
 11
13.2057713947
 21
1.830042395
  0
LINE
  5
356
100
AcDbEntity
  8
0
100
AcDbLine
 62
2
  6
CONTINUOUS
 10
13.206030605
 20
1.8303016053
 11
13.2711241997
 21
1.8953952
  0
LINE
  5
357
100
AcDbEntity
  8
0
100
AcDbLine
 62
2
  6
CONTINUOUS
 10
13.1406778
 20
1.7635677323
 11
13.206030605
 21
1.8289205373
  0
LINE
  5
358
100
AcDbEntity
  8
0
100
AcDbLine
 62
2
  6
CONTINUOUS
 10
13.2071524627
 20
1.830042395
 11
13.2724124836
 21
1.895302416
  0
LINE
  5
359
100
AcDbEntity
  8
0
100
AcDbLine
 62
2
  6
CONTINUOUS
 10
13.1406778
 20
1.7621866644
 11
13.206030605
 21
1.8275394694
  0
LINE
  5
35A
100
AcDbEntity
  8
0
100
AcDbLine
 62
2
  6
CONTINUOUS
 10
13.2085335306
 20
1.830042395
 11
13.2736793293
 21
1.8951881937
  0
LINE
  5
35B
100
AcDbEntity
  8
0
100
AcDbLine
 62
2
  6
CONTINUOUS
 10
13.1406778
 20
1.7608055965
 11
13.206030605
 21
1.8261584015
  0
LINE
  5
35C
100
AcDbEntity
  8
0
100
AcDbLine
 62
2
  6
CONTINUOUS
 10
13.2099145985
 20
1.830042395
 11
13.2749461751
 21
1.8950739715
  0
LINE
  5
35D
100
AcDbEntity
  8
0
100
AcDbLine
 62
2
  6
CONTINUOUS
 10
13.1406778
 20
1.7594245285
 11
13.206030605
 21
1.8247773335
  0
LINE
  5
35E
100
AcDbEntity
  8
0
100
AcDbLine
 62
2
  6
CONTINUOUS
 10
13.2112956665
 20
1.830042395
 11
13.2762130208
 21
1.8949597493
  0
LINE
  5
35F
100
AcDbEntity
  8
0
100
AcDbLine
 62
2
  6
CONTINUOUS
 10
13.1406778
 20
1.7580434606
 11
13.206030605
 21
1.8233962656
  0
LINE
  5
360
100
AcDbEntity
  8
0
100
AcDbLine
 62
2
  6
CONTINUOUS
 10
13.2126767344
 20
1.830042395
 11
13.2774798665
 21
1.8948455271
  0
LINE
  5
361
100
AcDbEntity
  8
0
100
AcDbLine
 62
2
  6
CONTINUOUS
 10
13.1406778
 20
1.7566623927
 11
13.206030605
 21
1.8220151977
  0
LINE
  5
362
100
AcDbEntity
  8
0
100
AcDbLine
 62
2
  6
CONTINUOUS
 10
13.2140578023
 20
1.830042395
 11
13.2787467122
 21
1.8947313049
  0
LINE
  5
363
100
AcDbEntity
  8
0
100
AcDbLine
 62
2
  6
CONTINUOUS
 10
13.1406778
 20
1.7552813247
 11
13.206030605
 21
1.8206341297
  0
LINE
  5
364
100
AcDbEntity
  8
0
100
AcDbLine
 62
2
  6
CONTINUOUS
 10
13.2154388703
 20
1.830042395
 11
13.280013558
 21
1.8946170827
  0
LINE
  5
365
100
AcDbEntity
  8
0
100
AcDbLine
 62
2
  6
CONTINUOUS
 10
13.1406778
 20
1.7539002568
 11
13.206030605
 21
1.8192530618
  0
LINE
  5
366
100
AcDbEntity
  8
0
100
AcDbLine
 62
2
  6
CONTINUOUS
 10
13.2168199382
 20
1.830042395
 11
13.2812804037
 21
1.8945028605
  0
LINE
  5
367
100
AcDbEntity
  8
0
100
AcDbLine
 62
2
  6
CONTINUOUS
 10
13.1406778
 20
1.7525191889
 11
13.206030605
 21
1.8178719939
  0
LINE
  5
368
100
AcDbEntity
  8
0
100
AcDbLine
 62
2
  6
CONTINUOUS
 10
13.2182010061
 20
1.830042395
 11
13.2825472494
 21
1.8943886383
  0
LINE
  5
369
100
AcDbEntity
  8
0
100
AcDbLine
 62
2
  6
CONTINUOUS
 10
13.1406778
 20
1.7511381209
 11
13.206030605
 21
1.8164909259
  0
LINE
  5
36A
100
AcDbEntity
  8
0
100
AcDbLine
 62
2
  6
CONTINUOUS
 10
13.2195820741
 20
1.830042395
 11
13.2837343128
 21
1.8941946338
  0
LINE
  5
36B
100
AcDbEntity
  8
0
100
AcDbLine
 62
2
  6
CONTINUOUS
 10
13.1406778
 20
1.749757053
 11
13.206030605
 21
1.815109858
  0
LINE
  5
36C
100
AcDbEntity
  8
0
100
AcDbLine
 62
2
  6
CONTINUOUS
 10
13.220963142
 20
1.830042395
 11
13.2848134565
 21
1.8938927095
  0
LINE
  5
36D
100
AcDbEntity
  8
0
100
AcDbLine
 62
2
  6
CONTINUOUS
 10
13.1406778
 20
1.7483759851
 11
13.206030605
 21
1.8137287901
  0
LINE
  5
36E
100
AcDbEntity
  8
0
100
AcDbLine
 62
2
  6
CONTINUOUS
 10
13.2223442099
 20
1.830042395
 11
13.2858926002
 21
1.8935907853
  0
LINE
  5
36F
100
AcDbEntity
  8
0
100
AcDbLine
 62
2
  6
CONTINUOUS
 10
13.1406778
 20
1.7469949172
 11
13.206030605
 21
1.8123477222
  0
LINE
  5
370
100
AcDbEntity
  8
0
100
AcDbLine
 62
2
  6
CONTINUOUS
 10
13.2237252778
 20
1.830042395
 11
13.2869717439
 21
1.8932888611
  0
LINE
  5
371
100
AcDbEntity
  8
0
100
AcDbLine
 62
2
  6
CONTINUOUS
 10
13.1406778
 20
1.7456138492
 11
13.206030605
 21
1.8109666542
  0
LINE
  5
372
100
AcDbEntity
  8
0
100
AcDbLine
 62
2
  6
CONTINUOUS
 10
13.2251063458
 20
1.830042395
 11
13.2880508876
 21
1.8929869368
  0
LINE
  5
373
100
AcDbEntity
  8
0
100
AcDbLine
 62
2
  6
CONTINUOUS
 10
13.1406778
 20
1.7442327813
 11
13.206030605
 21
1.8095855863
  0
LINE
  5
374
100
AcDbEntity
  8
0
100
AcDbLine
 62
2
  6
CONTINUOUS
 10
13.2264874137
 20
1.830042395
 11
13.2891300313
 21
1.8926850126
  0
LINE
  5
375
100
AcDbEntity
  8
0
100
AcDbLine
 62
2
  6
CONTINUOUS
 10
13.1406778
 20
1.7428517134
 11
13.206030605
 21
1.8082045184
  0
LINE
  5
376
100
AcDbEntity
  8
0
100
AcDbLine
 62
2
  6
CONTINUOUS
 10
13.2278684816
 20
1.830042395
 11
13.290209175
 21
1.8923830884
  0
LINE
  5
377
100
AcDbEntity
  8
0
100
AcDbLine
 62
2
  6
CONTINUOUS
 10
13.1406778
 20
1.7414706454
 11
13.206030605
 21
1.8068234504
  0
LINE
  5
378
100
AcDbEntity
  8
0
100
AcDbLine
 62
2
  6
CONTINUOUS
 10
13.2292495496
 20
1.830042395
 11
13.2912883187
 21
1.8920811641
  0
LINE
  5
379
100
AcDbEntity
  8
0
100
AcDbLine
 62
2
  6
CONTINUOUS
 10
13.1406778
 20
1.7400895775
 11
13.206030605
 21
1.8054423825
  0
LINE
  5
37A
100
AcDbEntity
  8
0
100
AcDbLine
 62
2
  6
CONTINUOUS
 10
13.2306306175
 20
1.830042395
 11
13.2923674624
 21
1.8917792399
  0
LINE
  5
37B
100
AcDbEntity
  8
0
100
AcDbLine
 62
2
  6
CONTINUOUS
 10
13.1406778
 20
1.7387085096
 11
13.206030605
 21
1.8040613146
  0
LINE
  5
37C
100
AcDbEntity
  8
0
100
AcDbLine
 62
2
  6
CONTINUOUS
 10
13.2320116854
 20
1.830042395
 11
13.2934466061
 21
1.8914773157
  0
LINE
  5
37D
100
AcDbEntity
  8
0
100
AcDbLine
 62
2
  6
CONTINUOUS
 10
13.1406778
 20
1.7373274416
 11
13.206030605
 21
1.8026802466
  0
LINE
  5
37E
100
AcDbEntity
  8
0
100
AcDbLine
 62
2
  6
CONTINUOUS
 10
13.2333927534
 20
1.830042395
 11
13.2945257498
 21
1.8911753914
  0
LINE
  5
37F
100
AcDbEntity
  8
0
100
AcDbLine
 62
2
  6
CONTINUOUS
 10
13.1406778
 20
1.7359463737
 11
13.206030605
 21
1.8012991787
  0
LINE
  5
380
100
AcDbEntity
  8
0
100
AcDbLine
 62
2
  6
CONTINUOUS
 10
13.2347738213
 20
1.830042395
 11
13.295462794
 21
1.8907313677
  0
LINE
  5
381
100
AcDbEntity
  8
0
100
AcDbLine
 62
2
  6
CONTINUOUS
 10
13.1406778
 20
1.7345653058
 11
13.206030605
 21
1.7999181108
  0
LINE
  5
382
100
AcDbEntity
  8
0
100
AcDbLine
 62
2
  6
CONTINUOUS
 10
13.2361548892
 20
1.830042395
 11
13.2963884125
 21
1.8902759183
  0
LINE
  5
383
100
AcDbEntity
  8
0
100
AcDbLine
 62
2
  6
CONTINUOUS
 10
13.1406778
 20
1.7331842378
 11
13.206030605
 21
1.7985370428
  0
LINE
  5
384
100
AcDbEntity
  8
0
100
AcDbLine
 62
2
  6
CONTINUOUS
 10
13.2375359572
 20
1.830042395
 11
13.2973140311
 21
1.8898204689
  0
LINE
  5
385
100
AcDbEntity
  8
0
100
AcDbLine
 62
2
  6
CONTINUOUS
 10
13.1406778
 20
1.7318031699
 11
13.206030605
 21
1.7971559749
  0
LINE
  5
386
100
AcDbEntity
  8
0
100
AcDbLine
 62
2
  6
CONTINUOUS
 10
13.2389170251
 20
1.830042395
 11
13.2982396496
 21
1.8893650195
  0
LINE
  5
387
100
AcDbEntity
  8
0
100
AcDbLine
 62
2
  6
CONTINUOUS
 10
13.1406778
 20
1.730422102
 11
13.206030605
 21
1.795774907
  0
LINE
  5
388
100
AcDbEntity
  8
0
100
AcDbLine
 62
2
  6
CONTINUOUS
 10
13.240298093
 20
1.830042395
 11
13.2991652681
 21
1.8889095701
  0
LINE
  5
389
100
AcDbEntity
  8
0
100
AcDbLine
 62
2
  6
CONTINUOUS
 10
13.1406778
 20
1.729041034
 11
13.206030605
 21
1.794393839
  0
LINE
  5
38A
100
AcDbEntity
  8
0
100
AcDbLine
 62
2
  6
CONTINUOUS
 10
13.241679161
 20
1.830042395
 11
13.3000908867
 21
1.8884541207
  0
LINE
  5
38B
100
AcDbEntity
  8
0
100
AcDbLine
 62
2
  6
CONTINUOUS
 10
13.1406778
 20
1.7276599661
 11
13.206030605
 21
1.7930127711
  0
LINE
  5
38C
100
AcDbEntity
  8
0
100
AcDbLine
 62
2
  6
CONTINUOUS
 10
13.2430602289
 20
1.830042395
 11
13.3010165052
 21
1.8879986713
  0
LINE
  5
38D
100
AcDbEntity
  8
0
100
AcDbLine
 62
2
  6
CONTINUOUS
 10
13.1406778
 20
1.7262788982
 11
13.206030605
 21
1.7916317032
  0
LINE
  5
38E
100
AcDbEntity
  8
0
100
AcDbLine
 62
2
  6
CONTINUOUS
 10
13.2444412968
 20
1.830042395
 11
13.3019421237
 21
1.8875432219
  0
LINE
  5
38F
100
AcDbEntity
  8
0
100
AcDbLine
 62
2
  6
CONTINUOUS
 10
13.1406778
 20
1.7248978302
 11
13.206030605
 21
1.7902506352
  0
LINE
  5
390
100
AcDbEntity
  8
0
100
AcDbLine
 62
2
  6
CONTINUOUS
 10
13.2458223648
 20
1.830042395
 11
13.3028677423
 21
1.8870877725
  0
LINE
  5
391
100
AcDbEntity
  8
0
100
AcDbLine
 62
2
  6
CONTINUOUS
 10
13.1406778
 20
1.7235167623
 11
13.206030605
 21
1.7888695673
  0
LINE
  5
392
100
AcDbEntity
  8
0
100
AcDbLine
 62
2
  6
CONTINUOUS
 10
13.2472034327
 20
1.830042395
 11
13.3037933608
 21
1.8866323231
  0
LINE
  5
393
100
AcDbEntity
  8
0
100
AcDbLine
 62
2
  6
CONTINUOUS
 10
13.1406778
 20
1.7221356944
 11
13.206030605
 21
1.7874884994
  0
LINE
  5
394
100
AcDbEntity
  8
0
100
AcDbLine
 62
2
  6
CONTINUOUS
 10
13.2485845006
 20
1.830042395
 11
13.3047189793
 21
1.8861768737
  0
LINE
  5
395
100
AcDbEntity
  8
0
100
AcDbLine
 62
2
  6
CONTINUOUS
 10
13.1406778
 20
1.7207546264
 11
13.206030605
 21
1.7861074314
  0
LINE
  5
396
100
AcDbEntity
  8
0
100
AcDbLine
 62
2
  6
CONTINUOUS
 10
13.2499655686
 20
1.830042395
 11
13.3055716896
 21
1.8856485161
  0
LINE
  5
397
100
AcDbEntity
  8
0
100
AcDbLine
 62
2
  6
CONTINUOUS
 10
13.1406778
 20
1.7193735585
 11
13.206030605
 21
1.7847263635
  0
LINE
  5
398
100
AcDbEntity
  8
0
100
AcDbLine
 62
2
  6
CONTINUOUS
 10
13.2513466365
 20
1.830042395
 11
13.3063620539
 21
1.8850578124
  0
LINE
  5
399
100
AcDbEntity
  8
0
100
AcDbLine
 62
2
  6
CONTINUOUS
 10
13.1406778
 20
1.7179924906
 11
13.206030605
 21
1.7833452956
  0
LINE
  5
39A
100
AcDbEntity
  8
0
100
AcDbLine
 62
2
  6
CONTINUOUS
 10
13.2527277044
 20
1.830042395
 11
13.3071524182
 21
1.8844671087
  0
LINE
  5
39B
100
AcDbEntity
  8
0
100
AcDbLine
 62
2
  6
CONTINUOUS
 10
13.1406778
 20
1.7166114226
 11
13.206030605
 21
1.7819642276
  0
LINE
  5
39C
100
AcDbEntity
  8
0
100
AcDbLine
 62
2
  6
CONTINUOUS
 10
13.2541087724
 20
1.830042395
 11
13.3079427824
 21
1.8838764051
  0
LINE
  5
39D
100
AcDbEntity
  8
0
100
AcDbLine
 62
2
  6
CONTINUOUS
 10
13.1406778
 20
1.7152303547
 11
13.206030605
 21
1.7805831597
  0
LINE
  5
39E
100
AcDbEntity
  8
0
100
AcDbLine
 62
2
  6
CONTINUOUS
 10
13.2554898403
 20
1.830042395
 11
13.3087331467
 21
1.8832857014
  0
LINE
  5
39F
100
AcDbEntity
  8
0
100
AcDbLine
 62
2
  6
CONTINUOUS
 10
13.1406778
 20
1.7138492868
 11
13.206030605
 21
1.7792020918
  0
LINE
  5
3A0
100
AcDbEntity
  8
0
100
AcDbLine
 62
2
  6
CONTINUOUS
 10
13.2568709082
 20
1.830042395
 11
13.309523511
 21
1.8826949978
  0
LINE
  5
3A1
100
AcDbEntity
  8
0
100
AcDbLine
 62
2
  6
CONTINUOUS
 10
13.1406778
 20
1.7124682189
 11
13.206030605
 21
1.7778210239
  0
LINE
  5
3A2
100
AcDbEntity
  8
0
100
AcDbLine
 62
2
  6
CONTINUOUS
 10
13.2582519761
 20
1.830042395
 11
13.3103138752
 21
1.8821042941
  0
LINE
  5
3A3
100
AcDbEntity
  8
0
100
AcDbLine
 62
2
  6
CONTINUOUS
 10
13.1406778
 20
1.7110871509
 11
13.206030605
 21
1.7764399559
  0
LINE
  5
3A4
100
AcDbEntity
  8
0
100
AcDbLine
 62
2
  6
CONTINUOUS
 10
13.2596330441
 20
1.830042395
 11
13.3111042395
 21
1.8815135904
  0
LINE
  5
3A5
100
AcDbEntity
  8
0
100
AcDbLine
 62
2
  6
CONTINUOUS
 10
13.1406778
 20
1.709706083
 11
13.206030605
 21
1.775058888
  0
LINE
  5
3A6
100
AcDbEntity
  8
0
100
AcDbLine
 62
2
  6
CONTINUOUS
 10
13.261014112
 20
1.830042395
 11
13.3118946038
 21
1.8809228868
  0
LINE
  5
3A7
100
AcDbEntity
  8
0
100
AcDbLine
 62
2
  6
CONTINUOUS
 10
13.1406778
 20
1.7083250151
 11
13.206030605
 21
1.7736778201
  0
LINE
  5
3A8
100
AcDbEntity
  8
0
100
AcDbLine
 62
2
  6
CONTINUOUS
 10
13.2623951799
 20
1.830042395
 11
13.312684968
 21
1.8803321831
  0
LINE
  5
3A9
100
AcDbEntity
  8
0
100
AcDbLine
 62
2
  6
CONTINUOUS
 10
13.1406778
 20
1.7069439471
 11
13.206030605
 21
1.7722967521
  0
LINE
  5
3AA
100
AcDbEntity
  8
0
100
AcDbLine
 62
2
  6
CONTINUOUS
 10
13.2637762479
 20
1.830042395
 11
13.3134753323
 21
1.8797414794
  0
LINE
  5
3AB
100
AcDbEntity
  8
0
100
AcDbLine
 62
2
  6
CONTINUOUS
 10
13.1406778
 20
1.7055628792
 11
13.206030605
 21
1.7709156842
  0
LINE
  5
3AC
100
AcDbEntity
  8
0
100
AcDbLine
 62
2
  6
CONTINUOUS
 10
13.2651573158
 20
1.830042395
 11
13.3142656966
 21
1.8791507758
  0
LINE
  5
3AD
100
AcDbEntity
  8
0
100
AcDbLine
 62
2
  6
CONTINUOUS
 10
13.1406778
 20
1.7041818113
 11
13.206030605
 21
1.7695346163
  0
LINE
  5
3AE
100
AcDbEntity
  8
0
100
AcDbLine
 62
2
  6
CONTINUOUS
 10
13.2665383837
 20
1.830042395
 11
13.3149964024
 21
1.8785004137
  0
LINE
  5
3AF
100
AcDbEntity
  8
0
100
AcDbLine
 62
2
  6
CONTINUOUS
 10
13.1406778
 20
1.7028007433
 11
13.206030605
 21
1.7681535483
  0
LINE
  5
3B0
100
AcDbEntity
  8
0
100
AcDbLine
 62
2
  6
CONTINUOUS
 10
13.2679194517
 20
1.830042395
 11
13.3156785972
 21
1.8778015405
  0
LINE
  5
3B1
100
AcDbEntity
  8
0
100
AcDbLine
 62
2
  6
CONTINUOUS
 10
13.1406778
 20
1.7014196754
 11
13.206030605
 21
1.7667724804
  0
LINE
  5
3B2
100
AcDbEntity
  8
0
100
AcDbLine
 62
2
  6
CONTINUOUS
 10
13.2693005196
 20
1.830042395
 11
13.3163607919
 21
1.8771026673
  0
LINE
  5
3B3
100
AcDbEntity
  8
0
100
AcDbLine
 62
2
  6
CONTINUOUS
 10
13.1406778
 20
1.7000386075
 11
13.206030605
 21
1.7653914125
  0
LINE
  5
3B4
100
AcDbEntity
  8
0
100
AcDbLine
 62
2
  6
CONTINUOUS
 10
13.2706815875
 20
1.830042395
 11
13.3170429867
 21
1.8764037941
  0
LINE
  5
3B5
100
AcDbEntity
  8
0
100
AcDbLine
 62
2
  6
CONTINUOUS
 10
13.1413570455
 20
1.699336785
 11
13.206030605
 21
1.7640103445
  0
LINE
  5
3B6
100
AcDbEntity
  8
0
100
AcDbLine
 62
2
  6
CONTINUOUS
 10
13.27138341
 20
1.8293631495
 11
13.3177251814
 21
1.8757049209
  0
LINE
  5
3B7
100
AcDbEntity
  8
0
100
AcDbLine
 62
2
  6
CONTINUOUS
 10
13.1427381134
 20
1.699336785
 11
13.206030605
 21
1.7626292766
  0
LINE
  5
3B8
100
AcDbEntity
  8
0
100
AcDbLine
 62
2
  6
CONTINUOUS
 10
13.27138341
 20
1.8279820816
 11
13.3184073762
 21
1.8750060478
  0
LINE
  5
3B9
100
AcDbEntity
  8
0
100
AcDbLine
 62
2
  6
CONTINUOUS
 10
13.1441191813
 20
1.699336785
 11
13.206030605
 21
1.7612482087
  0
LINE
  5
3BA
100
AcDbEntity
  8
0
100
AcDbLine
 62
2
  6
CONTINUOUS
 10
13.27138341
 20
1.8266010137
 11
13.3190895709
 21
1.8743071746
  0
LINE
  5
3BB
100
AcDbEntity
  8
0
100
AcDbLine
 62
2
  6
CONTINUOUS
 10
13.1455002493
 20
1.699336785
 11
13.206030605
 21
1.7598671407
  0
LINE
  5
3BC
100
AcDbEntity
  8
0
100
AcDbLine
 62
2
  6
CONTINUOUS
 10
13.27138341
 20
1.8252199457
 11
13.3197717657
 21
1.8736083014
  0
LINE
  5
3BD
100
AcDbEntity
  8
0
100
AcDbLine
 62
2
  6
CONTINUOUS
 10
13.1468813172
 20
1.699336785
 11
13.206030605
 21
1.7584860728
  0
LINE
  5
3BE
100
AcDbEntity
  8
0
100
AcDbLine
 62
2
  6
CONTINUOUS
 10
13.27138341
 20
1.8238388778
 11
13.3204457955
 21
1.8729012633
  0
LINE
  5
3BF
100
AcDbEntity
  8
0
100
AcDbLine
 62
2
  6
CONTINUOUS
 10
13.1482623851
 20
1.699336785
 11
13.206030605
 21
1.7571050049
  0
LINE
  5
3C0
100
AcDbEntity
  8
0
100
AcDbLine
 62
2
  6
CONTINUOUS
 10
13.27138341
 20
1.8224578099
 11
13.3210200408
 21
1.8720944407
  0
LINE
  5
3C1
100
AcDbEntity
  8
0
100
AcDbLine
 62
2
  6
CONTINUOUS
 10
13.1496434531
 20
1.699336785
 11
13.206030605
 21
1.7557239369
  0
LINE
  5
3C2
100
AcDbEntity
  8
0
100
AcDbLine
 62
2
  6
CONTINUOUS
 10
13.27138341
 20
1.8210767419
 11
13.3215942862
 21
1.8712876181
  0
LINE
  5
3C3
100
AcDbEntity
  8
0
100
AcDbLine
 62
2
  6
CONTINUOUS
 10
13.151024521
 20
1.699336785
 11
13.206030605
 21
1.754342869
  0
LINE
  5
3C4
100
AcDbEntity
  8
0
100
AcDbLine
 62
2
  6
CONTINUOUS
 10
13.27138341
 20
1.819695674
 11
13.3221685316
 21
1.8704807956
  0
LINE
  5
3C5
100
AcDbEntity
  8
0
100
AcDbLine
 62
2
  6
CONTINUOUS
 10
13.1524055889
 20
1.699336785
 11
13.206030605
 21
1.7529618011
  0
LINE
  5
3C6
100
AcDbEntity
  8
0
100
AcDbLine
 62
2
  6
CONTINUOUS
 10
13.27138341
 20
1.8183146061
 11
13.3227427769
 21
1.869673973
  0
LINE
  5
3C7
100
AcDbEntity
  8
0
100
AcDbLine
 62
2
  6
CONTINUOUS
 10
13.1537866569
 20
1.699336785
 11
13.206030605
 21
1.7515807331
  0
LINE
  5
3C8
100
AcDbEntity
  8
0
100
AcDbLine
 62
2
  6
CONTINUOUS
 10
13.27138341
 20
1.8169335381
 11
13.3233170223
 21
1.8688671504
  0
LINE
  5
3C9
100
AcDbEntity
  8
0
100
AcDbLine
 62
2
  6
CONTINUOUS
 10
13.1551677248
 20
1.699336785
 11
13.206030605
 21
1.7501996652
  0
LINE
  5
3CA
100
AcDbEntity
  8
0
100
AcDbLine
 62
2
  6
CONTINUOUS
 10
13.27138341
 20
1.8155524702
 11
13.3238912676
 21
1.8680603278
  0
LINE
  5
3CB
100
AcDbEntity
  8
0
100
AcDbLine
 62
2
  6
CONTINUOUS
 10
13.1565487927
 20
1.699336785
 11
13.206030605
 21
1.7488185973
  0
LINE
  5
3CC
100
AcDbEntity
  8
0
100
AcDbLine
 62
2
  6
CONTINUOUS
 10
13.27138341
 20
1.8141714023
 11
13.324465513
 21
1.8672535053
  0
LINE
  5
3CD
100
AcDbEntity
  8
0
100
AcDbLine
 62
2
  6
CONTINUOUS
 10
13.1579298607
 20
1.699336785
 11
13.206030605
 21
1.7474375293
  0
LINE
  5
3CE
100
AcDbEntity
  8
0
100
AcDbLine
 62
2
  6
CONTINUOUS
 10
13.27138341
 20
1.8127903343
 11
13.3250397583
 21
1.8664466827
  0
LINE
  5
3CF
100
AcDbEntity
  8
0
100
AcDbLine
 62
2
  6
CONTINUOUS
 10
13.1593109286
 20
1.699336785
 11
13.206030605
 21
1.7460564614
  0
LINE
  5
3D0
100
AcDbEntity
  8
0
100
AcDbLine
 62
2
  6
CONTINUOUS
 10
13.27138341
 20
1.8114092664
 11
13.3256140037
 21
1.8656398601
  0
LINE
  5
3D1
100
AcDbEntity
  8
0
100
AcDbLine
 62
2
  6
CONTINUOUS
 10
13.1606919965
 20
1.699336785
 11
13.206030605
 21
1.7446753935
  0
LINE
  5
3D2
100
AcDbEntity
  8
0
100
AcDbLine
 62
2
  6
CONTINUOUS
 10
13.27138341
 20
1.8100281985
 11
13.326188249
 21
1.8648330375
  0
LINE
  5
3D3
100
AcDbEntity
  8
0
100
AcDbLine
 62
2
  6
CONTINUOUS
 10
13.1620730644
 20
1.699336785
 11
13.206030605
 21
1.7432943256
  0
LINE
  5
3D4
100
AcDbEntity
  8
0
100
AcDbLine
 62
2
  6
CONTINUOUS
 10
13.27138341
 20
1.8086471306
 11
13.3267624944
 21
1.864026215
  0
LINE
  5
3D5
100
AcDbEntity
  8
0
100
AcDbLine
 62
2
  6
CONTINUOUS
 10
13.1634541324
 20
1.699336785
 11
13.206030605
 21
1.7419132576
  0
LINE
  5
3D6
100
AcDbEntity
  8
0
100
AcDbLine
 62
2
  6
CONTINUOUS
 10
13.27138341
 20
1.8072660626
 11
13.3273367398
 21
1.8632193924
  0
LINE
  5
3D7
100
AcDbEntity
  8
0
100
AcDbLine
 62
2
  6
CONTINUOUS
 10
13.1648352003
 20
1.699336785
 11
13.206030605
 21
1.7405321897
  0
LINE
  5
3D8
100
AcDbEntity
  8
0
100
AcDbLine
 62
2
  6
CONTINUOUS
 10
13.27138341
 20
1.8058849947
 11
13.3277852891
 21
1.8622868737
  0
LINE
  5
3D9
100
AcDbEntity
  8
0
100
AcDbLine
 62
2
  6
CONTINUOUS
 10
13.1662162682
 20
1.699336785
 11
13.206030605
 21
1.7391511218
  0
LINE
  5
3DA
100
AcDbEntity
  8
0
100
AcDbLine
 62
2
  6
CONTINUOUS
 10
13.27138341
 20
1.8045039268
 11
13.3282256239
 21
1.8613461406
  0
LINE
  5
3DB
100
AcDbEntity
  8
0
100
AcDbLine
 62
2
  6
CONTINUOUS
 10
13.1675973362
 20
1.699336785
 11
13.206030605
 21
1.7377700538
  0
LINE
  5
3DC
100
AcDbEntity
  8
0
100
AcDbLine
 62
2
  6
CONTINUOUS
 10
13.27138341
 20
1.8031228588
 11
13.3286659587
 21
1.8604054075
  0
LINE
  5
3DD
100
AcDbEntity
  8
0
100
AcDbLine
 62
2
  6
CONTINUOUS
 10
13.1689784041
 20
1.699336785
 11
13.206030605
 21
1.7363889859
  0
LINE
  5
3DE
100
AcDbEntity
  8
0
100
AcDbLine
 62
2
  6
CONTINUOUS
 10
13.27138341
 20
1.8017417909
 11
13.3291062935
 21
1.8594646744
  0
LINE
  5
3DF
100
AcDbEntity
  8
0
100
AcDbLine
 62
2
  6
CONTINUOUS
 10
13.170359472
 20
1.699336785
 11
13.206030605
 21
1.735007918
  0
LINE
  5
3E0
100
AcDbEntity
  8
0
100
AcDbLine
 62
2
  6
CONTINUOUS
 10
13.27138341
 20
1.800360723
 11
13.3295466284
 21
1.8585239413
  0
LINE
  5
3E1
100
AcDbEntity
  8
0
100
AcDbLine
 62
2
  6
CONTINUOUS
 10
13.17174054
 20
1.699336785
 11
13.206030605
 21
1.73362685
  0
LINE
  5
3E2
100
AcDbEntity
  8
0
100
AcDbLine
 62
2
  6
CONTINUOUS
 10
13.27138341
 20
1.798979655
 11
13.3299869632
 21
1.8575832082
  0
LINE
  5
3E3
100
AcDbEntity
  8
0
100
AcDbLine
 62
2
  6
CONTINUOUS
 10
13.1731216079
 20
1.699336785
 11
13.206030605
 21
1.7322457821
  0
LINE
  5
3E4
100
AcDbEntity
  8
0
100
AcDbLine
 62
2
  6
CONTINUOUS
 10
13.27138341
 20
1.7975985871
 11
13.330427298
 21
1.8566424751
  0
LINE
  5
3E5
100
AcDbEntity
  8
0
100
AcDbLine
 62
2
  6
CONTINUOUS
 10
13.1745026758
 20
1.699336785
 11
13.206030605
 21
1.7308647142
  0
LINE
  5
3E6
100
AcDbEntity
  8
0
100
AcDbLine
 62
2
  6
CONTINUOUS
 10
13.27138341
 20
1.7962175192
 11
13.3308676329
 21
1.855701742
  0
LINE
  5
3E7
100
AcDbEntity
  8
0
100
AcDbLine
 62
2
  6
CONTINUOUS
 10
13.1758837438
 20
1.699336785
 11
13.206030605
 21
1.7294836462
  0
LINE
  5
3E8
100
AcDbEntity
  8
0
100
AcDbLine
 62
2
  6
CONTINUOUS
 10
13.27138341
 20
1.7948364512
 11
13.3313079677
 21
1.8547610089
  0
LINE
  5
3E9
100
AcDbEntity
  8
0
100
AcDbLine
 62
2
  6
CONTINUOUS
 10
13.1772648117
 20
1.699336785
 11
13.206030605
 21
1.7281025783
  0
LINE
  5
3EA
100
AcDbEntity
  8
0
100
AcDbLine
 62
2
  6
CONTINUOUS
 10
13.27138341
 20
1.7934553833
 11
13.3317483025
 21
1.8538202758
  0
LINE
  5
3EB
100
AcDbEntity
  8
0
100
AcDbLine
 62
2
  6
CONTINUOUS
 10
13.372792935
 20
1.8948649083
 11
13.3733232267
 21
1.8953952
  0
LINE
  5
3EC
100
AcDbEntity
  8
0
100
AcDbLine
 62
2
  6
CONTINUOUS
 10
13.1786458796
 20
1.699336785
 11
13.206030605
 21
1.7267215104
  0
LINE
  5
3ED
100
AcDbEntity
  8
0
100
AcDbLine
 62
2
  6
CONTINUOUS
 10
13.27138341
 20
1.7920743154
 11
13.3321886374
 21
1.8528795427
  0
LINE
  5
3EE
100
AcDbEntity
  8
0
100
AcDbLine
 62
2
  6
CONTINUOUS
 10
13.372792935
 20
1.8934838404
 11
13.3747042946
 21
1.8953952
  0
LINE
  5
3EF
100
AcDbEntity
  8
0
100
AcDbLine
 62
2
  6
CONTINUOUS
 10
13.1800269476
 20
1.699336785
 11
13.206030605
 21
1.7253404424
  0
LINE
  5
3F0
100
AcDbEntity
  8
0
100
AcDbLine
 62
2
  6
CONTINUOUS
 10
13.27138341
 20
1.7906932474
 11
13.3325881612
 21
1.8518979986
  0
LINE
  5
3F1
100
AcDbEntity
  8
0
100
AcDbLine
 62
2
  6
CONTINUOUS
 10
13.372792935
 20
1.8921027724
 11
13.3760853626
 21
1.8953952
  0
LINE
  5
3F2
100
AcDbEntity
  8
0
100
AcDbLine
 62
2
  6
CONTINUOUS
 10
13.1814080155
 20
1.699336785
 11
13.206030605
 21
1.7239593745
  0
LINE
  5
3F3
100
AcDbEntity
  8
0
100
AcDbLine
 62
2
  6
CONTINUOUS
 10
13.27138341
 20
1.7893121795
 11
13.3328781229
 21
1.8508068924
  0
LINE
  5
3F4
100
AcDbEntity
  8
0
100
AcDbLine
 62
2
  6
CONTINUOUS
 10
13.372792935
 20
1.8907217045
 11
13.3774664305
 21
1.8953952
  0
LINE
  5
3F5
100
AcDbEntity
  8
0
100
AcDbLine
 62
2
  6
CONTINUOUS
 10
13.1827890834
 20
1.699336785
 11
13.206030605
 21
1.7225783066
  0
LINE
  5
3F6
100
AcDbEntity
  8
0
100
AcDbLine
 62
2
  6
CONTINUOUS
 10
13.27138341
 20
1.7879311116
 11
13.3331680846
 21
1.8497157862
  0
LINE
  5
3F7
100
AcDbEntity
  8
0
100
AcDbLine
 62
2
  6
CONTINUOUS
 10
13.372792935
 20
1.8893406366
 11
13.3788474984
 21
1.8953952
  0
LINE
  5
3F8
100
AcDbEntity
  8
0
100
AcDbLine
 62
2
  6
CONTINUOUS
 10
13.1841701514
 20
1.699336785
 11
13.206030605
 21
1.7211972386
  0
LINE
  5
3F9
100
AcDbEntity
  8
0
100
AcDbLine
 62
2
  6
CONTINUOUS
 10
13.27138341
 20
1.7865500436
 11
13.3334580463
 21
1.8486246799
  0
LINE
  5
3FA
100
AcDbEntity
  8
0
100
AcDbLine
 62
2
  6
CONTINUOUS
 10
13.372792935
 20
1.8879595686
 11
13.3802285664
 21
1.8953952
  0
LINE
  5
3FB
100
AcDbEntity
  8
0
100
AcDbLine
 62
2
  6
CONTINUOUS
 10
13.1855512193
 20
1.699336785
 11
13.206030605
 21
1.7198161707
  0
LINE
  5
3FC
100
AcDbEntity
  8
0
100
AcDbLine
 62
2
  6
CONTINUOUS
 10
13.27138341
 20
1.7851689757
 11
13.333748008
 21
1.8475335737
  0
LINE
  5
3FD
100
AcDbEntity
  8
0
100
AcDbLine
 62
2
  6
CONTINUOUS
 10
13.372792935
 20
1.8865785007
 11
13.3816096343
 21
1.8953952
  0
LINE
  5
3FE
100
AcDbEntity
  8
0
100
AcDbLine
 62
2
  6
CONTINUOUS
 10
13.1869322872
 20
1.699336785
 11
13.206030605
 21
1.7184351028
  0
LINE
  5
3FF
100
AcDbEntity
  8
0
100
AcDbLine
 62
2
  6
CONTINUOUS
 10
13.27138341
 20
1.7837879078
 11
13.3340379697
 21
1.8464424675
  0
LINE
  5
400
100
AcDbEntity
  8
0
100
AcDbLine
 62
2
  6
CONTINUOUS
 10
13.372792935
 20
1.8851974328
 11
13.3829907022
 21
1.8953952
  0
LINE
  5
401
100
AcDbEntity
  8
0
100
AcDbLine
 62
2
  6
CONTINUOUS
 10
13.1883133552
 20
1.699336785
 11
13.206030605
 21
1.7170540348
  0
LINE
  5
402
100
AcDbEntity
  8
0
100
AcDbLine
 62
2
  6
CONTINUOUS
 10
13.27138341
 20
1.7824068398
 11
13.3343279314
 21
1.8453513612
  0
LINE
  5
403
100
AcDbEntity
  8
0
100
AcDbLine
 62
2
  6
CONTINUOUS
 10
13.372792935
 20
1.8838163648
 11
13.3843717702
 21
1.8953952
  0
LINE
  5
404
100
AcDbEntity
  8
0
100
AcDbLine
 62
2
  6
CONTINUOUS
 10
13.1896944231
 20
1.699336785
 11
13.206030605
 21
1.7156729669
  0
LINE
  5
405
100
AcDbEntity
  8
0
100
AcDbLine
 62
2
  6
CONTINUOUS
 10
13.27138341
 20
1.7810257719
 11
13.3346178931
 21
1.844260255
  0
LINE
  5
406
100
AcDbEntity
  8
0
100
AcDbLine
 62
2
  6
CONTINUOUS
 10
13.372792935
 20
1.8824352969
 11
13.3857528381
 21
1.8953952
  0
LINE
  5
407
100
AcDbEntity
  8
0
100
AcDbLine
 62
2
  6
CONTINUOUS
 10
13.191075491
 20
1.699336785
 11
13.206030605
 21
1.714291899
  0
LINE
  5
408
100
AcDbEntity
  8
0
100
AcDbLine
 62
2
  6
CONTINUOUS
 10
13.27138341
 20
1.779644704
 11
13.3349078548
 21
1.8431691488
  0
LINE
  5
409
100
AcDbEntity
  8
0
100
AcDbLine
 62
2
  6
CONTINUOUS
 10
13.372792935
 20
1.881054229
 11
13.387133906
 21
1.8953952
  0
LINE
  5
40A
100
AcDbEntity
  8
0
100
AcDbLine
 62
2
  6
CONTINUOUS
 10
13.192456559
 20
1.699336785
 11
13.206030605
 21
1.712910831
  0
LINE
  5
40B
100
AcDbEntity
  8
0
100
AcDbLine
 62
2
  6
CONTINUOUS
 10
13.27138341
 20
1.778263636
 11
13.3351978165
 21
1.8420780425
  0
LINE
  5
40C
100
AcDbEntity
  8
0
100
AcDbLine
 62
2
  6
CONTINUOUS
 10
13.372792935
 20
1.879673161
 11
13.388514974
 21
1.8953952
  0
LINE
  5
40D
100
AcDbEntity
  8
0
100
AcDbLine
 62
2
  6
CONTINUOUS
 10
13.1938376269
 20
1.699336785
 11
13.206030605
 21
1.7115297631
  0
LINE
  5
40E
100
AcDbEntity
  8
0
100
AcDbLine
 62
2
  6
CONTINUOUS
 10
13.27138341
 20
1.7768825681
 11
13.3354877782
 21
1.8409869363
  0
LINE
  5
40F
100
AcDbEntity
  8
0
100
AcDbLine
 62
2
  6
CONTINUOUS
 10
13.372792935
 20
1.8782920931
 11
13.3898960419
 21
1.8953952
  0
LINE
  5
410
100
AcDbEntity
  8
0
100
AcDbLine
 62
2
  6
CONTINUOUS
 10
13.1952186948
 20
1.699336785
 11
13.206030605
 21
1.7101486952
  0
LINE
  5
411
100
AcDbEntity
  8
0
100
AcDbLine
 62
2
  6
CONTINUOUS
 10
13.27138341
 20
1.7755015002
 11
13.3357075668
 21
1.839825657
  0
LINE
  5
412
100
AcDbEntity
  8
0
100
AcDbLine
 62
2
  6
CONTINUOUS
 10
13.372792935
 20
1.8769110252
 11
13.3912771098
 21
1.8953952
  0
LINE
  5
413
100
AcDbEntity
  8
0
100
AcDbLine
 62
2
  6
CONTINUOUS
 10
13.1965997627
 20
1.699336785
 11
13.206030605
 21
1.7087676273
  0
LINE
  5
414
100
AcDbEntity
  8
0
100
AcDbLine
 62
2
  6
CONTINUOUS
 10
13.27138341
 20
1.7741204323
 11
13.3358162988
 21
1.8385533211
  0
LINE
  5
415
100
AcDbEntity
  8
0
100
AcDbLine
 62
2
  6
CONTINUOUS
 10
13.372792935
 20
1.8755299573
 11
13.3926581777
 21
1.8953952
  0
LINE
  5
416
100
AcDbEntity
  8
0
100
AcDbLine
 62
2
  6
CONTINUOUS
 10
13.1979808307
 20
1.699336785
 11
13.206030605
 21
1.7073865593
  0
LINE
  5
417
100
AcDbEntity
  8
0
100
AcDbLine
 62
2
  6
CONTINUOUS
 10
13.27138341
 20
1.7727393643
 11
13.3359250308
 21
1.8372809852
  0
LINE
  5
418
100
AcDbEntity
  8
0
100
AcDbLine
 62
2
  6
CONTINUOUS
 10
13.372792935
 20
1.8741488893
 11
13.3940392457
 21
1.8953952
  0
LINE
  5
419
100
AcDbEntity
  8
0
100
AcDbLine
 62
2
  6
CONTINUOUS
 10
13.1993618986
 20
1.699336785
 11
13.206030605
 21
1.7060054914
  0
LINE
  5
41A
100
AcDbEntity
  8
0
100
AcDbLine
 62
2
  6
CONTINUOUS
 10
13.27138341
 20
1.7713582964
 11
13.3360337628
 21
1.8360086492
  0
LINE
  5
41B
100
AcDbEntity
  8
0
100
AcDbLine
 62
2
  6
CONTINUOUS
 10
13.372792935
 20
1.8727678214
 11
13.3954203136
 21
1.8953952
  0
LINE
  5
41C
100
AcDbEntity
  8
0
100
AcDbLine
 62
2
  6
CONTINUOUS
 10
13.2007429665
 20
1.699336785
 11
13.206030605
 21
1.7046244235
  0
LINE
  5
41D
100
AcDbEntity
  8
0
100
AcDbLine
 62
2
  6
CONTINUOUS
 10
13.27138341
 20
1.7699772285
 11
13.3361424948
 21
1.8347363133
  0
LINE
  5
41E
100
AcDbEntity
  8
0
100
AcDbLine
 62
2
  6
CONTINUOUS
 10
13.372792935
 20
1.8713867535
 11
13.3968013815
 21
1.8953952
  0
LINE
  5
41F
100
AcDbEntity
  8
0
100
AcDbLine
 62
2
  6
CONTINUOUS
 10
13.2021240345
 20
1.699336785
 11
13.206030605
 21
1.7032433555
  0
LINE
  5
420
100
AcDbEntity
  8
0
100
AcDbLine
 62
2
  6
CONTINUOUS
 10
13.27138341
 20
1.7685961605
 11
13.3362512268
 21
1.8334639773
  0
LINE
  5
421
100
AcDbEntity
  8
0
100
AcDbLine
 62
2
  6
CONTINUOUS
 10
13.372792935
 20
1.8700056855
 11
13.3981824495
 21
1.8953952
  0
LINE
  5
422
100
AcDbEntity
  8
0
100
AcDbLine
 62
2
  6
CONTINUOUS
 10
13.2035051024
 20
1.699336785
 11
13.206030605
 21
1.7018622876
  0
LINE
  5
423
100
AcDbEntity
  8
0
100
AcDbLine
 62
2
  6
CONTINUOUS
 10
13.27138341
 20
1.7672150926
 11
13.3363599588
 21
1.8321916414
  0
LINE
  5
424
100
AcDbEntity
  8
0
100
AcDbLine
 62
2
  6
CONTINUOUS
 10
13.372792935
 20
1.8686246176
 11
13.3995635174
 21
1.8953952
  0
LINE
  5
425
100
AcDbEntity
  8
0
100
AcDbLine
 62
2
  6
CONTINUOUS
 10
13.2048861703
 20
1.699336785
 11
13.206030605
 21
1.7004812197
  0
LINE
  5
426
100
AcDbEntity
  8
0
100
AcDbLine
 62
2
  6
CONTINUOUS
 10
13.27138341
 20
1.7658340247
 11
13.3364686908
 21
1.8309193055
  0
LINE
  5
427
100
AcDbEntity
  8
0
100
AcDbLine
 62
2
  6
CONTINUOUS
 10
13.372792935
 20
1.8672435497
 11
13.4009445853
 21
1.8953952
  0
LINE
  5
428
100
AcDbEntity
  8
0
100
AcDbLine
 62
2
  6
CONTINUOUS
 10
13.27138341
 20
1.7644529567
 11
13.3365774228
 21
1.8296469695
  0
LINE
  5
429
100
AcDbEntity
  8
0
100
AcDbLine
 62
2
  6
CONTINUOUS
 10
13.372792935
 20
1.8658624817
 11
13.4023256533
 21
1.8953952
  0
LINE
  5
42A
100
AcDbEntity
  8
0
100
AcDbLine
 62
2
  6
CONTINUOUS
 10
13.27138341
 20
1.7630718888
 11
13.3366861548
 21
1.8283746336
  0
LINE
  5
42B
100
AcDbEntity
  8
0
100
AcDbLine
 62
2
  6
CONTINUOUS
 10
13.372792935
 20
1.8644814138
 11
13.4037067212
 21
1.8953952
  0
LINE
  5
42C
100
AcDbEntity
  8
0
100
AcDbLine
 62
2
  6
CONTINUOUS
 10
13.27138341
 20
1.7616908209
 11
13.336736215
 21
1.8270436259
  0
LINE
  5
42D
100
AcDbEntity
  8
0
100
AcDbLine
 62
2
  6
CONTINUOUS
 10
13.372792935
 20
1.8631003459
 11
13.4050877891
 21
1.8953952
  0
LINE
  5
42E
100
AcDbEntity
  8
0
100
AcDbLine
 62
2
  6
CONTINUOUS
 10
13.27138341
 20
1.7603097529
 11
13.336736215
 21
1.8256625579
  0
LINE
  5
42F
100
AcDbEntity
  8
0
100
AcDbLine
 62
2
  6
CONTINUOUS
 10
13.372792935
 20
1.8617192779
 11
13.4064688571
 21
1.8953952
  0
LINE
  5
430
100
AcDbEntity
  8
0
100
AcDbLine
 62
2
  6
CONTINUOUS
 10
13.27138341
 20
1.758928685
 11
13.336736215
 21
1.82428149
  0
LINE
  5
431
100
AcDbEntity
  8
0
100
AcDbLine
 62
2
  6
CONTINUOUS
 10
13.372792935
 20
1.86033821
 11
13.407849925
 21
1.8953952
  0
LINE
  5
432
100
AcDbEntity
  8
0
100
AcDbLine
 62
2
  6
CONTINUOUS
 10
13.27138341
 20
1.7575476171
 11
13.336736215
 21
1.8229004221
  0
LINE
  5
433
100
AcDbEntity
  8
0
100
AcDbLine
 62
2
  6
CONTINUOUS
 10
13.372792935
 20
1.8589571421
 11
13.4092309929
 21
1.8953952
  0
LINE
  5
434
100
AcDbEntity
  8
0
100
AcDbLine
 62
2
  6
CONTINUOUS
 10
13.27138341
 20
1.7561665491
 11
13.336736215
 21
1.8215193541
  0
LINE
  5
435
100
AcDbEntity
  8
0
100
AcDbLine
 62
2
  6
CONTINUOUS
 10
13.372792935
 20
1.8575760741
 11
13.4106120609
 21
1.8953952
  0
LINE
  5
436
100
AcDbEntity
  8
0
100
AcDbLine
 62
2
  6
CONTINUOUS
 10
13.27138341
 20
1.7547854812
 11
13.336736215
 21
1.8201382862
  0
LINE
  5
437
100
AcDbEntity
  8
0
100
AcDbLine
 62
2
  6
CONTINUOUS
 10
13.372792935
 20
1.8561950062
 11
13.4119931288
 21
1.8953952
  0
LINE
  5
438
100
AcDbEntity
  8
0
100
AcDbLine
 62
2
  6
CONTINUOUS
 10
13.27138341
 20
1.7534044133
 11
13.336736215
 21
1.8187572183
  0
LINE
  5
439
100
AcDbEntity
  8
0
100
AcDbLine
 62
2
  6
CONTINUOUS
 10
13.372792935
 20
1.8548139383
 11
13.4133741967
 21
1.8953952
  0
LINE
  5
43A
100
AcDbEntity
  8
0
100
AcDbLine
 62
2
  6
CONTINUOUS
 10
13.27138341
 20
1.7520233453
 11
13.336736215
 21
1.8173761503
  0
LINE
  5
43B
100
AcDbEntity
  8
0
100
AcDbLine
 62
2
  6
CONTINUOUS
 10
13.372792935
 20
1.8534328703
 11
13.4147552647
 21
1.8953952
  0
LINE
  5
43C
100
AcDbEntity
  8
0
100
AcDbLine
 62
2
  6
CONTINUOUS
 10
13.27138341
 20
1.7506422774
 11
13.336736215
 21
1.8159950824
  0
LINE
  5
43D
100
AcDbEntity
  8
0
100
AcDbLine
 62
2
  6
CONTINUOUS
 10
13.372792935
 20
1.8520518024
 11
13.4161363326
 21
1.8953952
  0
LINE
  5
43E
100
AcDbEntity
  8
0
100
AcDbLine
 62
2
  6
CONTINUOUS
 10
13.27138341
 20
1.7492612095
 11
13.336736215
 21
1.8146140145
  0
LINE
  5
43F
100
AcDbEntity
  8
0
100
AcDbLine
 62
2
  6
CONTINUOUS
 10
13.372792935
 20
1.8506707345
 11
13.4175174005
 21
1.8953952
  0
LINE
  5
440
100
AcDbEntity
  8
0
100
AcDbLine
 62
2
  6
CONTINUOUS
 10
13.27138341
 20
1.7478801415
 11
13.336736215
 21
1.8132329465
  0
LINE
  5
441
100
AcDbEntity
  8
0
100
AcDbLine
 62
2
  6
CONTINUOUS
 10
13.372792935
 20
1.8492896665
 11
13.4188984685
 21
1.8953952
  0
LINE
  5
442
100
AcDbEntity
  8
0
100
AcDbLine
 62
2
  6
CONTINUOUS
 10
13.27138341
 20
1.7464990736
 11
13.336736215
 21
1.8118518786
  0
LINE
  5
443
100
AcDbEntity
  8
0
100
AcDbLine
 62
2
  6
CONTINUOUS
 10
13.372792935
 20
1.8479085986
 11
13.4202795364
 21
1.8953952
  0
LINE
  5
444
100
AcDbEntity
  8
0
100
AcDbLine
 62
2
  6
CONTINUOUS
 10
13.27138341
 20
1.7451180057
 11
13.336736215
 21
1.8104708107
  0
LINE
  5
445
100
AcDbEntity
  8
0
100
AcDbLine
 62
2
  6
CONTINUOUS
 10
13.372792935
 20
1.8465275307
 11
13.4216606043
 21
1.8953952
  0
LINE
  5
446
100
AcDbEntity
  8
0
100
AcDbLine
 62
2
  6
CONTINUOUS
 10
13.27138341
 20
1.7437369377
 11
13.336736215
 21
1.8090897427
  0
LINE
  5
447
100
AcDbEntity
  8
0
100
AcDbLine
 62
2
  6
CONTINUOUS
 10
13.372792935
 20
1.8451464627
 11
13.4230416723
 21
1.8953952
  0
LINE
  5
448
100
AcDbEntity
  8
0
100
AcDbLine
 62
2
  6
CONTINUOUS
 10
13.27138341
 20
1.7423558698
 11
13.336736215
 21
1.8077086748
  0
LINE
  5
449
100
AcDbEntity
  8
0
100
AcDbLine
 62
2
  6
CONTINUOUS
 10
13.372792935
 20
1.8437653948
 11
13.4244227402
 21
1.8953952
  0
LINE
  5
44A
100
AcDbEntity
  8
0
100
AcDbLine
 62
2
  6
CONTINUOUS
 10
13.27138341
 20
1.7409748019
 11
13.336736215
 21
1.8063276069
  0
LINE
  5
44B
100
AcDbEntity
  8
0
100
AcDbLine
 62
2
  6
CONTINUOUS
 10
13.372792935
 20
1.8423843269
 11
13.4258038081
 21
1.8953952
  0
LINE
  5
44C
100
AcDbEntity
  8
0
100
AcDbLine
 62
2
  6
CONTINUOUS
 10
13.27138341
 20
1.739593734
 11
13.336736215
 21
1.804946539
  0
LINE
  5
44D
100
AcDbEntity
  8
0
100
AcDbLine
 62
2
  6
CONTINUOUS
 10
13.372792935
 20
1.841003259
 11
13.427184876
 21
1.8953952
  0
LINE
  5
44E
100
AcDbEntity
  8
0
100
AcDbLine
 62
2
  6
CONTINUOUS
 10
13.27138341
 20
1.738212666
 11
13.336736215
 21
1.803565471
  0
LINE
  5
44F
100
AcDbEntity
  8
0
100
AcDbLine
 62
2
  6
CONTINUOUS
 10
13.372792935
 20
1.839622191
 11
13.428565944
 21
1.8953952
  0
LINE
  5
450
100
AcDbEntity
  8
0
100
AcDbLine
 62
2
  6
CONTINUOUS
 10
13.27138341
 20
1.7368315981
 11
13.336736215
 21
1.8021844031
  0
LINE
  5
451
100
AcDbEntity
  8
0
100
AcDbLine
 62
2
  6
CONTINUOUS
 10
13.372792935
 20
1.8382411231
 11
13.4299470119
 21
1.8953952
  0
LINE
  5
452
100
AcDbEntity
  8
0
100
AcDbLine
 62
2
  6
CONTINUOUS
 10
13.27138341
 20
1.7354505302
 11
13.336736215
 21
1.8008033352
  0
LINE
  5
453
100
AcDbEntity
  8
0
100
AcDbLine
 62
2
  6
CONTINUOUS
 10
13.372792935
 20
1.8368600552
 11
13.4313280798
 21
1.8953952
  0
LINE
  5
454
100
AcDbEntity
  8
0
100
AcDbLine
 62
2
  6
CONTINUOUS
 10
13.27138341
 20
1.7340694622
 11
13.336736215
 21
1.7994222672
  0
LINE
  5
455
100
AcDbEntity
  8
0
100
AcDbLine
 62
2
  6
CONTINUOUS
 10
13.372792935
 20
1.8354789872
 11
13.4327091478
 21
1.8953952
  0
LINE
  5
456
100
AcDbEntity
  8
0
100
AcDbLine
 62
2
  6
CONTINUOUS
 10
13.27138341
 20
1.7326883943
 11
13.336736215
 21
1.7980411993
  0
LINE
  5
457
100
AcDbEntity
  8
0
100
AcDbLine
 62
2
  6
CONTINUOUS
 10
13.372792935
 20
1.8340979193
 11
13.4340902157
 21
1.8953952
  0
LINE
  5
458
100
AcDbEntity
  8
0
100
AcDbLine
 62
2
  6
CONTINUOUS
 10
13.27138341
 20
1.7313073264
 11
13.336736215
 21
1.7966601314
  0
LINE
  5
459
100
AcDbEntity
  8
0
100
AcDbLine
 62
2
  6
CONTINUOUS
 10
13.372792935
 20
1.8327168514
 11
13.4354712836
 21
1.8953952
  0
LINE
  5
45A
100
AcDbEntity
  8
0
100
AcDbLine
 62
2
  6
CONTINUOUS
 10
13.27138341
 20
1.7299262584
 11
13.336736215
 21
1.7952790634
  0
LINE
  5
45B
100
AcDbEntity
  8
0
100
AcDbLine
 62
2
  6
CONTINUOUS
 10
13.372792935
 20
1.8313357834
 11
13.4368523516
 21
1.8953952
  0
LINE
  5
45C
100
AcDbEntity
  8
0
100
AcDbLine
 62
2
  6
CONTINUOUS
 10
13.27138341
 20
1.7285451905
 11
13.336736215
 21
1.7938979955
  0
LINE
  5
45D
100
AcDbEntity
  8
0
100
AcDbLine
 62
2
  6
CONTINUOUS
 10
13.372792935
 20
1.8299547155
 11
13.43814574
 21
1.8953075205
  0
LINE
  5
45E
100
AcDbEntity
  8
0
100
AcDbLine
 62
2
  6
CONTINUOUS
 10
13.27138341
 20
1.7271641226
 11
13.336736215
 21
1.7925169276
  0
LINE
  5
45F
100
AcDbEntity
  8
0
100
AcDbLine
 62
2
  6
CONTINUOUS
 10
13.372792935
 20
1.8285736476
 11
13.43814574
 21
1.8939264526
  0
LINE
  5
460
100
AcDbEntity
  8
0
100
AcDbLine
 62
2
  6
CONTINUOUS
 10
13.27138341
 20
1.7257830546
 11
13.336736215
 21
1.7911358596
  0
LINE
  5
461
100
AcDbEntity
  8
0
100
AcDbLine
 62
2
  6
CONTINUOUS
 10
13.372792935
 20
1.8271925796
 11
13.43814574
 21
1.8925453846
  0
LINE
  5
462
100
AcDbEntity
  8
0
100
AcDbLine
 62
2
  6
CONTINUOUS
 10
13.27138341
 20
1.7244019867
 11
13.336736215
 21
1.7897547917
  0
LINE
  5
463
100
AcDbEntity
  8
0
100
AcDbLine
 62
2
  6
CONTINUOUS
 10
13.372792935
 20
1.8258115117
 11
13.43814574
 21
1.8911643167
  0
LINE
  5
464
100
AcDbEntity
  8
0
100
AcDbLine
 62
2
  6
CONTINUOUS
 10
13.27138341
 20
1.7230209188
 11
13.336736215
 21
1.7883737238
  0
LINE
  5
465
100
AcDbEntity
  8
0
100
AcDbLine
 62
2
  6
CONTINUOUS
 10
13.372792935
 20
1.8244304438
 11
13.43814574
 21
1.8897832488
  0
LINE
  5
466
100
AcDbEntity
  8
0
100
AcDbLine
 62
2
  6
CONTINUOUS
 10
13.27138341
 20
1.7216398508
 11
13.336736215
 21
1.7869926558
  0
LINE
  5
467
100
AcDbEntity
  8
0
100
AcDbLine
 62
2
  6
CONTINUOUS
 10
13.372792935
 20
1.8230493758
 11
13.43814574
 21
1.8884021808
  0
LINE
  5
468
100
AcDbEntity
  8
0
100
AcDbLine
 62
2
  6
CONTINUOUS
 10
13.27138341
 20
1.7202587829
 11
13.336736215
 21
1.7856115879
  0
LINE
  5
469
100
AcDbEntity
  8
0
100
AcDbLine
 62
2
  6
CONTINUOUS
 10
13.372792935
 20
1.8216683079
 11
13.43814574
 21
1.8870211129
  0
LINE
  5
46A
100
AcDbEntity
  8
0
100
AcDbLine
 62
2
  6
CONTINUOUS
 10
13.27138341
 20
1.718877715
 11
13.336736215
 21
1.78423052
  0
LINE
  5
46B
100
AcDbEntity
  8
0
100
AcDbLine
 62
2
  6
CONTINUOUS
 10
13.372792935
 20
1.82028724
 11
13.43814574
 21
1.885640045
  0
LINE
  5
46C
100
AcDbEntity
  8
0
100
AcDbLine
 62
2
  6
CONTINUOUS
 10
13.27138341
 20
1.717496647
 11
13.336736215
 21
1.782849452
  0
LINE
  5
46D
100
AcDbEntity
  8
0
100
AcDbLine
 62
2
  6
CONTINUOUS
 10
13.372792935
 20
1.818906172
 11
13.43814574
 21
1.884258977
  0
LINE
  5
46E
100
AcDbEntity
  8
0
100
AcDbLine
 62
2
  6
CONTINUOUS
 10
13.27138341
 20
1.7161155791
 11
13.336736215
 21
1.7814683841
  0
LINE
  5
46F
100
AcDbEntity
  8
0
100
AcDbLine
 62
2
  6
CONTINUOUS
 10
13.372792935
 20
1.8175251041
 11
13.43814574
 21
1.8828779091
  0
LINE
  5
470
100
AcDbEntity
  8
0
100
AcDbLine
 62
2
  6
CONTINUOUS
 10
13.27138341
 20
1.7147345112
 11
13.336736215
 21
1.7800873162
  0
LINE
  5
471
100
AcDbEntity
  8
0
100
AcDbLine
 62
2
  6
CONTINUOUS
 10
13.372792935
 20
1.8161440362
 11
13.43814574
 21
1.8814968412
  0
LINE
  5
472
100
AcDbEntity
  8
0
100
AcDbLine
 62
2
  6
CONTINUOUS
 10
13.27138341
 20
1.7133534432
 11
13.336736215
 21
1.7787062482
  0
LINE
  5
473
100
AcDbEntity
  8
0
100
AcDbLine
 62
2
  6
CONTINUOUS
 10
13.372792935
 20
1.8147629682
 11
13.43814574
 21
1.8801157732
  0
LINE
  5
474
100
AcDbEntity
  8
0
100
AcDbLine
 62
2
  6
CONTINUOUS
 10
13.27138341
 20
1.7119723753
 11
13.336736215
 21
1.7773251803
  0
LINE
  5
475
100
AcDbEntity
  8
0
100
AcDbLine
 62
2
  6
CONTINUOUS
 10
13.372792935
 20
1.8133819003
 11
13.43814574
 21
1.8787347053
  0
LINE
  5
476
100
AcDbEntity
  8
0
100
AcDbLine
 62
2
  6
CONTINUOUS
 10
13.27138341
 20
1.7105913074
 11
13.336736215
 21
1.7759441124
  0
LINE
  5
477
100
AcDbEntity
  8
0
100
AcDbLine
 62
2
  6
CONTINUOUS
 10
13.372792935
 20
1.8120008324
 11
13.43814574
 21
1.8773536374
  0
LINE
  5
478
100
AcDbEntity
  8
0
100
AcDbLine
 62
2
  6
CONTINUOUS
 10
13.27138341
 20
1.7092102394
 11
13.336736215
 21
1.7745630444
  0
LINE
  5
479
100
AcDbEntity
  8
0
100
AcDbLine
 62
2
  6
CONTINUOUS
 10
13.372792935
 20
1.8106197644
 11
13.43814574
 21
1.8759725694
  0
LINE
  5
47A
100
AcDbEntity
  8
0
100
AcDbLine
 62
2
  6
CONTINUOUS
 10
13.27138341
 20
1.7078291715
 11
13.336736215
 21
1.7731819765
  0
LINE
  5
47B
100
AcDbEntity
  8
0
100
AcDbLine
 62
2
  6
CONTINUOUS
 10
13.372792935
 20
1.8092386965
 11
13.43814574
 21
1.8745915015
  0
LINE
  5
47C
100
AcDbEntity
  8
0
100
AcDbLine
 62
2
  6
CONTINUOUS
 10
13.27138341
 20
1.7064481036
 11
13.336736215
 21
1.7718009086
  0
LINE
  5
47D
100
AcDbEntity
  8
0
100
AcDbLine
 62
2
  6
CONTINUOUS
 10
13.372792935
 20
1.8078576286
 11
13.43814574
 21
1.8732104336
  0
LINE
  5
47E
100
AcDbEntity
  8
0
100
AcDbLine
 62
2
  6
CONTINUOUS
 10
13.27138341
 20
1.7050670357
 11
13.336736215
 21
1.7704198407
  0
LINE
  5
47F
100
AcDbEntity
  8
0
100
AcDbLine
 62
2
  6
CONTINUOUS
 10
13.372792935
 20
1.8064765607
 11
13.43814574
 21
1.8718293657
  0
LINE
  5
480
100
AcDbEntity
  8
0
100
AcDbLine
 62
2
  6
CONTINUOUS
 10
13.27138341
 20
1.7036859677
 11
13.336736215
 21
1.7690387727
  0
LINE
  5
481
100
AcDbEntity
  8
0
100
AcDbLine
 62
2
  6
CONTINUOUS
 10
13.372792935
 20
1.8050954927
 11
13.43814574
 21
1.8704482977
  0
LINE
  5
482
100
AcDbEntity
  8
0
100
AcDbLine
 62
2
  6
CONTINUOUS
 10
13.27138341
 20
1.7023048998
 11
13.336736215
 21
1.7676577048
  0
LINE
  5
483
100
AcDbEntity
  8
0
100
AcDbLine
 62
2
  6
CONTINUOUS
 10
13.372792935
 20
1.8037144248
 11
13.43814574
 21
1.8690672298
  0
LINE
  5
484
100
AcDbEntity
  8
0
100
AcDbLine
 62
2
  6
CONTINUOUS
 10
13.27138341
 20
1.7009238319
 11
13.336736215
 21
1.7662766369
  0
LINE
  5
485
100
AcDbEntity
  8
0
100
AcDbLine
 62
2
  6
CONTINUOUS
 10
13.372792935
 20
1.8023333569
 11
13.43814574
 21
1.8676861619
  0
LINE
  5
486
100
AcDbEntity
  8
0
100
AcDbLine
 62
2
  6
CONTINUOUS
 10
13.27138341
 20
1.6995427639
 11
13.336736215
 21
1.7648955689
  0
LINE
  5
487
100
AcDbEntity
  8
0
100
AcDbLine
 62
2
  6
CONTINUOUS
 10
13.372792935
 20
1.8009522889
 11
13.43814574
 21
1.8663050939
  0
LINE
  5
488
100
AcDbEntity
  8
0
100
AcDbLine
 62
2
  6
CONTINUOUS
 10
13.272558499
 20
1.699336785
 11
13.336736215
 21
1.763514501
  0
LINE
  5
489
100
AcDbEntity
  8
0
100
AcDbLine
 62
2
  6
CONTINUOUS
 10
13.372792935
 20
1.799571221
 11
13.43814574
 21
1.864924026
  0
LINE
  5
48A
100
AcDbEntity
  8
0
100
AcDbLine
 62
2
  6
CONTINUOUS
 10
13.2739395669
 20
1.699336785
 11
13.336736215
 21
1.7621334331
  0
LINE
  5
48B
100
AcDbEntity
  8
0
100
AcDbLine
 62
2
  6
CONTINUOUS
 10
13.372792935
 20
1.7981901531
 11
13.43814574
 21
1.8635429581
  0
LINE
  5
48C
100
AcDbEntity
  8
0
100
AcDbLine
 62
2
  6
CONTINUOUS
 10
13.2753206349
 20
1.699336785
 11
13.336736215
 21
1.7607523651
  0
LINE
  5
48D
100
AcDbEntity
  8
0
100
AcDbLine
 62
2
  6
CONTINUOUS
 10
13.372792935
 20
1.7968090851
 11
13.43814574
 21
1.8621618901
  0
LINE
  5
48E
100
AcDbEntity
  8
0
100
AcDbLine
 62
2
  6
CONTINUOUS
 10
13.2767017028
 20
1.699336785
 11
13.336736215
 21
1.7593712972
  0
LINE
  5
48F
100
AcDbEntity
  8
0
100
AcDbLine
 62
2
  6
CONTINUOUS
 10
13.372792935
 20
1.7954280172
 11
13.43814574
 21
1.8607808222
  0
LINE
  5
490
100
AcDbEntity
  8
0
100
AcDbLine
 62
2
  6
CONTINUOUS
 10
13.2780827707
 20
1.699336785
 11
13.336736215
 21
1.7579902293
  0
LINE
  5
491
100
AcDbEntity
  8
0
100
AcDbLine
 62
2
  6
CONTINUOUS
 10
13.372792935
 20
1.7940469493
 11
13.43814574
 21
1.8593997543
  0
LINE
  5
492
100
AcDbEntity
  8
0
100
AcDbLine
 62
2
  6
CONTINUOUS
 10
13.2794638387
 20
1.699336785
 11
13.336736215
 21
1.7566091613
  0
LINE
  5
493
100
AcDbEntity
  8
0
100
AcDbLine
 62
2
  6
CONTINUOUS
 10
13.372792935
 20
1.7926658813
 11
13.43814574
 21
1.8580186863
  0
LINE
  5
494
100
AcDbEntity
  8
0
100
AcDbLine
 62
2
  6
CONTINUOUS
 10
13.2808449066
 20
1.699336785
 11
13.336736215
 21
1.7552280934
  0
LINE
  5
495
100
AcDbEntity
  8
0
100
AcDbLine
 62
2
  6
CONTINUOUS
 10
13.372792935
 20
1.7912848134
 11
13.43814574
 21
1.8566376184
  0
LINE
  5
496
100
AcDbEntity
  8
0
100
AcDbLine
 62
2
  6
CONTINUOUS
 10
13.2822259745
 20
1.699336785
 11
13.336736215
 21
1.7538470255
  0
LINE
  5
497
100
AcDbEntity
  8
0
100
AcDbLine
 62
2
  6
CONTINUOUS
 10
13.372792935
 20
1.7899037455
 11
13.43814574
 21
1.8552565505
  0
LINE
  5
498
100
AcDbEntity
  8
0
100
AcDbLine
 62
2
  6
CONTINUOUS
 10
13.2836070425
 20
1.699336785
 11
13.336736215
 21
1.7524659575
  0
LINE
  5
499
100
AcDbEntity
  8
0
100
AcDbLine
 62
2
  6
CONTINUOUS
 10
13.372792935
 20
1.7885226775
 11
13.43814574
 21
1.8538754825
  0
LINE
  5
49A
100
AcDbEntity
  8
0
100
AcDbLine
 62
2
  6
CONTINUOUS
 10
13.2849881104
 20
1.699336785
 11
13.336736215
 21
1.7510848896
  0
LINE
  5
49B
100
AcDbEntity
  8
0
100
AcDbLine
 62
2
  6
CONTINUOUS
 10
13.372792935
 20
1.7871416096
 11
13.43814574
 21
1.8524944146
  0
LINE
  5
49C
100
AcDbEntity
  8
0
100
AcDbLine
 62
2
  6
CONTINUOUS
 10
13.2863691783
 20
1.699336785
 11
13.336736215
 21
1.7497038217
  0
LINE
  5
49D
100
AcDbEntity
  8
0
100
AcDbLine
 62
2
  6
CONTINUOUS
 10
13.372792935
 20
1.7857605417
 11
13.43814574
 21
1.8511133467
  0
LINE
  5
49E
100
AcDbEntity
  8
0
100
AcDbLine
 62
2
  6
CONTINUOUS
 10
13.2877502463
 20
1.699336785
 11
13.336736215
 21
1.7483227537
  0
LINE
  5
49F
100
AcDbEntity
  8
0
100
AcDbLine
 62
2
  6
CONTINUOUS
 10
13.372792935
 20
1.7843794737
 11
13.43814574
 21
1.8497322787
  0
LINE
  5
4A0
100
AcDbEntity
  8
0
100
AcDbLine
 62
2
  6
CONTINUOUS
 10
13.2891313142
 20
1.699336785
 11
13.336736215
 21
1.7469416858
  0
LINE
  5
4A1
100
AcDbEntity
  8
0
100
AcDbLine
 62
2
  6
CONTINUOUS
 10
13.372792935
 20
1.7829984058
 11
13.43814574
 21
1.8483512108
  0
LINE
  5
4A2
100
AcDbEntity
  8
0
100
AcDbLine
 62
2
  6
CONTINUOUS
 10
13.2905123821
 20
1.699336785
 11
13.336736215
 21
1.7455606179
  0
LINE
  5
4A3
100
AcDbEntity
  8
0
100
AcDbLine
 62
2
  6
CONTINUOUS
 10
13.372792935
 20
1.7816173379
 11
13.43814574
 21
1.8469701429
  0
LINE
  5
4A4
100
AcDbEntity
  8
0
100
AcDbLine
 62
2
  6
CONTINUOUS
 10
13.2918934501
 20
1.699336785
 11
13.336736215
 21
1.7441795499
  0
LINE
  5
4A5
100
AcDbEntity
  8
0
100
AcDbLine
 62
2
  6
CONTINUOUS
 10
13.372792935
 20
1.7802362699
 11
13.43814574
 21
1.8455890749
  0
LINE
  5
4A6
100
AcDbEntity
  8
0
100
AcDbLine
 62
2
  6
CONTINUOUS
 10
13.293274518
 20
1.699336785
 11
13.336736215
 21
1.742798482
  0
LINE
  5
4A7
100
AcDbEntity
  8
0
100
AcDbLine
 62
2
  6
CONTINUOUS
 10
13.372792935
 20
1.778855202
 11
13.43814574
 21
1.844208007
  0
LINE
  5
4A8
100
AcDbEntity
  8
0
100
AcDbLine
 62
2
  6
CONTINUOUS
 10
13.2946555859
 20
1.699336785
 11
13.336736215
 21
1.7414174141
  0
LINE
  5
4A9
100
AcDbEntity
  8
0
100
AcDbLine
 62
2
  6
CONTINUOUS
 10
13.372792935
 20
1.7774741341
 11
13.43814574
 21
1.8428269391
  0
LINE
  5
4AA
100
AcDbEntity
  8
0
100
AcDbLine
 62
2
  6
CONTINUOUS
 10
13.2960366539
 20
1.699336785
 11
13.336736215
 21
1.7400363461
  0
LINE
  5
4AB
100
AcDbEntity
  8
0
100
AcDbLine
 62
2
  6
CONTINUOUS
 10
13.372792935
 20
1.7760930661
 11
13.43814574
 21
1.8414458711
  0
LINE
  5
4AC
100
AcDbEntity
  8
0
100
AcDbLine
 62
2
  6
CONTINUOUS
 10
13.2974177218
 20
1.699336785
 11
13.336736215
 21
1.7386552782
  0
LINE
  5
4AD
100
AcDbEntity
  8
0
100
AcDbLine
 62
2
  6
CONTINUOUS
 10
13.372792935
 20
1.7747119982
 11
13.43814574
 21
1.8400648032
  0
LINE
  5
4AE
100
AcDbEntity
  8
0
100
AcDbLine
 62
2
  6
CONTINUOUS
 10
13.2987987897
 20
1.699336785
 11
13.336736215
 21
1.7372742103
  0
LINE
  5
4AF
100
AcDbEntity
  8
0
100
AcDbLine
 62
2
  6
CONTINUOUS
 10
13.372792935
 20
1.7733309303
 11
13.43814574
 21
1.8386837353
  0
LINE
  5
4B0
100
AcDbEntity
  8
0
100
AcDbLine
 62
2
  6
CONTINUOUS
 10
13.3001798576
 20
1.699336785
 11
13.336736215
 21
1.7358931424
  0
LINE
  5
4B1
100
AcDbEntity
  8
0
100
AcDbLine
 62
2
  6
CONTINUOUS
 10
13.372792935
 20
1.7719498624
 11
13.43814574
 21
1.8373026674
  0
LINE
  5
4B2
100
AcDbEntity
  8
0
100
AcDbLine
 62
2
  6
CONTINUOUS
 10
13.3015609256
 20
1.699336785
 11
13.336736215
 21
1.7345120744
  0
LINE
  5
4B3
100
AcDbEntity
  8
0
100
AcDbLine
 62
2
  6
CONTINUOUS
 10
13.372792935
 20
1.7705687944
 11
13.43814574
 21
1.8359215994
  0
LINE
  5
4B4
100
AcDbEntity
  8
0
100
AcDbLine
 62
2
  6
CONTINUOUS
 10
13.3029419935
 20
1.699336785
 11
13.336736215
 21
1.7331310065
  0
LINE
  5
4B5
100
AcDbEntity
  8
0
100
AcDbLine
 62
2
  6
CONTINUOUS
 10
13.372792935
 20
1.7691877265
 11
13.43814574
 21
1.8345405315
  0
LINE
  5
4B6
100
AcDbEntity
  8
0
100
AcDbLine
 62
2
  6
CONTINUOUS
 10
13.3043230614
 20
1.699336785
 11
13.336736215
 21
1.7317499386
  0
LINE
  5
4B7
100
AcDbEntity
  8
0
100
AcDbLine
 62
2
  6
CONTINUOUS
 10
13.372792935
 20
1.7678066586
 11
13.43814574
 21
1.8331594636
  0
LINE
  5
4B8
100
AcDbEntity
  8
0
100
AcDbLine
 62
2
  6
CONTINUOUS
 10
13.3057041294
 20
1.699336785
 11
13.336736215
 21
1.7303688706
  0
LINE
  5
4B9
100
AcDbEntity
  8
0
100
AcDbLine
 62
2
  6
CONTINUOUS
 10
13.372792935
 20
1.7664255906
 11
13.43814574
 21
1.8317783956
  0
LINE
  5
4BA
100
AcDbEntity
  8
0
100
AcDbLine
 62
2
  6
CONTINUOUS
 10
13.3070851973
 20
1.699336785
 11
13.336736215
 21
1.7289878027
  0
LINE
  5
4BB
100
AcDbEntity
  8
0
100
AcDbLine
 62
2
  6
CONTINUOUS
 10
13.372792935
 20
1.7650445227
 11
13.43814574
 21
1.8303973277
  0
LINE
  5
4BC
100
AcDbEntity
  8
0
100
AcDbLine
 62
2
  6
CONTINUOUS
 10
13.3084662652
 20
1.699336785
 11
13.336736215
 21
1.7276067348
  0
LINE
  5
4BD
100
AcDbEntity
  8
0
100
AcDbLine
 62
2
  6
CONTINUOUS
 10
13.3728735638
 20
1.7637440836
 11
13.43814574
 21
1.8290162598
  0
LINE
  5
4BE
100
AcDbEntity
  8
0
100
AcDbLine
 62
2
  6
CONTINUOUS
 10
13.3098473332
 20
1.699336785
 11
13.336736215
 21
1.7262256668
  0
LINE
  5
4BF
100
AcDbEntity
  8
0
100
AcDbLine
 62
2
  6
CONTINUOUS
 10
13.3729820816
 20
1.7624715334
 11
13.43814574
 21
1.8276351918
  0
LINE
  5
4C0
100
AcDbEntity
  8
0
100
AcDbLine
 62
2
  6
CONTINUOUS
 10
13.3112284011
 20
1.699336785
 11
13.336736215
 21
1.7248445989
  0
LINE
  5
4C1
100
AcDbEntity
  8
0
100
AcDbLine
 62
2
  6
CONTINUOUS
 10
13.3730905994
 20
1.7611989833
 11
13.43814574
 21
1.8262541239
  0
LINE
  5
4C2
100
AcDbEntity
  8
0
100
AcDbLine
 62
2
  6
CONTINUOUS
 10
13.312609469
 20
1.699336785
 11
13.336736215
 21
1.723463531
  0
LINE
  5
4C3
100
AcDbEntity
  8
0
100
AcDbLine
 62
2
  6
CONTINUOUS
 10
13.3731991171
 20
1.7599264331
 11
13.43814574
 21
1.824873056
  0
LINE
  5
4C4
100
AcDbEntity
  8
0
100
AcDbLine
 62
2
  6
CONTINUOUS
 10
13.313990537
 20
1.699336785
 11
13.336736215
 21
1.722082463
  0
LINE
  5
4C5
100
AcDbEntity
  8
0
100
AcDbLine
 62
2
  6
CONTINUOUS
 10
13.3733076349
 20
1.7586538829
 11
13.43814574
 21
1.823491988
  0
LINE
  5
4C6
100
AcDbEntity
  8
0
100
AcDbLine
 62
2
  6
CONTINUOUS
 10
13.3153716049
 20
1.699336785
 11
13.336736215
 21
1.7207013951
  0
LINE
  5
4C7
100
AcDbEntity
  8
0
100
AcDbLine
 62
2
  6
CONTINUOUS
 10
13.3734161527
 20
1.7573813328
 11
13.43814574
 21
1.8221109201
  0
LINE
  5
4C8
100
AcDbEntity
  8
0
100
AcDbLine
 62
2
  6
CONTINUOUS
 10
13.3167526728
 20
1.699336785
 11
13.336736215
 21
1.7193203272
  0
LINE
  5
4C9
100
AcDbEntity
  8
0
100
AcDbLine
 62
2
  6
CONTINUOUS
 10
13.3735246705
 20
1.7561087826
 11
13.43814574
 21
1.8207298522
  0
LINE
  5
4CA
100
AcDbEntity
  8
0
100
AcDbLine
 62
2
  6
CONTINUOUS
 10
13.3181337408
 20
1.699336785
 11
13.336736215
 21
1.7179392592
  0
LINE
  5
4CB
100
AcDbEntity
  8
0
100
AcDbLine
 62
2
  6
CONTINUOUS
 10
13.3736331882
 20
1.7548362325
 11
13.43814574
 21
1.8193487842
  0
LINE
  5
4CC
100
AcDbEntity
  8
0
100
AcDbLine
 62
2
  6
CONTINUOUS
 10
13.3195148087
 20
1.699336785
 11
13.336736215
 21
1.7165581913
  0
LINE
  5
4CD
100
AcDbEntity
  8
0
100
AcDbLine
 62
2
  6
CONTINUOUS
 10
13.3737616217
 20
1.753583598
 11
13.43814574
 21
1.8179677163
  0
LINE
  5
4CE
100
AcDbEntity
  8
0
100
AcDbLine
 62
2
  6
CONTINUOUS
 10
13.3208958766
 20
1.699336785
 11
13.336736215
 21
1.7151771234
  0
LINE
  5
4CF
100
AcDbEntity
  8
0
100
AcDbLine
 62
2
  6
CONTINUOUS
 10
13.374047781
 20
1.7524886894
 11
13.43814574
 21
1.8165866484
  0
LINE
  5
4D0
100
AcDbEntity
  8
0
100
AcDbLine
 62
2
  6
CONTINUOUS
 10
13.3222769446
 20
1.699336785
 11
13.336736215
 21
1.7137960554
  0
LINE
  5
4D1
100
AcDbEntity
  8
0
100
AcDbLine
 62
2
  6
CONTINUOUS
 10
13.3743339403
 20
1.7513937807
 11
13.43814574
 21
1.8152055804
  0
LINE
  5
4D2
100
AcDbEntity
  8
0
100
AcDbLine
 62
2
  6
CONTINUOUS
 10
13.3236580125
 20
1.699336785
 11
13.336736215
 21
1.7124149875
  0
LINE
  5
4D3
100
AcDbEntity
  8
0
100
AcDbLine
 62
2
  6
CONTINUOUS
 10
13.3746200996
 20
1.7502988721
 11
13.43814574
 21
1.8138245125
  0
LINE
  5
4D4
100
AcDbEntity
  8
0
100
AcDbLine
 62
2
  6
CONTINUOUS
 10
13.3250390804
 20
1.699336785
 11
13.336736215
 21
1.7110339196
  0
LINE
  5
4D5
100
AcDbEntity
  8
0
100
AcDbLine
 62
2
  6
CONTINUOUS
 10
13.3749062588
 20
1.7492039634
 11
13.43814574
 21
1.8124434446
  0
LINE
  5
4D6
100
AcDbEntity
  8
0
100
AcDbLine
 62
2
  6
CONTINUOUS
 10
13.3264201484
 20
1.699336785
 11
13.336736215
 21
1.7096528516
  0
LINE
  5
4D7
100
AcDbEntity
  8
0
100
AcDbLine
 62
2
  6
CONTINUOUS
 10
13.3751924181
 20
1.7481090548
 11
13.43814574
 21
1.8110623766
  0
LINE
  5
4D8
100
AcDbEntity
  8
0
100
AcDbLine
 62
2
  6
CONTINUOUS
 10
13.3278012163
 20
1.699336785
 11
13.336736215
 21
1.7082717837
  0
LINE
  5
4D9
100
AcDbEntity
  8
0
100
AcDbLine
 62
2
  6
CONTINUOUS
 10
13.3754785774
 20
1.7470141461
 11
13.43814574
 21
1.8096813087
  0
LINE
  5
4DA
100
AcDbEntity
  8
0
100
AcDbLine
 62
2
  6
CONTINUOUS
 10
13.3291822842
 20
1.699336785
 11
13.336736215
 21
1.7068907158
  0
LINE
  5
4DB
100
AcDbEntity
  8
0
100
AcDbLine
 62
2
  6
CONTINUOUS
 10
13.3757647367
 20
1.7459192374
 11
13.43814574
 21
1.8083002408
  0
LINE
  5
4DC
100
AcDbEntity
  8
0
100
AcDbLine
 62
2
  6
CONTINUOUS
 10
13.3305633522
 20
1.699336785
 11
13.336736215
 21
1.7055096478
  0
LINE
  5
4DD
100
AcDbEntity
  8
0
100
AcDbLine
 62
2
  6
CONTINUOUS
 10
13.3760508959
 20
1.7448243288
 11
13.43814574
 21
1.8069191728
  0
LINE
  5
4DE
100
AcDbEntity
  8
0
100
AcDbLine
 62
2
  6
CONTINUOUS
 10
13.3319444201
 20
1.699336785
 11
13.336736215
 21
1.7041285799
  0
LINE
  5
4DF
100
AcDbEntity
  8
0
100
AcDbLine
 62
2
  6
CONTINUOUS
 10
13.3763370552
 20
1.7437294201
 11
13.43814574
 21
1.8055381049
  0
LINE
  5
4E0
100
AcDbEntity
  8
0
100
AcDbLine
 62
2
  6
CONTINUOUS
 10
13.333325488
 20
1.699336785
 11
13.336736215
 21
1.702747512
  0
LINE
  5
4E1
100
AcDbEntity
  8
0
100
AcDbLine
 62
2
  6
CONTINUOUS
 10
13.3766748886
 20
1.7426861856
 11
13.43814574
 21
1.804157037
  0
LINE
  5
4E2
100
AcDbEntity
  8
0
100
AcDbLine
 62
2
  6
CONTINUOUS
 10
13.3347065559
 20
1.699336785
 11
13.336736215
 21
1.7013664441
  0
LINE
  5
4E3
100
AcDbEntity
  8
0
100
AcDbLine
 62
2
  6
CONTINUOUS
 10
13.3771058523
 20
1.7417360813
 11
13.43814574
 21
1.8027759691
  0
LINE
  5
4E4
100
AcDbEntity
  8
0
100
AcDbLine
 62
2
  6
CONTINUOUS
 10
13.3360876239
 20
1.699336785
 11
13.336736215
 21
1.6999853761
  0
LINE
  5
4E5
100
AcDbEntity
  8
0
100
AcDbLine
 62
2
  6
CONTINUOUS
 10
13.377536816
 20
1.7407859771
 11
13.43814574
 21
1.8013949011
  0
LINE
  5
4E6
100
AcDbEntity
  8
0
100
AcDbLine
 62
2
  6
CONTINUOUS
 10
13.3779677797
 20
1.7398358729
 11
13.43814574
 21
1.8000138332
  0
LINE
  5
4E7
100
AcDbEntity
  8
0
100
AcDbLine
 62
2
  6
CONTINUOUS
 10
13.3783987435
 20
1.7388857687
 11
13.43814574
 21
1.7986327653
  0
LINE
  5
4E8
100
AcDbEntity
  8
0
100
AcDbLine
 62
2
  6
CONTINUOUS
 10
13.3788297072
 20
1.7379356645
 11
13.43814574
 21
1.7972516973
  0
LINE
  5
4E9
100
AcDbEntity
  8
0
100
AcDbLine
 62
2
  6
CONTINUOUS
 10
13.3792606709
 20
1.7369855603
 11
13.43814574
 21
1.7958706294
  0
LINE
  5
4EA
100
AcDbEntity
  8
0
100
AcDbLine
 62
2
  6
CONTINUOUS
 10
13.3796916346
 20
1.7360354561
 11
13.43814574
 21
1.7944895615
  0
LINE
  5
4EB
100
AcDbEntity
  8
0
100
AcDbLine
 62
2
  6
CONTINUOUS
 10
13.3801225984
 20
1.7350853519
 11
13.43814574
 21
1.7931084935
  0
LINE
  5
4EC
100
AcDbEntity
  8
0
100
AcDbLine
 62
2
  6
CONTINUOUS
 10
13.3805535621
 20
1.7341352477
 11
13.43814574
 21
1.7917274256
  0
LINE
  5
4ED
100
AcDbEntity
  8
0
100
AcDbLine
 62
2
  6
CONTINUOUS
 10
13.3809845258
 20
1.7331851435
 11
13.43814574
 21
1.7903463577
  0
LINE
  5
4EE
100
AcDbEntity
  8
0
100
AcDbLine
 62
2
  6
CONTINUOUS
 10
13.3815034575
 20
1.7323230072
 11
13.43814574
 21
1.7889652897
  0
LINE
  5
4EF
100
AcDbEntity
  8
0
100
AcDbLine
 62
2
  6
CONTINUOUS
 10
13.3820613765
 20
1.7314998583
 11
13.43814574
 21
1.7875842218
  0
LINE
  5
4F0
100
AcDbEntity
  8
0
100
AcDbLine
 62
2
  6
CONTINUOUS
 10
13.3826192954
 20
1.7306767093
 11
13.43814574
 21
1.7862031539
  0
LINE
  5
4F1
100
AcDbEntity
  8
0
100
AcDbLine
 62
2
  6
CONTINUOUS
 10
13.3831772144
 20
1.7298535603
 11
13.43814574
 21
1.7848220859
  0
LINE
  5
4F2
100
AcDbEntity
  8
0
100
AcDbLine
 62
2
  6
CONTINUOUS
 10
13.3837351333
 20
1.7290304113
 11
13.43814574
 21
1.783441018
  0
LINE
  5
4F3
100
AcDbEntity
  8
0
100
AcDbLine
 62
2
  6
CONTINUOUS
 10
13.3842930523
 20
1.7282072624
 11
13.43814574
 21
1.7820599501
  0
LINE
  5
4F4
100
AcDbEntity
  8
0
100
AcDbLine
 62
2
  6
CONTINUOUS
 10
13.3848509713
 20
1.7273841134
 11
13.43814574
 21
1.7806788821
  0
LINE
  5
4F5
100
AcDbEntity
  8
0
100
AcDbLine
 62
2
  6
CONTINUOUS
 10
13.3854088902
 20
1.7265609644
 11
13.43814574
 21
1.7792978142
  0
LINE
  5
4F6
100
AcDbEntity
  8
0
100
AcDbLine
 62
2
  6
CONTINUOUS
 10
13.3859668092
 20
1.7257378155
 11
13.43814574
 21
1.7779167463
  0
LINE
  5
4F7
100
AcDbEntity
  8
0
100
AcDbLine
 62
2
  6
CONTINUOUS
 10
13.3865247281
 20
1.7249146665
 11
13.43814574
 21
1.7765356783
  0
LINE
  5
4F8
100
AcDbEntity
  8
0
100
AcDbLine
 62
2
  6
CONTINUOUS
 10
13.3870826471
 20
1.7240915175
 11
13.43814574
 21
1.7751546104
  0
LINE
  5
4F9
100
AcDbEntity
  8
0
100
AcDbLine
 62
2
  6
CONTINUOUS
 10
13.3876708318
 20
1.7232986343
 11
13.43814574
 21
1.7737735425
  0
LINE
  5
4FA
100
AcDbEntity
  8
0
100
AcDbLine
 62
2
  6
CONTINUOUS
 10
13.3883025113
 20
1.7225492459
 11
13.43814574
 21
1.7723924745
  0
LINE
  5
4FB
100
AcDbEntity
  8
0
100
AcDbLine
 62
2
  6
CONTINUOUS
 10
13.3889341908
 20
1.7217998574
 11
13.43814574
 21
1.7710114066
  0
LINE
  5
4FC
100
AcDbEntity
  8
0
100
AcDbLine
 62
2
  6
CONTINUOUS
 10
13.3896185123
 20
1.721103111
 11
13.43814574
 21
1.7696303387
  0
LINE
  5
4FD
100
AcDbEntity
  8
0
100
AcDbLine
 62
2
  6
CONTINUOUS
 10
13.3903226496
 20
1.7204261804
 11
13.43814574
 21
1.7682492708
  0
LINE
  5
4FE
100
AcDbEntity
  8
0
100
AcDbLine
 62
2
  6
CONTINUOUS
 10
13.3910267869
 20
1.7197492497
 11
13.43814574
 21
1.7668682028
  0
LINE
  5
4FF
100
AcDbEntity
  8
0
100
AcDbLine
 62
2
  6
CONTINUOUS
 10
13.3917309242
 20
1.7190723191
 11
13.43814574
 21
1.7654871349
  0
LINE
  5
500
100
AcDbEntity
  8
0
100
AcDbLine
 62
2
  6
CONTINUOUS
 10
13.3924350615
 20
1.7183953885
 11
13.43814574
 21
1.764106067
  0
LINE
  5
501
100
AcDbEntity
  8
0
100
AcDbLine
 62
2
  6
CONTINUOUS
 10
13.3931391988
 20
1.7177184578
 11
13.43814574
 21
1.762724999
  0
LINE
  5
502
100
AcDbEntity
  8
0
100
AcDbLine
 62
2
  6
CONTINUOUS
 10
13.3938433361
 20
1.7170415272
 11
13.43814574
 21
1.7613439311
  0
LINE
  5
503
100
AcDbEntity
  8
0
100
AcDbLine
 62
2
  6
CONTINUOUS
 10
13.3945474734
 20
1.7163645966
 11
13.43814574
 21
1.7599628632
  0
LINE
  5
504
100
AcDbEntity
  8
0
100
AcDbLine
 62
2
  6
CONTINUOUS
 10
13.3952516107
 20
1.715687666
 11
13.43814574
 21
1.7585817952
  0
LINE
  5
505
100
AcDbEntity
  8
0
100
AcDbLine
 62
2
  6
CONTINUOUS
 10
13.395955748
 20
1.7150107353
 11
13.43814574
 21
1.7572007273
  0
LINE
  5
506
100
AcDbEntity
  8
0
100
AcDbLine
 62
2
  6
CONTINUOUS
 10
13.3966598853
 20
1.7143338047
 11
13.43814574
 21
1.7558196594
  0
LINE
  5
507
100
AcDbEntity
  8
0
100
AcDbLine
 62
2
  6
CONTINUOUS
 10
13.3973932725
 20
1.7136861239
 11
13.43814574
 21
1.7544385914
  0
LINE
  5
508
100
AcDbEntity
  8
0
100
AcDbLine
 62
2
  6
CONTINUOUS
 10
13.398216347
 20
1.7131281305
 11
13.43814574
 21
1.7530575235
  0
LINE
  5
509
100
AcDbEntity
  8
0
100
AcDbLine
 62
2
  6
CONTINUOUS
 10
13.3990394215
 20
1.712570137
 11
13.43814574
 21
1.7516764556
  0
LINE
  5
50A
100
AcDbEntity
  8
0
100
AcDbLine
 62
2
  6
CONTINUOUS
 10
13.3998624959
 20
1.7120121436
 11
13.43814574
 21
1.7502953876
  0
LINE
  5
50B
100
AcDbEntity
  8
0
100
AcDbLine
 62
2
  6
CONTINUOUS
 10
13.4006855704
 20
1.7114541501
 11
13.43814574
 21
1.7489143197
  0
LINE
  5
50C
100
AcDbEntity
  8
0
100
AcDbLine
 62
2
  6
CONTINUOUS
 10
13.4015086449
 20
1.7108961567
 11
13.43814574
 21
1.7475332518
  0
LINE
  5
50D
100
AcDbEntity
  8
0
100
AcDbLine
 62
2
  6
CONTINUOUS
 10
13.4023317194
 20
1.7103381632
 11
13.43814574
 21
1.7461521838
  0
LINE
  5
50E
100
AcDbEntity
  8
0
100
AcDbLine
 62
2
  6
CONTINUOUS
 10
13.4031547939
 20
1.7097801698
 11
13.43814574
 21
1.7447711159
  0
LINE
  5
50F
100
AcDbEntity
  8
0
100
AcDbLine
 62
2
  6
CONTINUOUS
 10
13.4039778684
 20
1.7092221764
 11
13.43814574
 21
1.743390048
  0
LINE
  5
510
100
AcDbEntity
  8
0
100
AcDbLine
 62
2
  6
CONTINUOUS
 10
13.4048009429
 20
1.7086641829
 11
13.43814574
 21
1.74200898
  0
LINE
  5
511
100
AcDbEntity
  8
0
100
AcDbLine
 62
2
  6
CONTINUOUS
 10
13.4056240173
 20
1.7081061895
 11
13.43814574
 21
1.7406279121
  0
LINE
  5
512
100
AcDbEntity
  8
0
100
AcDbLine
 62
2
  6
CONTINUOUS
 10
13.406456084
 20
1.7075571882
 11
13.43814574
 21
1.7392468442
  0
LINE
  5
513
100
AcDbEntity
  8
0
100
AcDbLine
 62
2
  6
CONTINUOUS
 10
13.4074065834
 20
1.7071266197
 11
13.43814574
 21
1.7378657762
  0
LINE
  5
514
100
AcDbEntity
  8
0
100
AcDbLine
 62
2
  6
CONTINUOUS
 10
13.4083570829
 20
1.7066960512
 11
13.43814574
 21
1.7364847083
  0
LINE
  5
515
100
AcDbEntity
  8
0
100
AcDbLine
 62
2
  6
CONTINUOUS
 10
13.4093075823
 20
1.7062654826
 11
13.43814574
 21
1.7351036404
  0
LINE
  5
516
100
AcDbEntity
  8
0
100
AcDbLine
 62
2
  6
CONTINUOUS
 10
13.4102580817
 20
1.7058349141
 11
13.43814574
 21
1.7337225725
  0
LINE
  5
517
100
AcDbEntity
  8
0
100
AcDbLine
 62
2
  6
CONTINUOUS
 10
13.4112085811
 20
1.7054043456
 11
13.43814574
 21
1.7323415045
  0
LINE
  5
518
100
AcDbEntity
  8
0
100
AcDbLine
 62
2
  6
CONTINUOUS
 10
13.4121590805
 20
1.7049737771
 11
13.43814574
 21
1.7309604366
  0
LINE
  5
519
100
AcDbEntity
  8
0
100
AcDbLine
 62
2
  6
CONTINUOUS
 10
13.4131095799
 20
1.7045432085
 11
13.43814574
 21
1.7295793687
  0
LINE
  5
51A
100
AcDbEntity
  8
0
100
AcDbLine
 62
2
  6
CONTINUOUS
 10
13.4140600793
 20
1.70411264
 11
13.43814574
 21
1.7281983007
  0
LINE
  5
51B
100
AcDbEntity
  8
0
100
AcDbLine
 62
2
  6
CONTINUOUS
 10
13.4150105787
 20
1.7036820715
 11
13.43814574
 21
1.7268172328
  0
LINE
  5
51C
100
AcDbEntity
  8
0
100
AcDbLine
 62
2
  6
CONTINUOUS
 10
13.4159610781
 20
1.703251503
 11
13.43814574
 21
1.7254361649
  0
LINE
  5
51D
100
AcDbEntity
  8
0
100
AcDbLine
 62
2
  6
CONTINUOUS
 10
13.4169855444
 20
1.7028949013
 11
13.43814574
 21
1.7240550969
  0
LINE
  5
51E
100
AcDbEntity
  8
0
100
AcDbLine
 62
2
  6
CONTINUOUS
 10
13.4180815407
 20
1.7026098297
 11
13.43814574
 21
1.722674029
  0
LINE
  5
51F
100
AcDbEntity
  8
0
100
AcDbLine
 62
2
  6
CONTINUOUS
 10
13.4191775371
 20
1.7023247581
 11
13.43814574
 21
1.7212929611
  0
LINE
  5
520
100
AcDbEntity
  8
0
100
AcDbLine
 62
2
  6
CONTINUOUS
 10
13.4202735334
 20
1.7020396866
 11
13.43814574
 21
1.7199118931
  0
LINE
  5
521
100
AcDbEntity
  8
0
100
AcDbLine
 62
2
  6
CONTINUOUS
 10
13.4213695298
 20
1.701754615
 11
13.43814574
 21
1.7185308252
  0
LINE
  5
522
100
AcDbEntity
  8
0
100
AcDbLine
 62
2
  6
CONTINUOUS
 10
13.4224655261
 20
1.7014695434
 11
13.43814574
 21
1.7171497573
  0
LINE
  5
523
100
AcDbEntity
  8
0
100
AcDbLine
 62
2
  6
CONTINUOUS
 10
13.4235615225
 20
1.7011844718
 11
13.43814574
 21
1.7157686893
  0
LINE
  5
524
100
AcDbEntity
  8
0
100
AcDbLine
 62
2
  6
CONTINUOUS
 10
13.4246575188
 20
1.7008994002
 11
13.43814574
 21
1.7143876214
  0
LINE
  5
525
100
AcDbEntity
  8
0
100
AcDbLine
 62
2
  6
CONTINUOUS
 10
13.4257535152
 20
1.7006143286
 11
13.43814574
 21
1.7130065535
  0
LINE
  5
526
100
AcDbEntity
  8
0
100
AcDbLine
 62
2
  6
CONTINUOUS
 10
13.4268495115
 20
1.700329257
 11
13.43814574
 21
1.7116254855
  0
LINE
  5
527
100
AcDbEntity
  8
0
100
AcDbLine
 62
2
  6
CONTINUOUS
 10
13.4280866488
 20
1.7001853264
 11
13.43814574
 21
1.7102444176
  0
LINE
  5
528
100
AcDbEntity
  8
0
100
AcDbLine
 62
2
  6
CONTINUOUS
 10
13.4293602788
 20
1.7000778885
 11
13.43814574
 21
1.7088633497
  0
LINE
  5
529
100
AcDbEntity
  8
0
100
AcDbLine
 62
2
  6
CONTINUOUS
 10
13.4306339088
 20
1.6999704506
 11
13.43814574
 21
1.7074822817
  0
LINE
  5
52A
100
AcDbEntity
  8
0
100
AcDbLine
 62
2
  6
CONTINUOUS
 10
13.4319075388
 20
1.6998630126
 11
13.43814574
 21
1.7061012138
  0
LINE
  5
52B
100
AcDbEntity
  8
0
100
AcDbLine
 62
2
  6
CONTINUOUS
 10
13.4331811689
 20
1.6997555747
 11
13.43814574
 21
1.7047201459
  0
LINE
  5
52C
100
AcDbEntity
  8
0
100
AcDbLine
 62
2
  6
CONTINUOUS
 10
13.4344547989
 20
1.6996481368
 11
13.43814574
 21
1.7033390779
  0
LINE
  5
52D
100
AcDbEntity
  8
0
100
AcDbLine
 62
2
  6
CONTINUOUS
 10
13.4357284289
 20
1.6995406989
 11
13.43814574
 21
1.70195801
  0
LINE
  5
52E
100
AcDbEntity
  8
0
100
AcDbLine
 62
2
  6
CONTINUOUS
 10
13.4370020589
 20
1.699433261
 11
13.43814574
 21
1.7005769421
  0
LWPOLYLINE
  5
52F
100
AcDbEntity
  8
0
100
AcDbPolyline
 62
7
  6
CONTINUOUS
 90
2
 70
0
 43
0.0200000008
 10
16.75
 20
0.258589
 10
16.75
 20
10.758589
  0
LINE
  5
530
100
AcDbEntity
  8
0
100
AcDbLine
 62
7
  6
CONTINUOUS
 10
5.9416497976
 20
3.3264736842
 11
6.1665268876
 21
3.3264736842
  0
LINE
  5
531
100
AcDbEntity
  8
0
100
AcDbLine
 62
7
  6
CONTINUOUS
 10
6.2067727076
 20
3.3264736842
 11
6.4316497976
 21
3.3264736842
  0
LINE
  5
532
100
AcDbEntity
  8
0
100
AcDbLine
 62
7
  6
CONTINUOUS
 10
6.1537010165
 20
3.4395839204
 11
6.1564569221
 21
3.4395839204
  0
LINE
  5
533
100
AcDbEntity
  8
0
100
AcDbLine
 62
7
  6
CONTINUOUS
 10
6.2168426731
 20
3.4395839204
 11
6.2195985786
 21
3.4395839204
  0
LINE
  5
534
100
AcDbEntity
  8
02___PRT_ALL_AXES
100
AcDbLine
 62
7
  6
CENTER
 10
6.1866497976
 20
3.4464736842
 11
5.9681497976
 21
3.4464736842
  0
LINE
  5
535
100
AcDbEntity
  8
02___PRT_ALL_AXES
100
AcDbLine
 62
7
  6
CENTER
 10
6.1866497976
 20
3.4464736842
 11
6.4051497976
 21
3.4464736842
  0
LINE
  5
536
100
AcDbEntity
  8
0
100
AcDbLine
 62
7
  6
CONTINUOUS
 10
6.2195985786
 20
3.453363448
 11
6.2168426731
 21
3.453363448
  0
LINE
  5
537
100
AcDbEntity
  8
0
100
AcDbLine
 62
7
  6
CONTINUOUS
 10
6.1564569221
 20
3.453363448
 11
6.1537010165
 21
3.453363448
  0
LINE
  5
538
100
AcDbEntity
  8
0
100
AcDbLine
 62
7
  6
CONTINUOUS
 10
6.1322659795
 20
7.5836941567
 11
6.1537010165
 21
7.5905839204
  0
LINE
  5
539
100
AcDbEntity
  8
0
100
AcDbLine
 62
7
  6
CONTINUOUS
 10
6.2410336156
 20
7.6112532118
 11
6.2195985786
 21
7.604363448
  0
LINE
  5
53A
100
AcDbEntity
  8
0
100
AcDbLine
 62
7
  6
CONTINUOUS
 10
6.1564569221
 20
3.4395839204
 11
6.2168426731
 21
3.453363448
  0
LINE
  5
53B
100
AcDbEntity
  8
0
100
AcDbLine
 62
7
  6
CONTINUOUS
 10
6.1537010165
 20
3.4395839204
 11
6.2195985786
 21
3.453363448
  0
LINE
  5
53C
100
AcDbEntity
  8
0
100
AcDbLine
 62
7
  6
CONTINUOUS
 10
6.1537010165
 20
3.453363448
 11
6.2195985786
 21
3.4395839204
  0
LINE
  5
53D
100
AcDbEntity
  8
0
100
AcDbLine
 62
7
  6
CONTINUOUS
 10
6.1564569221
 20
3.453363448
 11
6.2168426731
 21
3.4395839204
  0
LINE
  5
53E
100
AcDbEntity
  8
0
100
AcDbLine
 62
7
  6
CONTINUOUS
 10
6.1322659795
 20
3.4602532118
 11
6.1537010165
 21
3.453363448
  0
LINE
  5
53F
100
AcDbEntity
  8
0
100
AcDbLine
 62
7
  6
CONTINUOUS
 10
6.2410336156
 20
3.4326941567
 11
6.2195985786
 21
3.4395839204
  0
LINE
  5
540
100
AcDbEntity
  8
0
100
AcDbLine
 62
7
  6
CONTINUOUS
 10
6.1712305029
 20
7.6128929789
 11
6.1564569221
 21
7.604363448
  0
LINE
  5
541
100
AcDbEntity
  8
0
100
AcDbLine
 62
7
  6
CONTINUOUS
 10
6.2020690922
 20
7.5820543895
 11
6.2168426731
 21
7.5905839204
  0
LINE
  5
542
100
AcDbEntity
  8
0
100
AcDbLine
 62
7
  6
CONTINUOUS
 10
6.1719332905
 20
7.6238403977
 11
6.1797600338
 21
7.6276665597
  0
LINE
  5
543
100
AcDbEntity
  8
0
100
AcDbLine
 62
7
  6
CONTINUOUS
 10
6.2013663046
 20
7.5711069707
 11
6.1935395614
 21
7.5672808087
  0
LINE
  5
544
100
AcDbEntity
  8
0
100
AcDbLine
 62
7
  6
CONTINUOUS
 10
6.1797600338
 20
3.4162808087
 11
6.1719332905
 21
3.4201069707
  0
LINE
  5
545
100
AcDbEntity
  8
0
100
AcDbLine
 62
7
  6
CONTINUOUS
 10
6.1935395614
 20
3.4766665597
 11
6.2013663046
 21
3.4728403977
  0
LINE
  5
546
100
AcDbEntity
  8
0
100
AcDbLine
 62
7
  6
CONTINUOUS
 10
6.1564569221
 20
3.4395839204
 11
6.1712305029
 21
3.4310543895
  0
LINE
  5
547
100
AcDbEntity
  8
0
100
AcDbLine
 62
7
  6
CONTINUOUS
 10
6.2168426731
 20
3.453363448
 11
6.2020690922
 21
3.4618929789
  0
LINE
  5
548
100
AcDbEntity
  8
0
100
AcDbLine
 62
7
  6
CONTINUOUS
 10
6.1676339871
 20
7.5784578737
 11
6.2056656081
 21
7.6164894947
  0
LINE
  5
549
100
AcDbEntity
  8
0
100
AcDbLine
 62
7
  6
CONTINUOUS
 10
6.1676339871
 20
3.4654894947
 11
6.2056656081
 21
3.4274578737
  0
LINE
  5
54A
100
AcDbEntity
  8
0
100
AcDbLine
 62
7
  6
CONTINUOUS
 10
6.1797600338
 20
7.6276665597
 11
6.1712305029
 21
7.6128929789
  0
LINE
  5
54B
100
AcDbEntity
  8
0
100
AcDbLine
 62
7
  6
CONTINUOUS
 10
6.1935395614
 20
7.5672808087
 11
6.2020690922
 21
7.5820543895
  0
LINE
  5
54C
100
AcDbEntity
  8
0
100
AcDbLine
 62
7
  6
CONTINUOUS
 10
6.1712305029
 20
3.4310543895
 11
6.1797600338
 21
3.4162808087
  0
LINE
  5
54D
100
AcDbEntity
  8
0
100
AcDbLine
 62
7
  6
CONTINUOUS
 10
6.2020690922
 20
3.4618929789
 11
6.1935395614
 21
3.4766665597
  0
LINE
  5
54E
100
AcDbEntity
  8
0
100
AcDbLine
 62
7
  6
CONTINUOUS
 10
6.1602830841
 20
7.6121901913
 11
6.1564569221
 21
7.604363448
  0
LINE
  5
54F
100
AcDbEntity
  8
0
100
AcDbLine
 62
7
  6
CONTINUOUS
 10
6.2168426731
 20
7.5905839204
 11
6.213016511
 21
7.5827571771
  0
LINE
  5
550
100
AcDbEntity
  8
0
100
AcDbLine
 62
7
  6
CONTINUOUS
 10
6.1602830841
 20
3.4317571771
 11
6.1564569221
 21
3.4395839204
  0
LINE
  5
551
100
AcDbEntity
  8
0
100
AcDbLine
 62
7
  6
CONTINUOUS
 10
6.213016511
 20
3.4611901913
 11
6.2168426731
 21
3.453363448
  0
LINE
  5
552
100
AcDbEntity
  8
0
100
AcDbLine
 62
7
  6
CONTINUOUS
 10
6.2004293251
 20
7.6518575023
 11
6.1935395614
 21
7.6304224652
  0
LINE
  5
553
100
AcDbEntity
  8
0
100
AcDbLine
 62
7
  6
CONTINUOUS
 10
6.17287027
 20
7.5430898662
 11
6.1797600338
 21
7.5645249032
  0
LINE
  5
554
100
AcDbEntity
  8
0
100
AcDbLine
 62
7
  6
CONTINUOUS
 10
6.2004293251
 20
3.3920898662
 11
6.1935395614
 21
3.4135249032
  0
LINE
  5
555
100
AcDbEntity
  8
0
100
AcDbLine
 62
7
  6
CONTINUOUS
 10
6.17287027
 20
3.5008575023
 11
6.1797600338
 21
3.4794224652
  0
LINE
  5
556
100
AcDbEntity
  8
0
100
AcDbLine
 62
7
  6
CONTINUOUS
 10
6.1797600338
 20
7.5645249032
 11
6.1935395614
 21
7.6304224652
  0
LINE
  5
557
100
AcDbEntity
  8
0
100
AcDbLine
 62
7
  6
CONTINUOUS
 10
6.1797600338
 20
7.5672808087
 11
6.1935395614
 21
7.6276665597
  0
LINE
  5
558
100
AcDbEntity
  8
0
100
AcDbLine
 62
7
  6
CONTINUOUS
 10
6.1935395614
 20
3.4162808087
 11
6.1797600338
 21
3.4766665597
  0
LINE
  5
559
100
AcDbEntity
  8
0
100
AcDbLine
 62
7
  6
CONTINUOUS
 10
6.1935395614
 20
3.4135249032
 11
6.1797600338
 21
3.4794224652
  0
LINE
  5
55A
100
AcDbEntity
  8
0
100
AcDbLine
 62
7
  6
CONTINUOUS
 10
5.9416497976
 20
7.7174736842
 11
5.9416497976
 21
3.3264736842
  0
LINE
  5
55B
100
AcDbEntity
  8
0
100
AcDbLine
 62
7
  6
CONTINUOUS
 10
6.1797600338
 20
7.6304224652
 11
6.1797600338
 21
7.6276665597
  0
LINE
  5
55C
100
AcDbEntity
  8
0
100
AcDbLine
 62
7
  6
CONTINUOUS
 10
6.1797600338
 20
7.5672808087
 11
6.1797600338
 21
7.5645249032
  0
LINE
  5
55D
100
AcDbEntity
  8
0
100
AcDbLine
 62
7
  6
CONTINUOUS
 10
6.1797600338
 20
3.4794224652
 11
6.1797600338
 21
3.4766665597
  0
LINE
  5
55E
100
AcDbEntity
  8
0
100
AcDbLine
 62
7
  6
CONTINUOUS
 10
6.1797600338
 20
3.4162808087
 11
6.1797600338
 21
3.4135249032
  0
LINE
  5
55F
100
AcDbEntity
  8
02___PRT_ALL_AXES
100
AcDbLine
 62
7
  6
CENTER
 10
6.1866497976
 20
7.5974736842
 11
6.1866497976
 21
7.3789736842
  0
LINE
  5
560
100
AcDbEntity
  8
02___PRT_ALL_AXES
100
AcDbLine
 62
7
  6
CENTER
 10
6.1866497976
 20
3.4464736842
 11
6.1866497976
 21
3.2279736842
  0
LINE
  5
561
100
AcDbEntity
  8
02___PRT_ALL_AXES
100
AcDbLine
 62
7
  6
CENTER
 10
6.1866497976
 20
3.4464736842
 11
6.1866497976
 21
3.6649736842
  0
LINE
  5
562
100
AcDbEntity
  8
02___PRT_ALL_AXES
100
AcDbLine
 62
7
  6
CENTER
 10
6.1866497976
 20
7.5974736842
 11
6.1866497976
 21
7.8159736842
  0
LINE
  5
563
100
AcDbEntity
  8
0
100
AcDbLine
 62
7
  6
CONTINUOUS
 10
6.1935395614
 20
3.4135249032
 11
6.1935395614
 21
3.4162808087
  0
LINE
  5
564
100
AcDbEntity
  8
0
100
AcDbLine
 62
7
  6
CONTINUOUS
 10
6.1935395614
 20
3.4766665597
 11
6.1935395614
 21
3.4794224652
  0
LINE
  5
565
100
AcDbEntity
  8
0
100
AcDbLine
 62
7
  6
CONTINUOUS
 10
6.1935395614
 20
7.5645249032
 11
6.1935395614
 21
7.5672808087
  0
LINE
  5
566
100
AcDbEntity
  8
0
100
AcDbLine
 62
7
  6
CONTINUOUS
 10
6.1935395614
 20
7.6276665597
 11
6.1935395614
 21
7.6304224652
  0
LINE
  5
567
100
AcDbEntity
  8
0
100
AcDbLine
 62
7
  6
CONTINUOUS
 10
6.4316497976
 20
3.3264736842
 11
6.4316497976
 21
7.7174736842
  0
LINE
  5
568
100
AcDbEntity
  8
0
100
AcDbLine
 62
7
  6
CONTINUOUS
 10
6.1797600338
 20
3.4135249032
 11
6.1935395614
 21
3.4794224652
  0
LINE
  5
569
100
AcDbEntity
  8
0
100
AcDbLine
 62
7
  6
CONTINUOUS
 10
6.1797600338
 20
3.4162808087
 11
6.1935395614
 21
3.4766665597
  0
LINE
  5
56A
100
AcDbEntity
  8
0
100
AcDbLine
 62
7
  6
CONTINUOUS
 10
6.1935395614
 20
7.5672808087
 11
6.1797600338
 21
7.6276665597
  0
LINE
  5
56B
100
AcDbEntity
  8
0
100
AcDbLine
 62
7
  6
CONTINUOUS
 10
6.1935395614
 20
7.5645249032
 11
6.1797600338
 21
7.6304224652
  0
LINE
  5
56C
100
AcDbEntity
  8
0
100
AcDbLine
 62
7
  6
CONTINUOUS
 10
6.2004293251
 20
3.5008575023
 11
6.1935395614
 21
3.4794224652
  0
LINE
  5
56D
100
AcDbEntity
  8
0
100
AcDbLine
 62
7
  6
CONTINUOUS
 10
6.17287027
 20
3.3920898662
 11
6.1797600338
 21
3.4135249032
  0
LINE
  5
56E
100
AcDbEntity
  8
0
100
AcDbLine
 62
7
  6
CONTINUOUS
 10
6.2004293251
 20
7.5430898662
 11
6.1935395614
 21
7.5645249032
  0
LINE
  5
56F
100
AcDbEntity
  8
0
100
AcDbLine
 62
7
  6
CONTINUOUS
 10
6.17287027
 20
7.6518575023
 11
6.1797600338
 21
7.6304224652
  0
LINE
  5
570
100
AcDbEntity
  8
0
100
AcDbLine
 62
7
  6
CONTINUOUS
 10
6.1602830841
 20
3.4611901913
 11
6.1564569221
 21
3.453363448
  0
LINE
  5
571
100
AcDbEntity
  8
0
100
AcDbLine
 62
7
  6
CONTINUOUS
 10
6.1602830841
 20
7.5827571771
 11
6.1564569221
 21
7.5905839204
  0
LINE
  5
572
100
AcDbEntity
  8
0
100
AcDbLine
 62
7
  6
CONTINUOUS
 10
6.2168426731
 20
3.4395839204
 11
6.213016511
 21
3.4317571771
  0
LINE
  5
573
100
AcDbEntity
  8
0
100
AcDbLine
 62
7
  6
CONTINUOUS
 10
6.1797600338
 20
3.4766665597
 11
6.1712305029
 21
3.4618929789
  0
LINE
  5
574
100
AcDbEntity
  8
0
100
AcDbLine
 62
7
  6
CONTINUOUS
 10
6.1712305029
 20
7.5820543895
 11
6.1797600338
 21
7.5672808087
  0
LINE
  5
575
100
AcDbEntity
  8
0
100
AcDbLine
 62
7
  6
CONTINUOUS
 10
6.213016511
 20
7.6121901913
 11
6.2168426731
 21
7.604363448
  0
LINE
  5
576
100
AcDbEntity
  8
0
100
AcDbLine
 62
7
  6
CONTINUOUS
 10
6.1935395614
 20
3.4162808087
 11
6.2020690922
 21
3.4310543895
  0
LINE
  5
577
100
AcDbEntity
  8
0
100
AcDbLine
 62
7
  6
CONTINUOUS
 10
6.2020690922
 20
7.6128929789
 11
6.1935395614
 21
7.6276665597
  0
LINE
  5
578
100
AcDbEntity
  8
0
100
AcDbLine
 62
7
  6
CONTINUOUS
 10
6.1676339871
 20
3.4274578737
 11
6.2056656081
 21
3.4654894947
  0
LINE
  5
579
100
AcDbEntity
  8
0
100
AcDbLine
 62
7
  6
CONTINUOUS
 10
6.2056656081
 20
7.5784578737
 11
6.1676339871
 21
7.6164894947
  0
LINE
  5
57A
100
AcDbEntity
  8
0
100
AcDbLine
 62
7
  6
CONTINUOUS
 10
6.1712305029
 20
3.4618929789
 11
6.1564569221
 21
3.453363448
  0
LINE
  5
57B
100
AcDbEntity
  8
0
100
AcDbLine
 62
7
  6
CONTINUOUS
 10
6.1564569221
 20
7.5905839204
 11
6.1712305029
 21
7.5820543895
  0
LINE
  5
57C
100
AcDbEntity
  8
0
100
AcDbLine
 62
7
  6
CONTINUOUS
 10
6.2020690922
 20
3.4310543895
 11
6.2168426731
 21
3.4395839204
  0
LINE
  5
57D
100
AcDbEntity
  8
0
100
AcDbLine
 62
7
  6
CONTINUOUS
 10
6.1719332905
 20
3.4728403977
 11
6.1797600338
 21
3.4766665597
  0
LINE
  5
57E
100
AcDbEntity
  8
0
100
AcDbLine
 62
7
  6
CONTINUOUS
 10
6.2013663046
 20
3.4201069707
 11
6.1935395614
 21
3.4162808087
  0
LINE
  5
57F
100
AcDbEntity
  8
0
100
AcDbLine
 62
7
  6
CONTINUOUS
 10
6.1797600338
 20
7.5672808087
 11
6.1719332905
 21
7.5711069707
  0
LINE
  5
580
100
AcDbEntity
  8
0
100
AcDbLine
 62
7
  6
CONTINUOUS
 10
6.1935395614
 20
7.6276665597
 11
6.2013663046
 21
7.6238403977
  0
LINE
  5
581
100
AcDbEntity
  8
0
100
AcDbLine
 62
7
  6
CONTINUOUS
 10
6.2168426731
 20
7.604363448
 11
6.2020690922
 21
7.6128929789
  0
LINE
  5
582
100
AcDbEntity
  8
0
100
AcDbLine
 62
7
  6
CONTINUOUS
 10
6.1322659795
 20
3.4326941567
 11
6.1537010165
 21
3.4395839204
  0
LINE
  5
583
100
AcDbEntity
  8
0
100
AcDbLine
 62
7
  6
CONTINUOUS
 10
6.2410336156
 20
3.4602532118
 11
6.2195985786
 21
3.453363448
  0
LINE
  5
584
100
AcDbEntity
  8
0
100
AcDbLine
 62
7
  6
CONTINUOUS
 10
6.1564569221
 20
7.5905839204
 11
6.2168426731
 21
7.604363448
  0
LINE
  5
585
100
AcDbEntity
  8
0
100
AcDbLine
 62
7
  6
CONTINUOUS
 10
6.1537010165
 20
7.5905839204
 11
6.2195985786
 21
7.604363448
  0
LINE
  5
586
100
AcDbEntity
  8
0
100
AcDbLine
 62
7
  6
CONTINUOUS
 10
6.1537010165
 20
7.5905839204
 11
6.1564569221
 21
7.5905839204
  0
LINE
  5
587
100
AcDbEntity
  8
0
100
AcDbLine
 62
7
  6
CONTINUOUS
 10
6.2168426731
 20
7.5905839204
 11
6.2195985786
 21
7.5905839204
  0
LINE
  5
588
100
AcDbEntity
  8
02___PRT_ALL_AXES
100
AcDbLine
 62
7
  6
CENTER
 10
6.1866497976
 20
7.5974736842
 11
5.9681497976
 21
7.5974736842
  0
LINE
  5
589
100
AcDbEntity
  8
02___PRT_ALL_AXES
100
AcDbLine
 62
7
  6
CENTER
 10
6.1866497976
 20
7.5974736842
 11
6.4051497976
 21
7.5974736842
  0
LINE
  5
58A
100
AcDbEntity
  8
0
100
AcDbLine
 62
7
  6
CONTINUOUS
 10
6.2195985786
 20
7.604363448
 11
6.2168426731
 21
7.604363448
  0
LINE
  5
58B
100
AcDbEntity
  8
0
100
AcDbLine
 62
7
  6
CONTINUOUS
 10
6.1564569221
 20
7.604363448
 11
6.1537010165
 21
7.604363448
  0
LINE
  5
58C
100
AcDbEntity
  8
0
100
AcDbLine
 62
7
  6
CONTINUOUS
 10
6.4316497976
 20
7.7174736842
 11
6.2067727076
 21
7.7174736842
  0
LINE
  5
58D
100
AcDbEntity
  8
0
100
AcDbLine
 62
7
  6
CONTINUOUS
 10
6.1665268876
 20
7.7174736842
 11
5.9416497976
 21
7.7174736842
  0
LINE
  5
58E
100
AcDbEntity
  8
0
100
AcDbLine
 62
7
  6
CONTINUOUS
 10
6.1537010165
 20
7.604363448
 11
6.2195985786
 21
7.5905839204
  0
LINE
  5
58F
100
AcDbEntity
  8
0
100
AcDbLine
 62
7
  6
CONTINUOUS
 10
6.1564569221
 20
7.604363448
 11
6.2168426731
 21
7.5905839204
  0
LINE
  5
590
100
AcDbEntity
  8
0
100
AcDbLine
 62
7
  6
CONTINUOUS
 10
6.1322659795
 20
7.6112532118
 11
6.1537010165
 21
7.604363448
  0
LINE
  5
591
100
AcDbEntity
  8
0
100
AcDbLine
 62
7
  6
CONTINUOUS
 10
6.2410336156
 20
7.5836941567
 11
6.2195985786
 21
7.5905839204
  0
LWPOLYLINE
  5
592
100
AcDbEntity
  8
0
100
AcDbPolyline
 62
7
  6
CONTINUOUS
 90
9
 70
0
 10
9.0545856272
 20
3.3768368539
 10
9.0563686126
 20
3.3770617465
 10
9.0591553072
 20
3.378430599
 10
9.061666464
 20
3.3810942826
 10
9.0639621609
 20
3.3852212465
 10
9.0662526298
 20
3.3912537628
 10
9.0684705682
 20
3.3989015497
 10
9.0705496439
 20
3.4075171408
 10
9.0721380181
 20
3.4149776212
  0
LWPOLYLINE
  5
593
100
AcDbEntity
  8
0
100
AcDbPolyline
 62
7
  6
CONTINUOUS
 90
9
 70
0
 10
8.9802160749
 20
3.3768373382
 10
8.9819692954
 20
3.3770546529
 10
8.984725477
 20
3.3783830599
 10
8.9873229753
 20
3.3811245589
 10
8.989952739
 20
3.3860320593
 10
8.9922952218
 20
3.39253191
 10
8.9944079805
 20
3.4000755259
 10
8.9964608045
 20
3.408757992
 10
8.9977680513
 20
3.4149776212
  0
LWPOLYLINE
  5
594
100
AcDbEntity
  8
0
100
AcDbPolyline
 62
7
  6
CONTINUOUS
 90
17
 70
0
 10
8.9094609481
 20
3.3768373989
 10
8.9104365057
 20
3.3769326717
 10
8.9119611512
 20
3.3774986967
 10
8.9131251861
 20
3.3784051813
 10
8.9138585384
 20
3.3793730479
 10
8.9142775855
 20
3.3802464935
 10
8.9144985855
 20
3.3809344805
 10
8.9146410407
 20
3.3815488028
 10
8.9147554641
 20
3.3821934887
 10
8.9148579521
 20
3.3829155267
 10
8.9149541969
 20
3.3837331341
 10
8.9150480437
 20
3.3846677778
 10
8.9151413993
 20
3.3857353949
 10
8.9152352358
 20
3.3869482209
 10
8.9153300794
 20
3.3883161875
 10
8.91542623
 20
3.3898466216
 10
8.9154610575
 20
3.3904524838
  0
LWPOLYLINE
  5
595
100
AcDbEntity
  8
0
100
AcDbPolyline
 62
7
  6
CONTINUOUS
 90
18
 70
0
 10
8.921461186
 20
3.3768369986
 10
8.9224098264
 20
3.3769270699
 10
8.923915201
 20
3.3774724318
 10
8.9250803794
 20
3.3783585385
 10
8.9258213087
 20
3.3793104203
 10
8.9262536508
 20
3.3801843392
 10
8.9264808065
 20
3.3808691682
 10
8.9266208853
 20
3.3814510461
 10
8.926727934
 20
3.3820244106
 10
8.9268212068
 20
3.382640072
 10
8.9269082003
 20
3.3833249861
 10
8.926992651
 20
3.3840991371
 10
8.927076306
 20
3.384975843
 10
8.9271600359
 20
3.385964676
 10
8.927244266
 20
3.3870724546
 10
8.9273291894
 20
3.3883031733
 10
8.927414893
 20
3.389659165
 10
8.9275890515
 20
3.3927577877
  0
LINE
  5
596
100
AcDbEntity
  8
0
100
AcDbLine
 62
7
  6
CONTINUOUS
 10
9.1251388931
 20
3.3244736842
 11
9.4051388931
 21
3.3244736842
  0
LINE
  5
597
100
AcDbEntity
  8
0
100
AcDbLine
 62
7
  6
CONTINUOUS
 10
9.5101388931
 20
3.3264736842
 11
9.4051388931
 21
3.3264736842
  0
LINE
  5
598
100
AcDbEntity
  8
0
100
AcDbLine
 62
7
  6
CONTINUOUS
 10
9.5101388931
 20
3.3564736842
 11
9.5191388931
 21
3.3564736842
  0
LINE
  5
599
100
AcDbEntity
  8
0
100
AcDbLine
 62
7
  6
CONTINUOUS
 10
8.9802160749
 20
3.3768373382
 11
8.9802503926
 21
3.3768373396
  0
LINE
  5
59A
100
AcDbEntity
  8
0
100
AcDbLine
 62
7
  6
CONTINUOUS
 10
8.8990759009
 20
3.4149776212
 11
8.9024391421
 21
3.4149776212
  0
LINE
  5
59B
100
AcDbEntity
  8
0
100
AcDbLine
 62
7
  6
CONTINUOUS
 10
8.912440246
 20
3.4149776212
 11
8.9144391336
 21
3.4149776212
  0
LINE
  5
59C
100
AcDbEntity
  8
0
100
AcDbLine
 62
7
  6
CONTINUOUS
 10
8.9244402089
 20
3.4149776212
 11
8.9626995788
 21
3.4149776212
  0
LINE
  5
59D
100
AcDbEntity
  8
0
100
AcDbLine
 62
7
  6
CONTINUOUS
 10
8.97274197
 20
3.4149776212
 11
9.0370634341
 21
3.4149776212
  0
LINE
  5
59E
100
AcDbEntity
  8
0
100
AcDbLine
 62
7
  6
CONTINUOUS
 10
9.0471147926
 20
3.4149776212
 11
9.1114305834
 21
3.4149776212
  0
LINE
  5
59F
100
AcDbEntity
  8
0
100
AcDbLine
 62
7
  6
CONTINUOUS
 10
9.121473267
 20
3.4149776212
 11
9.1251388931
 21
3.4149776212
  0
LINE
  5
5A0
100
AcDbEntity
  8
0
100
AcDbLine
 62
7
  6
CONTINUOUS
 10
9.0545856272
 20
3.3768368539
 11
9.0546211519
 21
3.3768368464
  0
LINE
  5
5A1
100
AcDbEntity
  8
0
100
AcDbLine
 62
7
  6
CONTINUOUS
 10
9.0545742137
 20
3.3768369901
 11
9.0545856272
 21
3.3768368539
  0
LINE
  5
5A2
100
AcDbEntity
  8
0
100
AcDbLine
 62
7
  6
CONTINUOUS
 10
8.8153837351
 20
3.4611901913
 11
8.8227939045
 21
3.4602532118
  0
LWPOLYLINE
  5
5A3
100
AcDbEntity
  8
0
100
AcDbPolyline
 62
7
  6
CONTINUOUS
 90
9
 70
0
 10
9.0174364017
 20
3.5168360418
 10
9.0155457035
 20
3.5165827222
 10
9.0127684032
 20
3.5151705989
 10
9.0102769641
 20
3.5124721837
 10
9.0080341102
 20
3.508400986
 10
9.0056846322
 20
3.5021683485
 10
9.0035109146
 20
3.4946279607
 10
9.001446657
 20
3.4860542652
 10
8.9997273414
 20
3.4779697472
  0
LWPOLYLINE
  5
5A4
100
AcDbEntity
  8
0
100
AcDbPolyline
 62
7
  6
CONTINUOUS
 90
9
 70
0
 10
9.0918017157
 20
3.5168376709
 10
9.0899393011
 20
3.5165914339
 10
9.0871778593
 20
3.5152029959
 10
9.0847035315
 20
3.5125592468
 10
9.0824428598
 20
3.5084959236
 10
9.0801531653
 20
3.5024845452
 10
9.0779489461
 20
3.4949037302
 10
9.0758855207
 20
3.4863800308
 10
9.0740900284
 20
3.4779697472
  0
LWPOLYLINE
  5
5A5
100
AcDbEntity
  8
0
100
AcDbPolyline
 62
7
  6
CONTINUOUS
 90
9
 70
0
 10
8.9430677433
 20
3.5168373778
 10
8.9412436078
 20
3.5166013032
 10
8.9385370992
 20
3.5152717018
 10
8.9361108145
 20
3.5127519233
 10
8.9337872381
 20
3.5086620977
 10
8.9313694941
 20
3.5023242177
 10
8.929232863
 20
3.4949623621
 10
8.9272137112
 20
3.4866433108
 10
8.9253556342
 20
3.4779697472
  0
LINE
  5
5A6
100
AcDbEntity
  8
0
100
AcDbLine
 62
7
  6
CONTINUOUS
 10
8.8227939045
 20
3.4326941567
 11
8.8153837351
 21
3.4317571771
  0
LWPOLYLINE
  5
5A7
100
AcDbEntity
  8
0
100
AcDbPolyline
 62
7
  6
CONTINUOUS
 90
18
 70
0
 10
8.9154609059
 20
3.5168372179
 10
8.9145519839
 20
3.5167545526
 10
8.9130166944
 20
3.5162071656
 10
8.9118334776
 20
3.515307173
 10
8.9110818333
 20
3.5143321083
 10
8.9106512926
 20
3.5134450786
 10
8.9104283247
 20
3.5127565064
 10
8.9102889537
 20
3.5121627894
 10
8.9101812094
 20
3.5115703138
 10
8.9100869756
 20
3.5109315142
 10
8.9099986676
 20
3.510217592
 10
8.9099127554
 20
3.5094090203
 10
8.9098275857
 20
3.5084927219
 10
8.9097423613
 20
3.5074598498
 10
8.9096566808
 20
3.5063048931
 10
8.9095703537
 20
3.5050244075
 10
8.9094833168
 20
3.5036165921
 10
8.9094609771
 20
3.5032255819
  0
LINE
  5
5A8
100
AcDbEntity
  8
0
100
AcDbLine
 62
7
  6
CONTINUOUS
 10
8.9034615797
 20
3.5168368192
 11
8.9034094655
 21
3.5168365448
  0
LINE
  5
5A9
100
AcDbEntity
  8
0
100
AcDbLine
 62
7
  6
CONTINUOUS
 10
8.8990759009
 20
3.4779697472
 11
8.9005063194
 21
3.4779697472
  0
LINE
  5
5AA
100
AcDbEntity
  8
0
100
AcDbLine
 62
7
  6
CONTINUOUS
 10
8.9105076316
 20
3.4779697472
 11
8.9125063021
 21
3.4779697472
  0
LINE
  5
5AB
100
AcDbEntity
  8
0
100
AcDbLine
 62
7
  6
CONTINUOUS
 10
8.9225072909
 20
3.4779697472
 11
8.9506942011
 21
3.4779697472
  0
LINE
  5
5AC
100
AcDbEntity
  8
0
100
AcDbLine
 62
7
  6
CONTINUOUS
 10
8.9607405182
 20
3.4779697472
 11
9.0250609365
 21
3.4779697472
  0
LINE
  5
5AD
100
AcDbEntity
  8
0
100
AcDbLine
 62
7
  6
CONTINUOUS
 10
9.0351012555
 20
3.4779697472
 11
9.0994246608
 21
3.4779697472
  0
LINE
  5
5AE
100
AcDbEntity
  8
0
100
AcDbLine
 62
7
  6
CONTINUOUS
 10
9.1094764327
 20
3.4779697472
 11
9.1251388931
 21
3.4779697472
  0
LINE
  5
5AF
100
AcDbEntity
  8
0
100
AcDbLine
 62
7
  6
CONTINUOUS
 10
9.0917655655
 20
3.5168376666
 11
9.0918017157
 21
3.5168376709
  0
LINE
  5
5B0
100
AcDbEntity
  8
0
100
AcDbLine
 62
7
  6
CONTINUOUS
 10
9.5101388931
 20
3.5364736842
 11
9.5191388931
 21
3.5364736842
  0
LINE
  5
5B1
100
AcDbEntity
  8
0
100
AcDbLine
 62
7
  6
CONTINUOUS
 10
9.1251388931
 20
3.5684736842
 11
9.4051388931
 21
3.5684736842
  0
LINE
  5
5B2
100
AcDbEntity
  8
0
100
AcDbLine
 62
7
  6
CONTINUOUS
 10
8.9430331096
 20
3.5168373807
 11
8.9430677433
 21
3.5168373778
  0
LINE
  5
5B3
100
AcDbEntity
  8
0
100
AcDbLine
 62
7
  6
CONTINUOUS
 10
9.0174018837
 20
3.5168360446
 11
9.0174364017
 21
3.5168360418
  0
LINE
  5
5B4
100
AcDbEntity
  8
0
100
AcDbLine
 62
7
  6
CONTINUOUS
 10
9.0918017157
 20
3.5168376709
 11
9.0918138321
 21
3.5168375251
  0
LINE
  5
5B5
100
AcDbEntity
  8
0
100
AcDbLine
 62
7
  6
CONTINUOUS
 10
9.0174364017
 20
3.5168360418
 11
9.0174522924
 21
3.5168358412
  0
LINE
  5
5B6
100
AcDbEntity
  8
0
100
AcDbLine
 62
7
  6
CONTINUOUS
 10
8.9430677433
 20
3.5168373778
 11
8.9430948
 21
3.5168369572
  0
LINE
  5
5B7
100
AcDbEntity
  8
0
100
AcDbLine
 62
7
  6
CONTINUOUS
 10
8.9430677433
 20
3.5168373778
 11
8.9430948343
 21
3.5168297132
  0
LINE
  5
5B8
100
AcDbEntity
  8
0
100
AcDbLine
 62
7
  6
CONTINUOUS
 10
9.0174364017
 20
3.5168360418
 11
9.0174523351
 21
3.5168297964
  0
LINE
  5
5B9
100
AcDbEntity
  8
0
100
AcDbLine
 62
7
  6
CONTINUOUS
 10
9.0545741535
 20
3.3768431124
 11
9.0545856272
 21
3.3768368539
  0
LINE
  5
5BA
100
AcDbEntity
  8
0
100
AcDbLine
 62
7
  6
CONTINUOUS
 10
9.0918017157
 20
3.5168376709
 11
9.0918138847
 21
3.5168316069
  0
LWPOLYLINE
  5
5BB
100
AcDbEntity
  8
0
100
AcDbPolyline
 62
7
  6
CONTINUOUS
 90
21
 70
0
 10
8.9815371794
 20
3.3864630963
 10
8.9811274706
 20
3.386967846
 10
8.980005592
 20
3.3889717163
 10
8.9784785162
 20
3.392749988
 10
8.9767387551
 20
3.3982747372
 10
8.9748813911
 20
3.4054080904
 10
8.9729660149
 20
3.4138806742
 10
8.9710313892
 20
3.4233528034
 10
8.9690808871
 20
3.4335657697
 10
8.9671163429
 20
3.4442431032
 10
8.9651442398
 20
3.4550577464
 10
8.9631657519
 20
3.4657045333
 10
8.9611735587
 20
3.4759211554
 10
8.959157694
 20
3.4854576396
 10
8.9571128574
 20
3.4940357365
 10
8.9549875493
 20
3.5015398585
 10
8.9525938265
 20
3.5080473299
 10
8.9500334161
 20
3.5126988072
 10
8.9475424889
 20
3.5152900441
 10
8.9447876937
 20
3.516619423
 10
8.9430507926
 20
3.5168351841
  0
LWPOLYLINE
  5
5BC
100
AcDbEntity
  8
0
100
AcDbPolyline
 62
7
  6
CONTINUOUS
 90
21
 70
0
 10
9.0558972128
 20
3.3864681094
 10
9.0554910211
 20
3.3869697767
 10
9.0544293298
 20
3.3888518518
 10
9.0530023437
 20
3.3923082309
 10
9.0512922547
 20
3.3976223854
 10
9.0494623244
 20
3.4045218299
 10
9.0475656565
 20
3.4127934251
 10
9.0456358937
 20
3.4221421009
 10
9.0436933425
 20
3.4322468388
 10
9.0417377073
 20
3.4428415447
 10
9.0397713056
 20
3.453629806
 10
9.0377957367
 20
3.464304675
 10
9.0358068628
 20
3.4745888937
 10
9.0337923703
 20
3.4842411525
 10
9.0317370819
 20
3.4930213052
 10
9.0296275914
 20
3.5006582749
 10
9.0273118993
 20
3.5072243718
 10
9.0247135364
 20
3.5122467502
 10
9.0219166124
 20
3.5152854369
 10
9.0191538
 20
3.516619078
 10
9.0174198321
 20
3.5168338218
  0
LWPOLYLINE
  5
5BD
100
AcDbEntity
  8
0
100
AcDbPolyline
 62
7
  6
CONTINUOUS
 90
9
 70
0
 10
9.0904820729
 20
3.507209474
 10
9.0909375998
 20
3.5066407735
 10
9.0920323443
 20
3.5046614082
 10
9.0934891536
 20
3.5010690206
 10
9.0952426946
 20
3.4955306468
 10
9.0971065356
 20
3.4883956184
 10
9.0990289933
 20
3.4799055157
 10
9.100983098
 20
3.4703452301
 10
9.1029493284
 20
3.460048493
  0
LWPOLYLINE
  5
5BE
100
AcDbEntity
  8
0
100
AcDbPolyline
 62
7
  6
CONTINUOUS
 90
9
 70
0
 10
8.9417503536
 20
3.5072096575
 10
8.942256001
 20
3.506567096
 10
8.9433858851
 20
3.5044796036
 10
8.9448770376
 20
3.5007327039
 10
8.9465853896
 20
3.4952698641
 10
8.9484216064
 20
3.4882033592
 10
8.9503301648
 20
3.4797529166
 10
8.9522765058
 20
3.4702190981
 10
8.9542375324
 20
3.4599432462
  0
LWPOLYLINE
  5
5BF
100
AcDbEntity
  8
0
100
AcDbPolyline
 62
7
  6
CONTINUOUS
 90
9
 70
0
 10
9.0161119613
 20
3.5072141942
 10
9.0166324994
 20
3.506549504
 10
9.0177659068
 20
3.5044498595
 10
9.0192325686
 20
3.5007607318
 10
9.0209501111
 20
3.4952740916
 10
9.0228056211
 20
3.4881265369
 10
9.0247313894
 20
3.4795870982
 10
9.0266918834
 20
3.4699653852
 10
9.0286613595
 20
3.4596317271
  0
LINE
  5
5C0
100
AcDbEntity
  8
0
100
AcDbLine
 62
7
  6
CONTINUOUS
 10
9.5250601529
 20
7.5777886454
 11
9.5191388931
 21
7.5718673857
  0
LINE
  5
5C1
100
AcDbEntity
  8
0
100
AcDbLine
 62
7
  6
CONTINUOUS
 10
9.5250601529
 20
3.4661587231
 11
9.5191388931
 21
3.4720799828
  0
LWPOLYLINE
  5
5C2
100
AcDbEntity
  8
0
100
AcDbPolyline
 62
7
  6
CONTINUOUS
 90
7
 70
0
 10
8.9877275581
 20
7.5659776212
 10
8.9874800097
 20
7.5647662686
 10
8.9855586033
 20
7.5562803758
 10
8.9837290748
 20
7.5492659236
 10
8.9820456625
 20
7.543900642
 10
8.9805856878
 20
7.5402304292
 10
8.9802303264
 20
7.5395703016
  0
LWPOLYLINE
  5
5C3
100
AcDbEntity
  8
0
100
AcDbPolyline
 62
7
  6
CONTINUOUS
 90
7
 70
0
 10
9.0097792
 20
7.6289697472
 10
9.0102509006
 20
7.6312686857
 10
9.0121569597
 20
7.6396492151
 10
9.0140007217
 20
7.6466749997
 10
9.0157306194
 20
7.6521186384
 10
9.0172198052
 20
7.6557668865
 10
9.017411119
 20
7.6561071062
  0
LWPOLYLINE
  5
5C4
100
AcDbEntity
  8
0
100
AcDbPolyline
 62
7
  6
CONTINUOUS
 90
6
 70
0
 10
8.9354009506
 20
7.6289697472
 10
8.9373013153
 20
7.6375946712
 10
8.9392227132
 20
7.6452068063
 10
8.9410419769
 20
7.651194892
 10
8.9426582648
 20
7.6553480196
 10
8.9430566687
 20
7.6560878402
  0
LWPOLYLINE
  5
5C5
100
AcDbEntity
  8
0
100
AcDbPolyline
 62
7
  6
CONTINUOUS
 90
5
 70
0
 10
9.1251388931
 20
3.3995524596
 10
9.1236172868
 20
3.4053895057
 10
9.1216904442
 20
3.4139134788
 10
9.1197317109
 20
3.4235110417
 10
9.1177568315
 20
3.4338632828
  0
LWPOLYLINE
  5
5C6
100
AcDbEntity
  8
0
100
AcDbPolyline
 62
7
  6
CONTINUOUS
 90
12
 70
0
 10
8.8988355882
 20
3.5101810819
 10
8.8988481095
 20
3.510119029
 10
8.8988802753
 20
3.5099324228
 10
8.8989232556
 20
3.5096400158
 10
8.8989729766
 20
3.5092503279
 10
8.8990272397
 20
3.5087677704
 10
8.8990848526
 20
3.5081936251
 10
8.8991454484
 20
3.5075239473
 10
8.8992089731
 20
3.5067520405
 10
8.8992755403
 20
3.5058687184
 10
8.899345364
 20
3.5048624853
 10
8.8994185941
 20
3.5037216594
  0
LWPOLYLINE
  5
5C7
100
AcDbEntity
  8
0
100
AcDbPolyline
 62
7
  6
CONTINUOUS
 90
12
 70
0
 10
8.9140855089
 20
3.3834961219
 10
8.9140752066
 20
3.3835472554
 10
8.9140437113
 20
3.3837285117
 10
8.9140008311
 20
3.3840187512
 10
8.9139512562
 20
3.3844058242
 10
8.9138972741
 20
3.3848840192
 10
8.9138390495
 20
3.3854620255
 10
8.9137759354
 20
3.3861584051
 10
8.9137069701
 20
3.3869996916
 10
8.9136325076
 20
3.3879996819
 10
8.9135551352
 20
3.3891371749
 10
8.9134752032
 20
3.3904151185
  0
LWPOLYLINE
  5
5C8
100
AcDbEntity
  8
0
100
AcDbPolyline
 62
7
  6
CONTINUOUS
 90
11
 70
0
 10
8.9108355771
 20
3.5101806698
 10
8.9108537016
 20
3.5100889266
 10
8.9108918127
 20
3.5098585465
 10
8.9109406951
 20
3.5095096469
 10
8.9109962015
 20
3.5090510469
 10
8.9110562549
 20
3.5084861781
 10
8.9111196585
 20
3.5078166753
 10
8.9111856935
 20
3.5070428085
 10
8.9112539131
 20
3.5061639179
 10
8.911324025
 20
3.5051788217
 10
8.9113958263
 20
3.5040860972
  0
LWPOLYLINE
  5
5C9
100
AcDbEntity
  8
0
100
AcDbPolyline
 62
7
  6
CONTINUOUS
 90
11
 70
0
 10
8.9260862245
 20
3.3834937945
 10
8.9260643538
 20
3.3836064217
 10
8.9260236697
 20
3.3838585005
 10
8.9259724764
 20
3.3842333267
 10
8.9259147082
 20
3.3847228739
 10
8.9258524541
 20
3.3853230995
 10
8.9257868737
 20
3.3860326609
 10
8.9257186578
 20
3.3868516819
 10
8.9256482382
 20
3.3877811715
 10
8.9255758656
 20
3.3888231342
 10
8.9255017149
 20
3.3899798009
  0
LWPOLYLINE
  5
5CA
100
AcDbEntity
  8
0
100
AcDbPolyline
 62
7
  6
CONTINUOUS
 90
12
 70
0
 10
8.9542375324
 20
3.4599432462
 10
8.9581845016
 20
3.4383922708
 10
8.9601760625
 20
3.4276842317
 10
8.9621883283
 20
3.4173856957
 10
8.9642272607
 20
3.407781986
 10
8.9662841295
 20
3.3992145966
 10
8.9684506606
 20
3.3916638384
 10
8.9708587186
 20
3.385255306
 10
8.9731417081
 20
3.3811341833
 10
8.9756083006
 20
3.3784854202
 10
8.9783704794
 20
3.3770879372
 10
8.9802338629
 20
3.376839543
  0
LWPOLYLINE
  5
5CB
100
AcDbEntity
  8
0
100
AcDbPolyline
 62
7
  6
CONTINUOUS
 90
7
 70
0
 10
9.0620970871
 20
7.5659776212
 10
9.0619489652
 20
7.5652496208
 10
9.0600208966
 20
7.5566822044
 10
9.0581526097
 20
7.5494687657
 10
9.0564038674
 20
7.5438803081
 10
9.0549298545
 20
7.5401831056
 10
9.0545929124
 20
7.5395618666
  0
LWPOLYLINE
  5
5CC
100
AcDbEntity
  8
0
100
AcDbPolyline
 62
7
  6
CONTINUOUS
 90
7
 70
0
 10
9.0841422519
 20
7.6289697472
 10
9.0845091165
 20
7.630766814
 10
9.0864281431
 20
7.6392586284
 10
9.0882882539
 20
7.6464015077
 10
9.0900372168
 20
7.6519528989
 10
9.0914960256
 20
7.6555776872
 10
9.0917859014
 20
7.656106992
  0
LWPOLYLINE
  5
5CD
100
AcDbEntity
  8
0
100
AcDbPolyline
 62
7
  6
CONTINUOUS
 90
12
 70
0
 10
9.0286613595
 20
3.4596317271
 10
9.0326143276
 20
3.4380426229
 10
9.0346095973
 20
3.4273268419
 10
9.0366277367
 20
3.4170223947
 10
9.0386659196
 20
3.4074569884
 10
9.0407298767
 20
3.3989081112
 10
9.042912909
 20
3.3913646072
 10
9.0452285035
 20
3.3852477503
 10
9.0474875207
 20
3.3811609906
 10
9.0499725381
 20
3.3784877428
 10
9.0527408952
 20
3.3770875293
 10
9.0546038531
 20
3.3768391528
  0
LWPOLYLINE
  5
5CE
100
AcDbEntity
  8
0
100
AcDbPolyline
 62
7
  6
CONTINUOUS
 90
11
 70
0
 10
9.1029493284
 20
3.460048493
 10
9.1069113893
 20
3.4384170537
 10
9.1089153342
 20
3.4276425982
 10
9.1109388216
 20
3.4172917301
 10
9.1129791546
 20
3.4076904301
 10
9.1150560007
 20
3.3990594001
 10
9.1172692095
 20
3.3913944824
 10
9.1195487253
 20
3.3853474107
 10
9.1218329204
 20
3.3811914554
 10
9.1243227042
 20
3.3784990603
 10
9.1251388931
 20
3.3780841878
  0
LWPOLYLINE
  5
5CF
100
AcDbEntity
  8
0
100
AcDbPolyline
 62
7
  6
CONTINUOUS
 90
12
 70
0
 10
9.1177568315
 20
3.4338632828
 10
9.1137837378
 20
3.4555590769
 10
9.111776515
 20
3.4663407064
 10
9.1097481814
 20
3.4766951695
 10
9.107701673
 20
3.4862938706
 10
9.1056279761
 20
3.4948687579
 10
9.1034135024
 20
3.5024878636
 10
9.1010978642
 20
3.5085552815
 10
9.0988199504
 20
3.5126215754
 10
9.0963195661
 20
3.5152561947
 10
9.0935365988
 20
3.5166155623
 10
9.0917841012
 20
3.516835342
  0
LWPOLYLINE
  5
5D0
100
AcDbEntity
  8
0
100
AcDbPolyline
 62
7
  6
CONTINUOUS
 90
17
 70
0
 10
8.9094146025
 20
3.5040193247
 10
8.9093299605
 20
3.5053580482
 10
8.9092459835
 20
3.5065762309
 10
8.9091625845
 20
3.5076761549
 10
8.9090795415
 20
3.5086616415
 10
8.9089963909
 20
3.5095384579
 10
8.9089122681
 20
3.5103147939
 10
8.9088254664
 20
3.5110031536
 10
8.9087323402
 20
3.5116227237
 10
8.9086256624
 20
3.5121991796
 10
8.9084869992
 20
3.5127812305
 10
8.9082646508
 20
3.5134606253
 10
8.9078408587
 20
3.5143306971
 10
8.9071061606
 20
3.5152888023
 10
8.9059421841
 20
3.5161863415
 10
8.904425637
 20
3.5167437292
 10
8.9034613532
 20
3.5168368186
  0
LWPOLYLINE
  5
5D1
100
AcDbEntity
  8
0
100
AcDbPolyline
 62
7
  6
CONTINUOUS
 90
17
 70
0
 10
8.9214606437
 20
3.50324547
 10
8.9213692687
 20
3.5047505616
 10
8.9212790761
 20
3.5061095521
 10
8.9211898285
 20
3.5073287828
 10
8.9211011499
 20
3.5084154075
 10
8.9210124168
 20
3.5093777712
 10
8.9209229751
 20
3.5102222985
 10
8.9208319693
 20
3.5109557426
 10
8.9207366529
 20
3.511596639
 10
8.9206296261
 20
3.5121796942
 10
8.9204923839
 20
3.5127608244
 10
8.9202734117
 20
3.5134371927
 10
8.9198530846
 20
3.5143095983
 10
8.9191201566
 20
3.5152739795
 10
8.9179565883
 20
3.5161781604
 10
8.9164337313
 20
3.5167423797
 10
8.9154604274
 20
3.5168372178
  0
LWPOLYLINE
  5
5D2
100
AcDbEntity
  8
0
100
AcDbPolyline
 62
7
  6
CONTINUOUS
 90
17
 70
0
 10
8.9034279207
 20
3.391012887
 10
8.9035227551
 20
3.3894036764
 10
8.9036162834
 20
3.3879525845
 10
8.9037086911
 20
3.3866539697
 10
8.9038002993
 20
3.3855001047
 10
8.9038916718
 20
3.3844817815
 10
8.9039838431
 20
3.383587577
 10
8.9040786213
 20
3.3828038971
 10
8.90417769
 20
3.3821237033
 10
8.9042872827
 20
3.3815180975
 10
8.9044261502
 20
3.3809251512
 10
8.9046472165
 20
3.3802399805
 10
8.9050778035
 20
3.3793495165
 10
8.9058293174
 20
3.3783720216
 10
8.9070109433
 20
3.3774708557
 10
8.9085486325
 20
3.3769207663
 10
8.9094614323
 20
3.3768373988
  0
LWPOLYLINE
  5
5D3
100
AcDbEntity
  8
0
100
AcDbPolyline
 62
7
  6
CONTINUOUS
 90
17
 70
0
 10
8.9154114877
 20
3.3913051044
 10
8.9155082083
 20
3.389641472
 10
8.9156035641
 20
3.3881423578
 10
8.915697713
 20
3.3868016977
 10
8.9157909496
 20
3.3856119474
 10
8.9158838104
 20
3.384563959
 10
8.915977308
 20
3.3836461203
 10
8.9160734821
 20
3.3828425726
 10
8.916176665
 20
3.3821302702
 10
8.9162926897
 20
3.3814923102
 10
8.9164376084
 20
3.3808836062
 10
8.916666461
 20
3.3801907143
 10
8.9171063064
 20
3.3793024459
 10
8.9178630247
 20
3.3783377318
 10
8.9190448469
 20
3.3774520203
 10
8.9205680359
 20
3.3769168912
 10
8.9214616454
 20
3.3768369985
  0
LINE
  5
5D4
100
AcDbEntity
  8
0
100
AcDbLine
 62
7
  6
CONTINUOUS
 10
8.9113958263
 20
3.5040860972
 11
8.9115440673
 21
3.5015694477
  0
LINE
  5
5D5
100
AcDbEntity
  8
0
100
AcDbLine
 62
7
  6
CONTINUOUS
 10
8.8994185941
 20
3.5037216594
 11
8.8995731785
 21
3.5010351502
  0
LINE
  5
5D6
100
AcDbEntity
  8
0
100
AcDbLine
 62
7
  6
CONTINUOUS
 10
8.9255017149
 20
3.3899798009
 11
8.9253485258
 21
3.3926461631
  0
LINE
  5
5D7
100
AcDbEntity
  8
0
100
AcDbLine
 62
7
  6
CONTINUOUS
 10
8.9095859423
 20
3.5009760105
 11
8.9094146025
 21
3.5040193247
  0
LINE
  5
5D8
100
AcDbEntity
  8
0
100
AcDbLine
 62
7
  6
CONTINUOUS
 10
8.9134752032
 20
3.3904151185
 11
8.9133085692
 21
3.3934011619
  0
LINE
  5
5D9
100
AcDbEntity
  8
0
100
AcDbLine
 62
7
  6
CONTINUOUS
 10
8.9216475145
 20
3.4997754101
 11
8.9214606437
 21
3.50324547
  0
LINE
  5
5DA
100
AcDbEntity
  8
0
100
AcDbLine
 62
7
  6
CONTINUOUS
 10
8.9032338792
 20
3.3947216933
 11
8.9034279207
 21
3.391012887
  0
LINE
  5
5DB
100
AcDbEntity
  8
0
100
AcDbLine
 62
7
  6
CONTINUOUS
 10
8.9115440673
 20
3.5015694477
 11
8.9116982627
 21
3.4985944943
  0
LINE
  5
5DC
100
AcDbEntity
  8
0
100
AcDbLine
 62
7
  6
CONTINUOUS
 10
8.9152136539
 20
3.3951394552
 11
8.9154114877
 21
3.3913051044
  0
LINE
  5
5DD
100
AcDbEntity
  8
0
100
AcDbLine
 62
7
  6
CONTINUOUS
 10
8.8995731785
 20
3.5010351502
 11
8.8997352121
 21
3.4978305939
  0
LINE
  5
5DE
100
AcDbEntity
  8
0
100
AcDbLine
 62
7
  6
CONTINUOUS
 10
8.9253485258
 20
3.3926461631
 11
8.9251893109
 21
3.3957927977
  0
LINE
  5
5DF
100
AcDbEntity
  8
0
100
AcDbLine
 62
7
  6
CONTINUOUS
 10
8.9097606632
 20
3.4974296307
 11
8.9095859423
 21
3.5009760105
  0
LINE
  5
5E0
100
AcDbEntity
  8
0
100
AcDbLine
 62
7
  6
CONTINUOUS
 10
8.9133085692
 20
3.3934011619
 11
8.9131341663
 21
3.3969669853
  0
LINE
  5
5E1
100
AcDbEntity
  8
0
100
AcDbLine
 62
7
  6
CONTINUOUS
 10
8.9218404726
 20
3.4956685132
 11
8.9216475145
 21
3.4997754101
  0
LINE
  5
5E2
100
AcDbEntity
  8
0
100
AcDbLine
 62
7
  6
CONTINUOUS
 10
8.9116982627
 20
3.4985944943
 11
8.9118583141
 21
3.4951459221
  0
LINE
  5
5E3
100
AcDbEntity
  8
0
100
AcDbLine
 62
7
  6
CONTINUOUS
 10
8.9030336427
 20
3.3991032973
 11
8.9032338792
 21
3.3947216933
  0
LINE
  5
5E4
100
AcDbEntity
  8
0
100
AcDbLine
 62
7
  6
CONTINUOUS
 10
8.8997352121
 20
3.4978305939
 11
8.8999035447
 21
3.4941082368
  0
LINE
  5
5E5
100
AcDbEntity
  8
0
100
AcDbLine
 62
7
  6
CONTINUOUS
 10
8.9150098042
 20
3.3996608671
 11
8.9152136539
 21
3.3951394552
  0
LINE
  5
5E6
100
AcDbEntity
  8
0
100
AcDbLine
 62
7
  6
CONTINUOUS
 10
8.9251893109
 20
3.3957927977
 11
8.924940003
 21
3.4014297839
  0
LINE
  5
5E7
100
AcDbEntity
  8
0
100
AcDbLine
 62
7
  6
CONTINUOUS
 10
8.9100312467
 20
3.4911243051
 11
8.9097606632
 21
3.4974296307
  0
LINE
  5
5E8
100
AcDbEntity
  8
0
100
AcDbLine
 62
7
  6
CONTINUOUS
 10
8.9131341663
 20
3.3969669853
 11
8.9128607347
 21
3.4033912308
  0
LINE
  5
5E9
100
AcDbEntity
  8
0
100
AcDbLine
 62
7
  6
CONTINUOUS
 10
8.9118583141
 20
3.4951459221
 11
8.9121088619
 21
3.4890710723
  0
LINE
  5
5EA
100
AcDbEntity
  8
0
100
AcDbLine
 62
7
  6
CONTINUOUS
 10
8.9221422693
 20
3.4882753855
 11
8.9218404726
 21
3.4956685132
  0
LINE
  5
5EB
100
AcDbEntity
  8
0
100
AcDbLine
 62
7
  6
CONTINUOUS
 10
8.8999035447
 20
3.4941082368
 11
8.9001667566
 21
3.4875588498
  0
LINE
  5
5EC
100
AcDbEntity
  8
0
100
AcDbLine
 62
7
  6
CONTINUOUS
 10
8.9027214787
 20
3.4069526111
 11
8.9030336427
 21
3.3991032973
  0
LINE
  5
5ED
100
AcDbEntity
  8
0
100
AcDbLine
 62
7
  6
CONTINUOUS
 10
8.9146938852
 20
3.4077002439
 11
8.9150098042
 21
3.3996608671
  0
LINE
  5
5EE
100
AcDbEntity
  8
0
100
AcDbLine
 62
7
  6
CONTINUOUS
 10
8.924940003
 20
3.4014297839
 11
8.9246788089
 21
3.4081718214
  0
LINE
  5
5EF
100
AcDbEntity
  8
0
100
AcDbLine
 62
7
  6
CONTINUOUS
 10
8.9128607347
 20
3.4033912308
 11
8.912576393
 21
3.4110210463
  0
LINE
  5
5F0
100
AcDbEntity
  8
0
100
AcDbLine
 62
7
  6
CONTINUOUS
 10
8.9104122147
 20
3.4807870108
 11
8.9100312467
 21
3.4911243051
  0
LINE
  5
5F1
100
AcDbEntity
  8
0
100
AcDbLine
 62
7
  6
CONTINUOUS
 10
8.9121088619
 20
3.4890710723
 11
8.9124610718
 21
3.479318688
  0
LINE
  5
5F2
100
AcDbEntity
  8
0
100
AcDbLine
 62
7
  6
CONTINUOUS
 10
8.9001667566
 20
3.4875588498
 11
8.9005355382
 21
3.47710284
  0
LINE
  5
5F3
100
AcDbEntity
  8
0
100
AcDbLine
 62
7
  6
CONTINUOUS
 10
8.9225653672
 20
3.4762302408
 11
8.9221422693
 21
3.4882753855
  0
LINE
  5
5F4
100
AcDbEntity
  8
0
100
AcDbLine
 62
7
  6
CONTINUOUS
 10
8.9246788089
 20
3.4081718214
 11
8.9243129915
 21
3.4188044906
  0
LINE
  5
5F5
100
AcDbEntity
  8
0
100
AcDbLine
 62
7
  6
CONTINUOUS
 10
8.902289037
 20
3.4195189045
 11
8.9027214787
 21
3.4069526111
  0
LINE
  5
5F6
100
AcDbEntity
  8
0
100
AcDbLine
 62
7
  6
CONTINUOUS
 10
8.912576393
 20
3.4110210463
 11
8.9121840439
 21
3.4228207536
  0
LINE
  5
5F7
100
AcDbEntity
  8
0
100
AcDbLine
 62
7
  6
CONTINUOUS
 10
8.9141551483
 20
3.4237225031
 11
8.9146938852
 21
3.4077002439
  0
LINE
  5
5F8
100
AcDbEntity
  8
0
100
AcDbLine
 62
7
  6
CONTINUOUS
 10
8.9124610718
 20
3.479318688
 11
8.9128323734
 21
3.4678445061
  0
LINE
  5
5F9
100
AcDbEntity
  8
0
100
AcDbLine
 62
7
  6
CONTINUOUS
 10
8.9005355382
 20
3.47710284
 11
8.9010213821
 21
3.4616681558
  0
LINE
  5
5FA
100
AcDbEntity
  8
0
100
AcDbLine
 62
7
  6
CONTINUOUS
 10
8.9243129915
 20
3.4188044906
 11
8.9238289249
 21
3.4343925986
  0
LINE
  5
5FB
100
AcDbEntity
  8
0
100
AcDbLine
 62
7
  6
CONTINUOUS
 10
8.9112466765
 20
3.4541152401
 11
8.9104122147
 21
3.4807870108
  0
LWPOLYLINE
  5
5FC
100
AcDbEntity
  8
0
100
AcDbPolyline
 62
7
  6
CONTINUOUS
 90
4
 70
0
 10
8.9010213821
 20
3.4616681558
 10
8.9014288278
 20
3.4479365833
 10
8.9015332999
 20
3.4443813476
 10
8.902289037
 20
3.4195189045
  0
LINE
  5
5FD
100
AcDbEntity
  8
0
100
AcDbLine
 62
7
  6
CONTINUOUS
 10
8.9121840439
 20
3.4228207536
 11
8.9112466765
 21
3.4541152401
  0
LWPOLYLINE
  5
5FE
100
AcDbEntity
  8
0
100
AcDbPolyline
 62
7
  6
CONTINUOUS
 90
4
 70
0
 10
8.9128323734
 20
3.4678445061
 10
8.913421962
 20
3.4481701926
 10
8.9135238302
 20
3.4447034022
 10
8.9141551483
 20
3.4237225031
  0
LWPOLYLINE
  5
5FF
100
AcDbEntity
  8
0
100
AcDbPolyline
 62
7
  6
CONTINUOUS
 90
4
 70
0
 10
8.9238289249
 20
3.4343925986
 10
8.9235250003
 20
3.4446572385
 10
8.9234215445
 20
3.4481779382
 10
8.9225653672
 20
3.4762302408
  0
LINE
  5
600
100
AcDbEntity
  8
0
100
AcDbLine
 62
7
  6
CONTINUOUS
 10
8.8227939045
 20
7.6535760464
 11
8.8227939045
 21
7.6518575023
  0
LINE
  5
601
100
AcDbEntity
  8
0
100
AcDbLine
 62
7
  6
CONTINUOUS
 10
8.8227939045
 20
7.6112532118
 11
8.8227939045
 21
7.5836941567
  0
LINE
  5
602
100
AcDbEntity
  8
0
100
AcDbLine
 62
7
  6
CONTINUOUS
 10
8.8227939045
 20
7.5430898662
 11
8.8227939045
 21
7.541371322
  0
LINE
  5
603
100
AcDbEntity
  8
0
100
AcDbLine
 62
7
  6
CONTINUOUS
 10
8.8227939045
 20
3.5025760464
 11
8.8227939045
 21
3.5008575023
  0
LINE
  5
604
100
AcDbEntity
  8
0
100
AcDbLine
 62
7
  6
CONTINUOUS
 10
8.8227939045
 20
3.4602532118
 11
8.8227939045
 21
3.4326941567
  0
LINE
  5
605
100
AcDbEntity
  8
0
100
AcDbLine
 62
7
  6
CONTINUOUS
 10
8.8227939045
 20
3.3920898662
 11
8.8227939045
 21
3.390371322
  0
LINE
  5
606
100
AcDbEntity
  8
0
100
AcDbLine
 62
7
  6
CONTINUOUS
 10
8.8401318047
 20
3.3573145471
 11
8.8401318047
 21
3.5356328213
  0
LINE
  5
607
100
AcDbEntity
  8
0
100
AcDbLine
 62
7
  6
CONTINUOUS
 10
8.8401318047
 20
7.5083145471
 11
8.8401318047
 21
7.6866328213
  0
LINE
  5
608
100
AcDbEntity
  8
0
100
AcDbLine
 62
7
  6
CONTINUOUS
 10
8.928138117
 20
7.5562897905
 11
8.9284829861
 21
7.5659776212
  0
LINE
  5
609
100
AcDbEntity
  8
0
100
AcDbLine
 62
7
  6
CONTINUOUS
 10
8.9278583153
 20
7.5494096375
 11
8.928138117
 21
7.5562897905
  0
LINE
  5
60A
100
AcDbEntity
  8
0
100
AcDbLine
 62
7
  6
CONTINUOUS
 10
8.9276776834
 20
7.545505814
 11
8.9278583153
 21
7.5494096375
  0
LWPOLYLINE
  5
60B
100
AcDbEntity
  8
0
100
AcDbPolyline
 62
7
  6
CONTINUOUS
 90
17
 70
0
 10
8.9034279207
 20
7.542012887
 10
8.9035227551
 20
7.5404036764
 10
8.9036162834
 20
7.5389525845
 10
8.9037086911
 20
7.5376539697
 10
8.9038002993
 20
7.5365001047
 10
8.9038916718
 20
7.5354817815
 10
8.9039838431
 20
7.534587577
 10
8.9040786213
 20
7.5338038971
 10
8.90417769
 20
7.5331237033
 10
8.9042872827
 20
7.5325180975
 10
8.9044261502
 20
7.5319251512
 10
8.9046472165
 20
7.5312399805
 10
8.9050778035
 20
7.5303495165
 10
8.9058293174
 20
7.5293720216
 10
8.9070109433
 20
7.5284708557
 10
8.9085486325
 20
7.5279207663
 10
8.9094614323
 20
7.5278373988
  0
LWPOLYLINE
  5
60C
100
AcDbEntity
  8
0
100
AcDbPolyline
 62
7
  6
CONTINUOUS
 90
17
 70
0
 10
8.9154114877
 20
7.5423051044
 10
8.9155082083
 20
7.540641472
 10
8.9156035641
 20
7.5391423578
 10
8.915697713
 20
7.5378016977
 10
8.9157909496
 20
7.5366119474
 10
8.9158838104
 20
7.535563959
 10
8.915977308
 20
7.5346461203
 10
8.9160734821
 20
7.5338425726
 10
8.916176665
 20
7.5331302702
 10
8.9162926897
 20
7.5324923102
 10
8.9164376084
 20
7.5318836062
 10
8.916666461
 20
7.5311907143
 10
8.9171063064
 20
7.5303024459
 10
8.9178630247
 20
7.5293377318
 10
8.9190448469
 20
7.5284520203
 10
8.9205680359
 20
7.5279168912
 10
8.9214616454
 20
7.5278369985
  0
LINE
  5
60D
100
AcDbEntity
  8
0
100
AcDbLine
 62
7
  6
CONTINUOUS
 10
8.8994185941
 20
7.6547216594
 11
8.8995731785
 21
7.6520351502
  0
LINE
  5
60E
100
AcDbEntity
  8
0
100
AcDbLine
 62
7
  6
CONTINUOUS
 10
8.9095859423
 20
7.6519760105
 11
8.9094146025
 21
7.6550193247
  0
LINE
  5
60F
100
AcDbEntity
  8
0
100
AcDbLine
 62
7
  6
CONTINUOUS
 10
8.9134752032
 20
7.5414151185
 11
8.9133085692
 21
7.5444011619
  0
LINE
  5
610
100
AcDbEntity
  8
0
100
AcDbLine
 62
7
  6
CONTINUOUS
 10
8.9114691918
 20
7.6538838498
 11
8.9116204289
 21
7.6511403132
  0
LINE
  5
611
100
AcDbEntity
  8
0
100
AcDbLine
 62
7
  6
CONTINUOUS
 10
8.9254259066
 20
7.5422535428
 11
8.9252696431
 21
7.5451588796
  0
LINE
  5
612
100
AcDbEntity
  8
0
100
AcDbLine
 62
7
  6
CONTINUOUS
 10
8.9216475145
 20
7.6507754101
 11
8.9214606437
 21
7.65424547
  0
LINE
  5
613
100
AcDbEntity
  8
0
100
AcDbLine
 62
7
  6
CONTINUOUS
 10
8.9032338792
 20
7.5457216933
 11
8.9034279207
 21
7.542012887
  0
LINE
  5
614
100
AcDbEntity
  8
0
100
AcDbLine
 62
7
  6
CONTINUOUS
 10
8.9152136539
 20
7.5461394552
 11
8.9154114877
 21
7.5423051044
  0
LINE
  5
615
100
AcDbEntity
  8
0
100
AcDbLine
 62
7
  6
CONTINUOUS
 10
8.8995731785
 20
7.6520351502
 11
8.8997352121
 21
7.6488305939
  0
LINE
  5
616
100
AcDbEntity
  8
0
100
AcDbLine
 62
7
  6
CONTINUOUS
 10
8.9097606632
 20
7.6484296307
 11
8.9095859423
 21
7.6519760105
  0
LINE
  5
617
100
AcDbEntity
  8
0
100
AcDbLine
 62
7
  6
CONTINUOUS
 10
8.9116204289
 20
7.6511403132
 11
8.9117775644
 21
7.6479301273
  0
LINE
  5
618
100
AcDbEntity
  8
0
100
AcDbLine
 62
7
  6
CONTINUOUS
 10
8.9133085692
 20
7.5444011619
 11
8.9131341663
 21
7.5479669853
  0
LINE
  5
619
100
AcDbEntity
  8
0
100
AcDbLine
 62
7
  6
CONTINUOUS
 10
8.9252696431
 20
7.5451588796
 11
8.925107571
 21
7.5485488391
  0
LINE
  5
61A
100
AcDbEntity
  8
0
100
AcDbLine
 62
7
  6
CONTINUOUS
 10
8.9218404726
 20
7.6466685132
 11
8.9216475145
 21
7.6507754101
  0
LINE
  5
61B
100
AcDbEntity
  8
0
100
AcDbLine
 62
7
  6
CONTINUOUS
 10
8.9030336427
 20
7.5501032973
 11
8.9032338792
 21
7.5457216933
  0
LINE
  5
61C
100
AcDbEntity
  8
0
100
AcDbLine
 62
7
  6
CONTINUOUS
 10
8.8997352121
 20
7.6488305939
 11
8.8999035447
 21
7.6451082368
  0
LINE
  5
61D
100
AcDbEntity
  8
0
100
AcDbLine
 62
7
  6
CONTINUOUS
 10
8.9150098042
 20
7.5506608671
 11
8.9152136539
 21
7.5461394552
  0
LINE
  5
61E
100
AcDbEntity
  8
0
100
AcDbLine
 62
7
  6
CONTINUOUS
 10
8.9117775644
 20
7.6479301273
 11
8.9120239986
 21
7.64221638
  0
LINE
  5
61F
100
AcDbEntity
  8
0
100
AcDbLine
 62
7
  6
CONTINUOUS
 10
8.9100312467
 20
7.6421243051
 11
8.9097606632
 21
7.6484296307
  0
LINE
  5
620
100
AcDbEntity
  8
0
100
AcDbLine
 62
7
  6
CONTINUOUS
 10
8.9131341663
 20
7.5479669853
 11
8.9128607347
 21
7.5543912308
  0
LINE
  5
621
100
AcDbEntity
  8
0
100
AcDbLine
 62
7
  6
CONTINUOUS
 10
8.925107571
 20
7.5485488391
 11
8.9248542289
 21
7.5545552532
  0
LINE
  5
622
100
AcDbEntity
  8
0
100
AcDbLine
 62
7
  6
CONTINUOUS
 10
8.9221422693
 20
7.6392753855
 11
8.9218404726
 21
7.6466685132
  0
LINE
  5
623
100
AcDbEntity
  8
0
100
AcDbLine
 62
7
  6
CONTINUOUS
 10
8.8999035447
 20
7.6451082368
 11
8.9001667566
 21
7.6385588498
  0
LINE
  5
624
100
AcDbEntity
  8
0
100
AcDbLine
 62
7
  6
CONTINUOUS
 10
8.9027214787
 20
7.5579526111
 11
8.9030336427
 21
7.5501032973
  0
LINE
  5
625
100
AcDbEntity
  8
0
100
AcDbLine
 62
7
  6
CONTINUOUS
 10
8.9146938852
 20
7.5587002439
 11
8.9150098042
 21
7.5506608671
  0
LINE
  5
626
100
AcDbEntity
  8
0
100
AcDbLine
 62
7
  6
CONTINUOUS
 10
8.9128607347
 20
7.5543912308
 11
8.912576393
 21
7.5620210463
  0
LINE
  5
627
100
AcDbEntity
  8
0
100
AcDbLine
 62
7
  6
CONTINUOUS
 10
8.9120239986
 20
7.64221638
 11
8.9123711635
 21
7.6329273716
  0
LINE
  5
628
100
AcDbEntity
  8
0
100
AcDbLine
 62
7
  6
CONTINUOUS
 10
8.9104122147
 20
7.6317870108
 11
8.9100312467
 21
7.6421243051
  0
LINE
  5
629
100
AcDbEntity
  8
0
100
AcDbLine
 62
7
  6
CONTINUOUS
 10
8.9248542289
 20
7.5545552532
 11
8.9244983531
 21
7.5642623134
  0
LINE
  5
62A
100
AcDbEntity
  8
0
100
AcDbLine
 62
7
  6
CONTINUOUS
 10
8.9001667566
 20
7.6385588498
 11
8.9005355382
 21
7.62810284
  0
LINE
  5
62B
100
AcDbEntity
  8
0
100
AcDbLine
 62
7
  6
CONTINUOUS
 10
8.9225653672
 20
7.6272302408
 11
8.9221422693
 21
7.6392753855
  0
LINE
  5
62C
100
AcDbEntity
  8
0
100
AcDbLine
 62
7
  6
CONTINUOUS
 10
8.902289037
 20
7.5705189045
 11
8.9027214787
 21
7.5579526111
  0
LINE
  5
62D
100
AcDbEntity
  8
0
100
AcDbLine
 62
7
  6
CONTINUOUS
 10
8.912576393
 20
7.5620210463
 11
8.9121840439
 21
7.5738207536
  0
LINE
  5
62E
100
AcDbEntity
  8
0
100
AcDbLine
 62
7
  6
CONTINUOUS
 10
8.9123711635
 20
7.6329273716
 11
8.9127378477
 21
7.6218594894
  0
LINE
  5
62F
100
AcDbEntity
  8
0
100
AcDbLine
 62
7
  6
CONTINUOUS
 10
8.9141551483
 20
7.5747225031
 11
8.9146938852
 21
7.5587002439
  0
LINE
  5
630
100
AcDbEntity
  8
0
100
AcDbLine
 62
7
  6
CONTINUOUS
 10
8.9244983531
 20
7.5642623134
 11
8.9241228394
 21
7.5757664747
  0
LINE
  5
631
100
AcDbEntity
  8
0
100
AcDbLine
 62
7
  6
CONTINUOUS
 10
8.9005355382
 20
7.62810284
 11
8.9010213821
 21
7.6126681558
  0
LINE
  5
632
100
AcDbEntity
  8
0
100
AcDbLine
 62
7
  6
CONTINUOUS
 10
8.9112466765
 20
7.6051152401
 11
8.9104122147
 21
7.6317870108
  0
LWPOLYLINE
  5
633
100
AcDbEntity
  8
0
100
AcDbPolyline
 62
7
  6
CONTINUOUS
 90
4
 70
0
 10
8.9010213821
 20
7.6126681558
 10
8.9014288278
 20
7.5989365833
 10
8.9015332999
 20
7.5953813476
 10
8.902289037
 20
7.5705189045
  0
LINE
  5
634
100
AcDbEntity
  8
0
100
AcDbLine
 62
7
  6
CONTINUOUS
 10
8.9121840439
 20
7.5738207536
 11
8.9112466765
 21
7.6051152401
  0
LWPOLYLINE
  5
635
100
AcDbEntity
  8
0
100
AcDbPolyline
 62
7
  6
CONTINUOUS
 90
4
 70
0
 10
8.9127378477
 20
7.6218594894
 10
8.913421962
 20
7.5991701926
 10
8.9135238302
 20
7.5957034022
 10
8.9141551483
 20
7.5747225031
  0
LWPOLYLINE
  5
636
100
AcDbEntity
  8
0
100
AcDbPolyline
 62
7
  6
CONTINUOUS
 90
4
 70
0
 10
8.9241228394
 20
7.5757664747
 10
8.9235250003
 20
7.5956572385
 10
8.9234215445
 20
7.5991779382
 10
8.9225653672
 20
7.6272302408
  0
LINE
  5
637
100
AcDbEntity
  8
0
100
AcDbLine
 62
7
  6
CONTINUOUS
 10
8.8951388931
 20
3.328363448
 11
8.8951388931
 21
3.5645839204
  0
LINE
  5
638
100
AcDbEntity
  8
0
100
AcDbLine
 62
7
  6
CONTINUOUS
 10
8.8951388931
 20
7.479363448
 11
8.8951388931
 21
7.7155839204
  0
LINE
  5
639
100
AcDbEntity
  8
0
100
AcDbLine
 62
7
  6
CONTINUOUS
 10
8.8990759009
 20
7.6289697472
 11
8.8990759009
 21
7.5659776212
  0
LINE
  5
63A
100
AcDbEntity
  8
0
100
AcDbLine
 62
7
  6
CONTINUOUS
 10
8.8990759009
 20
3.4779697472
 11
8.8990759009
 21
3.4149776212
  0
LINE
  5
63B
100
AcDbEntity
  8
0
100
AcDbLine
 62
7
  6
CONTINUOUS
 10
8.928138117
 20
3.4052897905
 11
8.9284829861
 21
3.4149776212
  0
LINE
  5
63C
100
AcDbEntity
  8
0
100
AcDbLine
 62
7
  6
CONTINUOUS
 10
8.9278583153
 20
3.3984096375
 11
8.928138117
 21
3.4052897905
  0
LWPOLYLINE
  5
63D
100
AcDbEntity
  8
0
100
AcDbPolyline
 62
7
  6
CONTINUOUS
 90
3
 70
0
 10
8.9275890515
 20
3.3927577877
 10
8.9276776834
 20
3.394505814
 10
8.9278583153
 20
3.3984096375
  0
LWPOLYLINE
  5
63E
100
AcDbEntity
  8
0
100
AcDbPolyline
 62
7
  6
CONTINUOUS
 90
17
 70
0
 10
8.9094146025
 20
7.6550193247
 10
8.9093299605
 20
7.6563580482
 10
8.9092459835
 20
7.6575762309
 10
8.9091625845
 20
7.6586761549
 10
8.9090795415
 20
7.6596616415
 10
8.9089963909
 20
7.6605384579
 10
8.9089122681
 20
7.6613147939
 10
8.9088254664
 20
7.6620031536
 10
8.9087323402
 20
7.6626227237
 10
8.9086256624
 20
7.6631991796
 10
8.9084869992
 20
7.6637812305
 10
8.9082646508
 20
7.6644606253
 10
8.9078408587
 20
7.6653306971
 10
8.9071061606
 20
7.6662888023
 10
8.9059421841
 20
7.6671863415
 10
8.904425637
 20
7.6677437292
 10
8.9034613532
 20
7.6678368186
  0
LWPOLYLINE
  5
63F
100
AcDbEntity
  8
0
100
AcDbPolyline
 62
7
  6
CONTINUOUS
 90
17
 70
0
 10
8.9214606437
 20
7.65424547
 10
8.9213692687
 20
7.6557505616
 10
8.9212790761
 20
7.6571095521
 10
8.9211898285
 20
7.6583287828
 10
8.9211011499
 20
7.6594154075
 10
8.9210124168
 20
7.6603777712
 10
8.9209229751
 20
7.6612222985
 10
8.9208319693
 20
7.6619557426
 10
8.9207366529
 20
7.662596639
 10
8.9206296261
 20
7.6631796942
 10
8.9204923839
 20
7.6637608244
 10
8.9202734117
 20
7.6644371927
 10
8.9198530846
 20
7.6653095983
 10
8.9191201566
 20
7.6662739795
 10
8.9179565883
 20
7.6671781604
 10
8.9164337313
 20
7.6677423797
 10
8.9154604274
 20
7.6678372178
  0
LINE
  5
640
100
AcDbEntity
  8
0
100
AcDbLine
 62
7
  6
CONTINUOUS
 10
9.1251388931
 20
3.3244736842
 11
9.1251388931
 21
3.5684736842
  0
LINE
  5
641
100
AcDbEntity
  8
0
100
AcDbLine
 62
7
  6
CONTINUOUS
 10
9.1251388931
 20
7.4754736842
 11
9.1251388931
 21
7.7194736842
  0
LWPOLYLINE
  5
642
100
AcDbEntity
  8
0
100
AcDbPolyline
 62
7
  6
CONTINUOUS
 90
12
 70
0
 10
8.8988355882
 20
7.6611810819
 10
8.8988481095
 20
7.661119029
 10
8.8988802753
 20
7.6609324228
 10
8.8989232556
 20
7.6606400158
 10
8.8989729766
 20
7.6602503279
 10
8.8990272397
 20
7.6597677704
 10
8.8990848526
 20
7.6591936251
 10
8.8991454484
 20
7.6585239473
 10
8.8992089731
 20
7.6577520405
 10
8.8992755403
 20
7.6568687184
 10
8.899345364
 20
7.6558624853
 10
8.8994185941
 20
7.6547216594
  0
LWPOLYLINE
  5
643
100
AcDbEntity
  8
0
100
AcDbPolyline
 62
7
  6
CONTINUOUS
 90
12
 70
0
 10
8.9140855089
 20
7.5344961219
 10
8.9140752066
 20
7.5345472554
 10
8.9140437113
 20
7.5347285117
 10
8.9140008311
 20
7.5350187512
 10
8.9139512562
 20
7.5354058242
 10
8.9138972741
 20
7.5358840192
 10
8.9138390495
 20
7.5364620255
 10
8.9137759354
 20
7.5371584051
 10
8.9137069701
 20
7.5379996916
 10
8.9136325076
 20
7.5389996819
 10
8.9135551352
 20
7.5401371749
 10
8.9134752032
 20
7.5414151185
  0
LWPOLYLINE
  5
644
100
AcDbEntity
  8
0
100
AcDbPolyline
 62
7
  6
CONTINUOUS
 90
12
 70
0
 10
8.9108355771
 20
7.6611806698
 10
8.9108537016
 20
7.6610889266
 10
8.9108918127
 20
7.6608585465
 10
8.9109406951
 20
7.6605096469
 10
8.9109962015
 20
7.6600510469
 10
8.9110562549
 20
7.6594861781
 10
8.9111196585
 20
7.6588166753
 10
8.9111856935
 20
7.6580428085
 10
8.9112539131
 20
7.6571639179
 10
8.911324025
 20
7.6561788217
 10
8.9113958263
 20
7.6550860972
 10
8.9114691918
 20
7.6538838498
  0
LWPOLYLINE
  5
645
100
AcDbEntity
  8
0
100
AcDbPolyline
 62
7
  6
CONTINUOUS
 90
12
 70
0
 10
8.9260862245
 20
7.5344937945
 10
8.9260643538
 20
7.5346064217
 10
8.9260236697
 20
7.5348585005
 10
8.9259724764
 20
7.5352333267
 10
8.9259147082
 20
7.5357228739
 10
8.9258524541
 20
7.5363230995
 10
8.9257868737
 20
7.5370326609
 10
8.9257186578
 20
7.5378516819
 10
8.9256482382
 20
7.5387811715
 10
8.9255758656
 20
7.5398231342
 10
8.9255017149
 20
7.5409798009
 10
8.9254259066
 20
7.5422535428
  0
LWPOLYLINE
  5
646
100
AcDbEntity
  8
0
100
AcDbPolyline
 62
7
  6
CONTINUOUS
 90
12
 70
0
 10
8.9542375324
 20
7.6109432462
 10
8.9581845016
 20
7.5893922708
 10
8.9601760625
 20
7.5786842317
 10
8.9621883283
 20
7.5683856957
 10
8.9642272607
 20
7.558781986
 10
8.9662841295
 20
7.5502145966
 10
8.9684506606
 20
7.5426638384
 10
8.9708587186
 20
7.536255306
 10
8.9731417081
 20
7.5321341833
 10
8.9756083006
 20
7.5294854202
 10
8.9783704794
 20
7.5280879372
 10
8.9802338629
 20
7.527839543
  0
LINE
  5
647
100
AcDbEntity
  8
0
100
AcDbLine
 62
7
  6
CONTINUOUS
 10
9.4051388931
 20
3.3244736842
 11
9.4051388931
 21
7.7194736842
  0
LWPOLYLINE
  5
648
100
AcDbEntity
  8
0
100
AcDbPolyline
 62
7
  6
CONTINUOUS
 90
7
 70
0
 10
9.0620970871
 20
3.4149776212
 10
9.0619489652
 20
3.4142496208
 10
9.0600208966
 20
3.4056822044
 10
9.0581526097
 20
3.3984687657
 10
9.0564038674
 20
3.3928803081
 10
9.0549298545
 20
3.3891831056
 10
9.0545929124
 20
3.3885618666
  0
LWPOLYLINE
  5
649
100
AcDbEntity
  8
0
100
AcDbPolyline
 62
7
  6
CONTINUOUS
 90
7
 70
0
 10
8.9877275581
 20
3.4149776212
 10
8.9874800097
 20
3.4137662686
 10
8.9855586033
 20
3.4052803758
 10
8.9837290748
 20
3.3982659236
 10
8.9820456625
 20
3.392900642
 10
8.9805856878
 20
3.3892304292
 10
8.9802303264
 20
3.3885703016
  0
LWPOLYLINE
  5
64A
100
AcDbEntity
  8
0
100
AcDbPolyline
 62
7
  6
CONTINUOUS
 90
7
 70
0
 10
9.0097792
 20
3.4779697472
 10
9.0102509006
 20
3.4802686857
 10
9.0121569597
 20
3.4886492151
 10
9.0140007217
 20
3.4956749997
 10
9.0157306194
 20
3.5011186384
 10
9.0172198052
 20
3.5047668865
 10
9.017411119
 20
3.5051071062
  0
LWPOLYLINE
  5
64B
100
AcDbEntity
  8
0
100
AcDbPolyline
 62
7
  6
CONTINUOUS
 90
6
 70
0
 10
8.9354009506
 20
3.4779697472
 10
8.9373013153
 20
3.4865946712
 10
8.9392227132
 20
3.4942068063
 10
8.9410419769
 20
3.500194892
 10
8.9426582648
 20
3.5043480196
 10
8.9430566687
 20
3.5050878402
  0
LWPOLYLINE
  5
64C
100
AcDbEntity
  8
0
100
AcDbPolyline
 62
7
  6
CONTINUOUS
 90
12
 70
0
 10
9.0286613595
 20
7.6106317271
 10
9.0326143276
 20
7.5890426229
 10
9.0346095973
 20
7.5783268419
 10
9.0366277367
 20
7.5680223947
 10
9.0386659196
 20
7.5584569884
 10
9.0407298767
 20
7.5499081112
 10
9.042912909
 20
7.5423646072
 10
9.0452285035
 20
7.5362477503
 10
9.0474875207
 20
7.5321609906
 10
9.0499725381
 20
7.5294877428
 10
9.0527408952
 20
7.5280875293
 10
9.0546038531
 20
7.5278391528
  0
LWPOLYLINE
  5
64D
100
AcDbEntity
  8
0
100
AcDbPolyline
 62
7
  6
CONTINUOUS
 90
12
 70
0
 10
8.9690808871
 20
7.5845657697
 10
8.9651442398
 20
7.6060577464
 10
8.9631657519
 20
7.6167045333
 10
8.9611735587
 20
7.6269211554
 10
8.959157694
 20
7.6364576396
 10
8.9571128574
 20
7.6450357365
 10
8.9549875493
 20
7.6525398585
 10
8.9525938265
 20
7.6590473299
 10
8.9500334161
 20
7.6636988072
 10
8.9475424889
 20
7.6662900441
 10
8.9447876937
 20
7.667619423
 10
8.9430507926
 20
7.6678351841
  0
LWPOLYLINE
  5
64E
100
AcDbEntity
  8
0
100
AcDbPolyline
 62
7
  6
CONTINUOUS
 90
11
 70
0
 10
9.1029493284
 20
7.611048493
 10
9.1069113893
 20
7.5894170537
 10
9.1089153342
 20
7.5786425982
 10
9.1109388216
 20
7.5682917301
 10
9.1129791546
 20
7.5586904301
 10
9.1150560007
 20
7.5500594001
 10
9.1172692095
 20
7.5423944824
 10
9.1195487253
 20
7.5363474107
 10
9.1218329204
 20
7.5321914554
 10
9.1243227042
 20
7.5294990603
 10
9.1251388931
 20
7.5290841878
  0
LINE
  5
64F
100
AcDbEntity
  8
0
100
AcDbLine
 62
7
  6
CONTINUOUS
 10
9.5101388931
 20
3.3264736842
 11
9.5101388931
 21
7.7174736842
  0
LINE
  5
650
100
AcDbEntity
  8
0
100
AcDbLine
 62
7
  6
CONTINUOUS
 10
9.5191388931
 20
3.3564736842
 11
9.5191388931
 21
3.5364736842
  0
LINE
  5
651
100
AcDbEntity
  8
0
100
AcDbLine
 62
7
  6
CONTINUOUS
 10
9.5191388931
 20
7.5074736842
 11
9.5191388931
 21
7.6874736842
  0
LINE
  5
652
100
AcDbEntity
  8
0
100
AcDbLine
 62
7
  6
CONTINUOUS
 10
9.5250601529
 20
3.4267886448
 11
9.5250601529
 21
3.4661587236
  0
LINE
  5
653
100
AcDbEntity
  8
0
100
AcDbLine
 62
7
  6
CONTINUOUS
 10
9.5250601529
 20
7.5777886448
 11
9.5250601529
 21
7.6171587236
  0
LWPOLYLINE
  5
654
100
AcDbEntity
  8
0
100
AcDbPolyline
 62
7
  6
CONTINUOUS
 90
7
 70
0
 10
9.0841422519
 20
3.4779697472
 10
9.0845091165
 20
3.479766814
 10
9.0864281431
 20
3.4882586284
 10
9.0882882539
 20
3.4954015077
 10
9.0900372168
 20
3.5009528989
 10
9.0914960256
 20
3.5045776872
 10
9.0917859014
 20
3.505106992
  0
LWPOLYLINE
  5
655
100
AcDbEntity
  8
0
100
AcDbPolyline
 62
7
  6
CONTINUOUS
 90
12
 70
0
 10
9.1177568315
 20
7.5848632828
 10
9.1137837378
 20
7.6065590769
 10
9.111776515
 20
7.6173407064
 10
9.1097481814
 20
7.6276951695
 10
9.107701673
 20
7.6372938706
 10
9.1056279761
 20
7.6458687579
 10
9.1034135024
 20
7.6534878636
 10
9.1010978642
 20
7.6595552815
 10
9.0988199504
 20
7.6636215754
 10
9.0963195661
 20
7.6662561947
 10
9.0935365988
 20
7.6676155623
 10
9.0917841012
 20
7.667835342
  0
LWPOLYLINE
  5
656
100
AcDbEntity
  8
0
100
AcDbPolyline
 62
7
  6
CONTINUOUS
 90
5
 70
0
 10
9.1251388931
 20
7.5505524596
 10
9.1236172868
 20
7.5563895057
 10
9.1216904442
 20
7.5649134788
 10
9.1197317109
 20
7.5745110417
 10
9.1177568315
 20
7.5848632828
  0
LWPOLYLINE
  5
657
100
AcDbEntity
  8
0
100
AcDbPolyline
 62
7
  6
CONTINUOUS
 90
9
 70
0
 10
8.9815371794
 20
7.5374630963
 10
8.9811274706
 20
7.537967846
 10
8.980005592
 20
7.5399717163
 10
8.9784785162
 20
7.543749988
 10
8.9767387551
 20
7.5492747372
 10
8.9748813911
 20
7.5564080904
 10
8.9729660149
 20
7.5648806742
 10
8.9710313892
 20
7.5743528034
 10
8.9690808871
 20
7.5845657697
  0
LWPOLYLINE
  5
658
100
AcDbEntity
  8
0
100
AcDbPolyline
 62
7
  6
CONTINUOUS
 90
21
 70
0
 10
9.0558972128
 20
7.5374681094
 10
9.0554910211
 20
7.5379697767
 10
9.0544293298
 20
7.5398518518
 10
9.0530023437
 20
7.5433082309
 10
9.0512922547
 20
7.5486223854
 10
9.0494623244
 20
7.5555218299
 10
9.0475656565
 20
7.5637934251
 10
9.0456358937
 20
7.5731421009
 10
9.0436933425
 20
7.5832468388
 10
9.0417377073
 20
7.5938415447
 10
9.0397713056
 20
7.604629806
 10
9.0377957367
 20
7.615304675
 10
9.0358068628
 20
7.6255888937
 10
9.0337923703
 20
7.6352411525
 10
9.0317370819
 20
7.6440213052
 10
9.0296275914
 20
7.6516582749
 10
9.0273118993
 20
7.6582243718
 10
9.0247135364
 20
7.6632467502
 10
9.0219166124
 20
7.6662854369
 10
9.0191538
 20
7.667619078
 10
9.0174198321
 20
7.6678338218
  0
LWPOLYLINE
  5
659
100
AcDbEntity
  8
0
100
AcDbPolyline
 62
7
  6
CONTINUOUS
 90
9
 70
0
 10
8.9417503536
 20
7.6582096575
 10
8.942256001
 20
7.657567096
 10
8.9433858851
 20
7.6554796036
 10
8.9448770376
 20
7.6517327039
 10
8.9465853896
 20
7.6462698641
 10
8.9484216064
 20
7.6392033592
 10
8.9503301648
 20
7.6307529166
 10
8.9522765058
 20
7.6212190981
 10
8.9542375324
 20
7.6109432462
  0
LWPOLYLINE
  5
65A
100
AcDbEntity
  8
0
100
AcDbPolyline
 62
7
  6
CONTINUOUS
 90
9
 70
0
 10
9.0161119613
 20
7.6582141942
 10
9.0166324994
 20
7.657549504
 10
9.0177659068
 20
7.6554498595
 10
9.0192325686
 20
7.6517607318
 10
9.0209501111
 20
7.6462740916
 10
9.0228056211
 20
7.6391265369
 10
9.0247313894
 20
7.6305870982
 10
9.0266918834
 20
7.6209653852
 10
9.0286613595
 20
7.6106317271
  0
LWPOLYLINE
  5
65B
100
AcDbEntity
  8
0
100
AcDbPolyline
 62
7
  6
CONTINUOUS
 90
9
 70
0
 10
9.0904820729
 20
7.658209474
 10
9.0909375998
 20
7.6576407735
 10
9.0920323443
 20
7.6556614082
 10
9.0934891536
 20
7.6520690206
 10
9.0952426946
 20
7.6465306468
 10
9.0971065356
 20
7.6393956184
 10
9.0990289933
 20
7.6309055157
 10
9.100983098
 20
7.6213452301
 10
9.1029493284
 20
7.611048493
  0
LINE
  5
65C
100
AcDbEntity
  8
0
100
AcDbLine
 62
7
  6
CONTINUOUS
 10
9.5250601529
 20
3.4267886454
 11
9.5191388931
 21
3.4208673857
  0
LINE
  5
65D
100
AcDbEntity
  8
0
100
AcDbLine
 62
7
  6
CONTINUOUS
 10
9.0545741535
 20
7.5278431124
 11
9.0545856272
 21
7.5278368539
  0
LINE
  5
65E
100
AcDbEntity
  8
0
100
AcDbLine
 62
7
  6
CONTINUOUS
 10
9.5250601529
 20
7.6171587231
 11
9.5191388931
 21
7.6230799828
  0
LINE
  5
65F
100
AcDbEntity
  8
0
100
AcDbLine
 62
7
  6
CONTINUOUS
 10
9.0174364017
 20
7.6678360418
 11
9.0174523351
 21
7.6678297964
  0
LINE
  5
660
100
AcDbEntity
  8
0
100
AcDbLine
 62
7
  6
CONTINUOUS
 10
9.0918017157
 20
7.6678376709
 11
9.0918138847
 21
7.6678316069
  0
LWPOLYLINE
  5
661
100
AcDbEntity
  8
0
100
AcDbPolyline
 62
7
  6
CONTINUOUS
 90
9
 70
0
 10
9.0174364017
 20
7.6678360418
 10
9.0155457035
 20
7.6675827222
 10
9.0127684032
 20
7.6661705989
 10
9.0102769641
 20
7.6634721837
 10
9.0080341102
 20
7.659400986
 10
9.0056846322
 20
7.6531683485
 10
9.0035109146
 20
7.6456279607
 10
9.001446657
 20
7.6370542652
 10
8.9997273414
 20
7.6289697472
  0
LWPOLYLINE
  5
662
100
AcDbEntity
  8
0
100
AcDbPolyline
 62
7
  6
CONTINUOUS
 90
9
 70
0
 10
9.0918017157
 20
7.6678376709
 10
9.0899393011
 20
7.6675914339
 10
9.0871778593
 20
7.6662029959
 10
9.0847035315
 20
7.6635592468
 10
9.0824428598
 20
7.6594959236
 10
9.0801531653
 20
7.6534845452
 10
9.0779489461
 20
7.6459037302
 10
9.0758855207
 20
7.6373800308
 10
9.0740900284
 20
7.6289697472
  0
LWPOLYLINE
  5
663
100
AcDbEntity
  8
0
100
AcDbPolyline
 62
7
  6
CONTINUOUS
 90
9
 70
0
 10
8.9430677433
 20
7.6678373778
 10
8.9412436078
 20
7.6676013032
 10
8.9385370992
 20
7.6662717018
 10
8.9361108145
 20
7.6637519233
 10
8.9337872381
 20
7.6596620977
 10
8.9313694941
 20
7.6533242177
 10
8.929232863
 20
7.6459623621
 10
8.9272137112
 20
7.6376433108
 10
8.9253556342
 20
7.6289697472
  0
LINE
  5
664
100
AcDbEntity
  8
0
100
AcDbLine
 62
7
  6
CONTINUOUS
 10
8.8227939045
 20
7.5836941567
 11
8.8153837351
 21
7.5827571771
  0
LWPOLYLINE
  5
665
100
AcDbEntity
  8
0
100
AcDbPolyline
 62
7
  6
CONTINUOUS
 90
9
 70
0
 10
9.0545856272
 20
7.5278368539
 10
9.0563686126
 20
7.5280617465
 10
9.0591553072
 20
7.529430599
 10
9.061666464
 20
7.5320942826
 10
9.0639621609
 20
7.5362212465
 10
9.0662526298
 20
7.5422537628
 10
9.0684705682
 20
7.5499015497
 10
9.0705496439
 20
7.5585171408
 10
9.0721380181
 20
7.5659776212
  0
LWPOLYLINE
  5
666
100
AcDbEntity
  8
0
100
AcDbPolyline
 62
7
  6
CONTINUOUS
 90
9
 70
0
 10
8.9802160749
 20
7.5278373382
 10
8.9819692954
 20
7.5280546529
 10
8.984725477
 20
7.5293830599
 10
8.9873229753
 20
7.5321245589
 10
8.989952739
 20
7.5370320593
 10
8.9922952218
 20
7.54353191
 10
8.9944079805
 20
7.5510755259
 10
8.9964608045
 20
7.559757992
 10
8.9977680513
 20
7.5659776212
  0
LWPOLYLINE
  5
667
100
AcDbEntity
  8
0
100
AcDbPolyline
 62
7
  6
CONTINUOUS
 90
17
 70
0
 10
8.9094609481
 20
7.5278373989
 10
8.9104365057
 20
7.5279326717
 10
8.9119611512
 20
7.5284986967
 10
8.9131251861
 20
7.5294051813
 10
8.9138585384
 20
7.5303730479
 10
8.9142775855
 20
7.5312464935
 10
8.9144985855
 20
7.5319344805
 10
8.9146410407
 20
7.5325488028
 10
8.9147554641
 20
7.5331934887
 10
8.9148579521
 20
7.5339155267
 10
8.9149541969
 20
7.5347331341
 10
8.9150480437
 20
7.5356677778
 10
8.9151413993
 20
7.5367353949
 10
8.9152352358
 20
7.5379482209
 10
8.9153300794
 20
7.5393161875
 10
8.91542623
 20
7.5408466216
 10
8.9154610575
 20
7.5414524838
  0
LWPOLYLINE
  5
668
100
AcDbEntity
  8
0
100
AcDbPolyline
 62
7
  6
CONTINUOUS
 90
19
 70
0
 10
8.921461186
 20
7.5278369986
 10
8.9224098264
 20
7.5279270699
 10
8.923915201
 20
7.5284724318
 10
8.9250803794
 20
7.5293585385
 10
8.9258213087
 20
7.5303104203
 10
8.9262536508
 20
7.5311843392
 10
8.9264808065
 20
7.5318691682
 10
8.9266208853
 20
7.5324510461
 10
8.926727934
 20
7.5330244106
 10
8.9268212068
 20
7.533640072
 10
8.9269082003
 20
7.5343249861
 10
8.926992651
 20
7.5350991371
 10
8.927076306
 20
7.535975843
 10
8.9271600359
 20
7.536964676
 10
8.927244266
 20
7.5380724546
 10
8.9273291894
 20
7.5393031733
 10
8.927414893
 20
7.540659165
 10
8.9275014787
 20
7.5421430681
 10
8.9276776834
 20
7.545505814
  0
LWPOLYLINE
  5
669
100
AcDbEntity
  8
0
100
AcDbPolyline
 62
7
  6
CONTINUOUS
 90
18
 70
0
 10
8.9154609059
 20
7.6678372179
 10
8.9145519839
 20
7.6677545526
 10
8.9130166944
 20
7.6672071656
 10
8.9118334776
 20
7.666307173
 10
8.9110818333
 20
7.6653321083
 10
8.9106512926
 20
7.6644450786
 10
8.9104283247
 20
7.6637565064
 10
8.9102889537
 20
7.6631627894
 10
8.9101812094
 20
7.6625703138
 10
8.9100869756
 20
7.6619315142
 10
8.9099986676
 20
7.661217592
 10
8.9099127554
 20
7.6604090203
 10
8.9098275857
 20
7.6594927219
 10
8.9097423613
 20
7.6584598498
 10
8.9096566808
 20
7.6573048931
 10
8.9095703537
 20
7.6560244075
 10
8.9094833168
 20
7.6546165921
 10
8.9094609771
 20
7.6542255819
  0
LINE
  5
66A
100
AcDbEntity
  8
0
100
AcDbLine
 62
7
  6
CONTINUOUS
 10
8.9034615797
 20
7.6678368192
 11
8.9034094655
 21
7.6678365448
  0
LINE
  5
66B
100
AcDbEntity
  8
0
100
AcDbLine
 62
7
  6
CONTINUOUS
 10
9.1251388931
 20
7.4754736842
 11
9.4051388931
 21
7.4754736842
  0
LINE
  5
66C
100
AcDbEntity
  8
0
100
AcDbLine
 62
7
  6
CONTINUOUS
 10
9.5101388931
 20
7.5074736842
 11
9.5191388931
 21
7.5074736842
  0
LINE
  5
66D
100
AcDbEntity
  8
0
100
AcDbLine
 62
7
  6
CONTINUOUS
 10
8.9802160749
 20
7.5278373382
 11
8.9802503926
 21
7.5278373396
  0
LINE
  5
66E
100
AcDbEntity
  8
0
100
AcDbLine
 62
7
  6
CONTINUOUS
 10
8.8990759009
 20
7.5659776212
 11
8.9024391421
 21
7.5659776212
  0
LINE
  5
66F
100
AcDbEntity
  8
0
100
AcDbLine
 62
7
  6
CONTINUOUS
 10
8.912440246
 20
7.5659776212
 11
8.9144391336
 21
7.5659776212
  0
LINE
  5
670
100
AcDbEntity
  8
0
100
AcDbLine
 62
7
  6
CONTINUOUS
 10
8.9244402089
 20
7.5659776212
 11
8.9626995788
 21
7.5659776212
  0
LINE
  5
671
100
AcDbEntity
  8
0
100
AcDbLine
 62
7
  6
CONTINUOUS
 10
8.97274197
 20
7.5659776212
 11
9.0370634341
 21
7.5659776212
  0
LINE
  5
672
100
AcDbEntity
  8
0
100
AcDbLine
 62
7
  6
CONTINUOUS
 10
9.0471147926
 20
7.5659776212
 11
9.1114305834
 21
7.5659776212
  0
LINE
  5
673
100
AcDbEntity
  8
0
100
AcDbLine
 62
7
  6
CONTINUOUS
 10
9.121473267
 20
7.5659776212
 11
9.1251388931
 21
7.5659776212
  0
LINE
  5
674
100
AcDbEntity
  8
0
100
AcDbLine
 62
7
  6
CONTINUOUS
 10
8.8990759009
 20
7.6289697472
 11
8.9005063194
 21
7.6289697472
  0
LINE
  5
675
100
AcDbEntity
  8
0
100
AcDbLine
 62
7
  6
CONTINUOUS
 10
8.9105076316
 20
7.6289697472
 11
8.9125063021
 21
7.6289697472
  0
LINE
  5
676
100
AcDbEntity
  8
0
100
AcDbLine
 62
7
  6
CONTINUOUS
 10
8.9225072909
 20
7.6289697472
 11
8.9506942011
 21
7.6289697472
  0
LINE
  5
677
100
AcDbEntity
  8
0
100
AcDbLine
 62
7
  6
CONTINUOUS
 10
8.9607405182
 20
7.6289697472
 11
9.0250609365
 21
7.6289697472
  0
LINE
  5
678
100
AcDbEntity
  8
0
100
AcDbLine
 62
7
  6
CONTINUOUS
 10
9.0351012555
 20
7.6289697472
 11
9.0994246608
 21
7.6289697472
  0
LINE
  5
679
100
AcDbEntity
  8
0
100
AcDbLine
 62
7
  6
CONTINUOUS
 10
9.1094764327
 20
7.6289697472
 11
9.1251388931
 21
7.6289697472
  0
LINE
  5
67A
100
AcDbEntity
  8
0
100
AcDbLine
 62
7
  6
CONTINUOUS
 10
9.0917655655
 20
7.6678376666
 11
9.0918017157
 21
7.6678376709
  0
LINE
  5
67B
100
AcDbEntity
  8
0
100
AcDbLine
 62
7
  6
CONTINUOUS
 10
9.5101388931
 20
7.6874736842
 11
9.5191388931
 21
7.6874736842
  0
LINE
  5
67C
100
AcDbEntity
  8
0
100
AcDbLine
 62
7
  6
CONTINUOUS
 10
9.5101388931
 20
7.7174736842
 11
9.4051388931
 21
7.7174736842
  0
LINE
  5
67D
100
AcDbEntity
  8
0
100
AcDbLine
 62
7
  6
CONTINUOUS
 10
9.1251388931
 20
7.7194736842
 11
9.4051388931
 21
7.7194736842
  0
LINE
  5
67E
100
AcDbEntity
  8
0
100
AcDbLine
 62
7
  6
CONTINUOUS
 10
9.0545856272
 20
7.5278368539
 11
9.0546211519
 21
7.5278368464
  0
LINE
  5
67F
100
AcDbEntity
  8
0
100
AcDbLine
 62
7
  6
CONTINUOUS
 10
8.9430331096
 20
7.6678373807
 11
8.9430677433
 21
7.6678373778
  0
LINE
  5
680
100
AcDbEntity
  8
0
100
AcDbLine
 62
7
  6
CONTINUOUS
 10
9.0174018837
 20
7.6678360446
 11
9.0174364017
 21
7.6678360418
  0
LINE
  5
681
100
AcDbEntity
  8
0
100
AcDbLine
 62
7
  6
CONTINUOUS
 10
9.0545742137
 20
7.5278369901
 11
9.0545856272
 21
7.5278368539
  0
LINE
  5
682
100
AcDbEntity
  8
0
100
AcDbLine
 62
7
  6
CONTINUOUS
 10
9.0918017157
 20
7.6678376709
 11
9.0918138321
 21
7.6678375251
  0
LINE
  5
683
100
AcDbEntity
  8
0
100
AcDbLine
 62
7
  6
CONTINUOUS
 10
9.0174364017
 20
7.6678360418
 11
9.0174522924
 21
7.6678358412
  0
LINE
  5
684
100
AcDbEntity
  8
0
100
AcDbLine
 62
7
  6
CONTINUOUS
 10
8.9430677433
 20
7.6678373778
 11
8.9430948
 21
7.6678369572
  0
LINE
  5
685
100
AcDbEntity
  8
0
100
AcDbLine
 62
7
  6
CONTINUOUS
 10
8.8153837351
 20
7.6121901913
 11
8.8227939045
 21
7.6112532118
  0
LINE
  5
686
100
AcDbEntity
  8
0
100
AcDbLine
 62
7
  6
CONTINUOUS
 10
8.9430677433
 20
7.6678373778
 11
8.9430948343
 21
7.6678297132
  0
CIRCLE
  5
687
100
AcDbEntity
  8
0
100
AcDbCircle
 62
7
  6
CONTINUOUS
 10
11.8647879778
 20
0.6418595933
 40
0.2171153234
  0
CIRCLE
  5
688
100
AcDbEntity
  8
0
100
AcDbCircle
 62
7
  6
CONTINUOUS
 10
11.8642255163
 20
0.6411685692
 40
0.1050049063
  0
CIRCLE
  5
689
100
AcDbEntity
  8
0
100
AcDbCircle
 62
2
  6
CONTINUOUS
 10
0.9659258599
 20
10.6561893149
 40
0.040272
  0
ARC
  5
68A
100
AcDbEntity
  8
0
100
AcDbCircle
 62
7
  6
CONTINUOUS
 10
4.4871695225
 20
4.4276174733
 40
1.9883530926
100
AcDbArc
 50
329.5553319134
 51
329.8007223922
  0
ARC
  5
68B
100
AcDbEntity
  8
0
100
AcDbCircle
 62
7
  6
CONTINUOUS
 10
5.2055060086
 20
1.7469934093
 40
1.9883530924
100
AcDbArc
 50
59.5553319134
 51
59.8007223922
  0
ARC
  5
68C
100
AcDbEntity
  8
0
100
AcDbCircle
 62
7
  6
CONTINUOUS
 10
5.2074516265
 20
5.1426273624
 40
1.9844993142
100
AcDbArc
 50
300.1990393407
 51
300.4449063537
  0
ARC
  5
68D
100
AcDbEntity
  8
0
100
AcDbCircle
 62
7
  6
CONTINUOUS
 10
4.4904961204
 20
2.4672755138
 40
1.9844993129
100
AcDbArc
 50
30.1990393406
 51
30.4449063538
  0
ARC
  5
68E
100
AcDbEntity
  8
0
100
AcDbCircle
 62
7
  6
CONTINUOUS
 10
6.1845259427
 20
4.5760006994
 40
1.1445003078
100
AcDbArc
 50
267.3828606291
 51
268.7862673671
  0
ARC
  5
68F
100
AcDbEntity
  8
0
100
AcDbCircle
 62
7
  6
CONTINUOUS
 10
5.057122783
 20
3.4443498293
 40
1.1445003072
100
AcDbArc
 50
357.3828606287
 51
358.7862673675
  0
ARC
  5
690
100
AcDbEntity
  8
0
100
AcDbCircle
 62
7
  6
CONTINUOUS
 10
5.0845105353
 20
3.4495134711
 40
1.1170993488
100
AcDbArc
 50
1.1965198914
 51
2.6343521124
  0
ARC
  5
691
100
AcDbEntity
  8
0
100
AcDbCircle
 62
7
  6
CONTINUOUS
 10
6.1836100102
 20
2.3443344358
 40
1.1170993349
100
AcDbArc
 50
91.1965198825
 51
92.6343521213
  0
ARC
  5
692
100
AcDbEntity
  8
0
100
AcDbCircle
 62
7
  6
CONTINUOUS
 10
4.487169522
 20
8.5786174736
 40
1.9883530931
100
AcDbArc
 50
329.5553319134
 51
329.8007223921
  0
ARC
  5
693
100
AcDbEntity
  8
0
100
AcDbCircle
 62
7
  6
CONTINUOUS
 10
5.2055060091
 20
5.8979934102
 40
1.9883530913
100
AcDbArc
 50
59.5553319133
 51
59.8007223922
  0
ARC
  5
694
100
AcDbEntity
  8
0
100
AcDbCircle
 62
7
  6
CONTINUOUS
 10
4.4904961207
 20
6.6182755139
 40
1.9844993126
100
AcDbArc
 50
30.1990393406
 51
30.4449063538
  0
ARC
  5
695
100
AcDbEntity
  8
0
100
AcDbCircle
 62
7
  6
CONTINUOUS
 10
5.2074516274
 20
9.2936273609
 40
1.9844993124
100
AcDbArc
 50
300.1990393406
 51
300.4449063538
  0
ARC
  5
696
100
AcDbEntity
  8
0
100
AcDbCircle
 62
7
  6
CONTINUOUS
 10
6.1845259427
 20
8.7270006994
 40
1.1445003078
100
AcDbArc
 50
267.3828606291
 51
268.7862673671
  0
ARC
  5
697
100
AcDbEntity
  8
0
100
AcDbCircle
 62
7
  6
CONTINUOUS
 10
5.057122783
 20
7.5953498293
 40
1.1445003072
100
AcDbArc
 50
357.3828606287
 51
358.7862673675
  0
ARC
  5
698
100
AcDbEntity
  8
0
100
AcDbCircle
 62
7
  6
CONTINUOUS
 10
5.0845105353
 20
7.6005134711
 40
1.1170993488
100
AcDbArc
 50
1.1965198914
 51
2.6343521124
  0
ARC
  5
699
100
AcDbEntity
  8
0
100
AcDbCircle
 62
7
  6
CONTINUOUS
 10
6.1836100102
 20
6.4953344358
 40
1.1170993349
100
AcDbArc
 50
91.1965198825
 51
92.6343521213
  0
ARC
  5
69A
100
AcDbEntity
  8
0
100
AcDbCircle
 62
7
  6
CONTINUOUS
 10
7.1677935862
 20
5.1459539584
 40
1.9883530916
100
AcDbArc
 50
239.5553319133
 51
239.8007223922
  0
ARC
  5
69B
100
AcDbEntity
  8
0
100
AcDbCircle
 62
7
  6
CONTINUOUS
 10
7.8861300714
 20
2.4653298959
 40
1.9883530911
100
AcDbArc
 50
149.5553319133
 51
149.8007223922
  0
ARC
  5
69C
100
AcDbEntity
  8
0
100
AcDbCircle
 62
7
  6
CONTINUOUS
 10
7.1658479684
 20
1.7503200064
 40
1.9844993137
100
AcDbArc
 50
120.1990393407
 51
120.4449063538
  0
ARC
  5
69D
100
AcDbEntity
  8
0
100
AcDbCircle
 62
7
  6
CONTINUOUS
 10
7.8828034734
 20
4.4256718539
 40
1.9844993114
100
AcDbArc
 50
210.1990393405
 51
210.4449063539
  0
ARC
  5
69E
100
AcDbEntity
  8
0
100
AcDbCircle
 62
7
  6
CONTINUOUS
 10
6.1887736525
 20
2.316946669
 40
1.1445003078
100
AcDbArc
 50
87.3828606291
 51
88.7862673671
  0
ARC
  5
69F
100
AcDbEntity
  8
0
100
AcDbCircle
 62
7
  6
CONTINUOUS
 10
7.3161768122
 20
3.4485975391
 40
1.1445003071
100
AcDbArc
 50
177.3828606287
 51
178.7862673675
  0
ARC
  5
6A0
100
AcDbEntity
  8
0
100
AcDbCircle
 62
7
  6
CONTINUOUS
 10
6.1896895844
 20
4.5486129478
 40
1.1170993501
100
AcDbArc
 50
271.1965198923
 51
272.6343521115
  0
ARC
  5
6A1
100
AcDbEntity
  8
0
100
AcDbCircle
 62
7
  6
CONTINUOUS
 10
7.2887890599
 20
3.4434338973
 40
1.1170993488
100
AcDbArc
 50
181.1965198914
 51
182.6343521124
  0
CIRCLE
  5
6A2
100
AcDbEntity
  8
0
100
AcDbCircle
 62
7
  6
CONTINUOUS
 10
6.1866497976
 20
3.4464736842
 40
0.122
  0
CIRCLE
  5
6A3
100
AcDbEntity
  8
0
100
AcDbCircle
 62
7
  6
CONTINUOUS
 10
6.1866497976
 20
3.4464736842
 40
0.1181102362
  0
CIRCLE
  5
6A4
100
AcDbEntity
  8
0
100
AcDbCircle
 62
7
  6
CONTINUOUS
 10
6.1866497976
 20
3.4464736842
 40
0.0891591371
  0
ARC
  5
6A5
100
AcDbEntity
  8
0
100
AcDbCircle
 62
7
  6
CONTINUOUS
 10
6.1866497976
 20
3.4464736842
 40
0.0561023622
100
AcDbArc
 50
75.7818758129
 51
104.2181241871
  0
ARC
  5
6A6
100
AcDbEntity
  8
0
100
AcDbCircle
 62
7
  6
CONTINUOUS
 10
6.1866497976
 20
3.4464736842
 40
0.0561023622
100
AcDbArc
 50
345.7818758129
 51
14.2181241871
  0
ARC
  5
6A7
100
AcDbEntity
  8
0
100
AcDbCircle
 62
7
  6
CONTINUOUS
 10
6.1866497976
 20
3.4464736842
 40
0.0561023622
100
AcDbArc
 50
165.7818758129
 51
194.2181241871
  0
ARC
  5
6A8
100
AcDbEntity
  8
0
100
AcDbCircle
 62
7
  6
CONTINUOUS
 10
6.1866497976
 20
3.4464736842
 40
0.0561023622
100
AcDbArc
 50
255.7818758129
 51
284.2181241871
  0
ARC
  5
6A9
100
AcDbEntity
  8
0
100
AcDbCircle
 62
7
  6
CONTINUOUS
 10
6.1866497976
 20
3.4464736842
 40
0.0336614173
100
AcDbArc
 50
348.1893286477
 51
11.8106713523
  0
ARC
  5
6AA
100
AcDbEntity
  8
0
100
AcDbCircle
 62
7
  6
CONTINUOUS
 10
6.1866497976
 20
3.4464736842
 40
0.0336614173
100
AcDbArc
 50
78.1893286477
 51
101.8106713523
  0
ARC
  5
6AB
100
AcDbEntity
  8
0
100
AcDbCircle
 62
7
  6
CONTINUOUS
 10
6.1866497976
 20
3.4464736842
 40
0.0336614173
100
AcDbArc
 50
168.1893286477
 51
191.8106713523
  0
ARC
  5
6AC
100
AcDbEntity
  8
0
100
AcDbCircle
 62
7
  6
CONTINUOUS
 10
6.1866497976
 20
3.4464736842
 40
0.0336614173
100
AcDbArc
 50
258.1893286477
 51
281.8106713523
  0
ARC
  5
6AD
100
AcDbEntity
  8
0
100
AcDbCircle
 62
7
  6
CONTINUOUS
 10
7.1677935857
 20
9.2969539576
 40
1.9883530906
100
AcDbArc
 50
239.5553319133
 51
239.8007223923
  0
ARC
  5
6AE
100
AcDbEntity
  8
0
100
AcDbCircle
 62
7
  6
CONTINUOUS
 10
7.8861300707
 20
6.6163298963
 40
1.9883530903
100
AcDbArc
 50
149.5553319133
 51
149.8007223923
  0
ARC
  5
6AF
100
AcDbEntity
  8
0
100
AcDbCircle
 62
7
  6
CONTINUOUS
 10
7.1658479677
 20
5.9013200076
 40
1.9844993123
100
AcDbArc
 50
120.1990393406
 51
120.4449063539
  0
ARC
  5
6B0
100
AcDbEntity
  8
0
100
AcDbCircle
 62
7
  6
CONTINUOUS
 10
7.8828034723
 20
8.5766718532
 40
1.9844993101
100
AcDbArc
 50
210.1990393404
 51
210.444906354
  0
ARC
  5
6B1
100
AcDbEntity
  8
0
100
AcDbCircle
 62
7
  6
CONTINUOUS
 10
6.1887736525
 20
6.467946669
 40
1.1445003078
100
AcDbArc
 50
87.3828606291
 51
88.7862673671
  0
ARC
  5
6B2
100
AcDbEntity
  8
0
100
AcDbCircle
 62
7
  6
CONTINUOUS
 10
7.3161768122
 20
7.5995975391
 40
1.1445003071
100
AcDbArc
 50
177.3828606287
 51
178.7862673675
  0
ARC
  5
6B3
100
AcDbEntity
  8
0
100
AcDbCircle
 62
7
  6
CONTINUOUS
 10
6.1896895844
 20
8.6996129478
 40
1.1170993501
100
AcDbArc
 50
271.1965198923
 51
272.6343521115
  0
ARC
  5
6B4
100
AcDbEntity
  8
0
100
AcDbCircle
 62
7
  6
CONTINUOUS
 10
7.2887890599
 20
7.5944338973
 40
1.1170993488
100
AcDbArc
 50
181.1965198915
 51
182.6343521124
  0
CIRCLE
  5
6B5
100
AcDbEntity
  8
0
100
AcDbCircle
 62
7
  6
CONTINUOUS
 10
6.1866497976
 20
7.5974736842
 40
0.122
  0
CIRCLE
  5
6B6
100
AcDbEntity
  8
0
100
AcDbCircle
 62
7
  6
CONTINUOUS
 10
6.1866497976
 20
7.5974736842
 40
0.1181102362
  0
CIRCLE
  5
6B7
100
AcDbEntity
  8
0
100
AcDbCircle
 62
7
  6
CONTINUOUS
 10
6.1866497976
 20
7.5974736842
 40
0.0891591371
  0
ARC
  5
6B8
100
AcDbEntity
  8
0
100
AcDbCircle
 62
7
  6
CONTINUOUS
 10
6.1866497976
 20
7.5974736842
 40
0.0561023622
100
AcDbArc
 50
75.7818758129
 51
104.2181241871
  0
ARC
  5
6B9
100
AcDbEntity
  8
0
100
AcDbCircle
 62
7
  6
CONTINUOUS
 10
6.1866497976
 20
7.5974736842
 40
0.0561023622
100
AcDbArc
 50
345.7818758129
 51
14.2181241871
  0
ARC
  5
6BA
100
AcDbEntity
  8
0
100
AcDbCircle
 62
7
  6
CONTINUOUS
 10
6.1866497976
 20
7.5974736842
 40
0.0561023622
100
AcDbArc
 50
165.7818758129
 51
194.2181241871
  0
ARC
  5
6BB
100
AcDbEntity
  8
0
100
AcDbCircle
 62
7
  6
CONTINUOUS
 10
6.1866497976
 20
7.5974736842
 40
0.0561023622
100
AcDbArc
 50
255.7818758129
 51
284.2181241871
  0
ARC
  5
6BC
100
AcDbEntity
  8
0
100
AcDbCircle
 62
7
  6
CONTINUOUS
 10
6.1866497976
 20
7.5974736842
 40
0.0336614173
100
AcDbArc
 50
348.1893286477
 51
11.8106713523
  0
ARC
  5
6BD
100
AcDbEntity
  8
0
100
AcDbCircle
 62
7
  6
CONTINUOUS
 10
6.1866497976
 20
7.5974736842
 40
0.0336614173
100
AcDbArc
 50
78.1893286477
 51
101.8106713523
  0
ARC
  5
6BE
100
AcDbEntity
  8
0
100
AcDbCircle
 62
7
  6
CONTINUOUS
 10
6.1866497976
 20
7.5974736842
 40
0.0336614173
100
AcDbArc
 50
168.1893286477
 51
191.8106713523
  0
ARC
  5
6BF
100
AcDbEntity
  8
0
100
AcDbCircle
 62
7
  6
CONTINUOUS
 10
6.1866497976
 20
7.5974736842
 40
0.0336614173
100
AcDbArc
 50
258.1893286477
 51
281.8106713523
  0
ARC
  5
6C0
100
AcDbEntity
  8
0
100
AcDbCircle
 62
7
  6
CONTINUOUS
 10
8.9715888341
 20
3.4465146269
 40
0.1584079517
100
AcDbArc
 50
159.9367984684
 51
170.4336461871
  0
ARC
  5
6C1
100
AcDbEntity
  8
0
100
AcDbCircle
 62
7
  6
CONTINUOUS
 10
8.9715888341
 20
7.5975146269
 40
0.1584079517
100
AcDbArc
 50
159.9367984684
 51
170.4336461871
  0
ARC
  5
6C2
100
AcDbEntity
  8
0
100
AcDbCircle
 62
7
  6
CONTINUOUS
 10
8.9715886962
 20
3.446432705
 40
0.1584078097
100
AcDbArc
 50
189.5663490942
 51
200.0632062503
  0
ARC
  5
6C3
100
AcDbEntity
  8
0
100
AcDbCircle
 62
7
  6
CONTINUOUS
 10
8.9715886962
 20
7.597432705
 40
0.1584078097
100
AcDbArc
 50
189.5663490942
 51
200.0632062503
  0
ARC
  5
6C4
100
AcDbEntity
  8
0
100
AcDbCircle
 62
7
  6
CONTINUOUS
 10
8.9699420427
 20
3.4464736842
 40
0.157480315
100
AcDbArc
 50
200.8700734525
 51
214.4829187979
  0
ARC
  5
6C5
100
AcDbEntity
  8
0
100
AcDbCircle
 62
7
  6
CONTINUOUS
 10
8.9699420427
 20
3.4464736842
 40
0.157480315
100
AcDbArc
 50
145.5170812021
 51
159.1299265475
  0
ARC
  5
6C6
100
AcDbEntity
  8
0
100
AcDbCircle
 62
7
  6
CONTINUOUS
 10
8.9699420427
 20
7.5974736842
 40
0.157480315
100
AcDbArc
 50
200.8700734525
 51
214.4829187979
  0
ARC
  5
6C7
100
AcDbEntity
  8
0
100
AcDbCircle
 62
7
  6
CONTINUOUS
 10
8.9699420427
 20
7.5974736842
 40
0.157480315
100
AcDbArc
 50
145.5170812021
 51
159.1299265475
  0
ARC
  5
6C8
100
AcDbEntity
  8
0
100
AcDbCircle
 62
7
  6
CONTINUOUS
 10
8.9318422948
 20
3.4334535351
 40
0.1172208467
100
AcDbArc
 50
182.9318680461
 51
186.5377769593
  0
ARC
  5
6C9
100
AcDbEntity
  8
0
100
AcDbCircle
 62
7
  6
CONTINUOUS
 10
8.9318422948
 20
7.5844535351
 40
0.1172208467
100
AcDbArc
 50
182.9318680461
 51
186.5377769593
  0
ARC
  5
6CA
100
AcDbEntity
  8
0
100
AcDbCircle
 62
7
  6
CONTINUOUS
 10
8.9318422943
 20
3.4594938334
 40
0.1172208462
100
AcDbArc
 50
173.4622230336
 51
177.068131961
  0
ARC
  5
6CB
100
AcDbEntity
  8
0
100
AcDbCircle
 62
7
  6
CONTINUOUS
 10
8.9318422943
 20
7.6104938334
 40
0.1172208462
100
AcDbArc
 50
173.4622230335
 51
177.0681319611
  0
ARC
  5
6CC
100
AcDbEntity
  8
0
100
AcDbCircle
 62
7
  6
CONTINUOUS
 10
8.8951388931
 20
3.3950957315
 40
0.0667322835
100
AcDbArc
 50
214.4829187979
 51
270.0
  0
ARC
  5
6CD
100
AcDbEntity
  8
0
100
AcDbCircle
 62
7
  6
CONTINUOUS
 10
8.8951388931
 20
3.497851637
 40
0.0667322835
100
AcDbArc
 50
90.0
 51
145.5170812021
  0
ARC
  5
6CE
100
AcDbEntity
  8
0
100
AcDbCircle
 62
7
  6
CONTINUOUS
 10
8.8951388931
 20
7.5460957315
 40
0.0667322835
100
AcDbArc
 50
214.4829187979
 51
270.0
  0
ARC
  5
6CF
100
AcDbEntity
  8
0
100
AcDbCircle
 62
7
  6
CONTINUOUS
 10
8.8951388931
 20
7.648851637
 40
0.0667322835
100
AcDbArc
 50
90.0
 51
145.5170812021
  0
ARC
  5
6D0
100
AcDbEntity
  8
0
100
AcDbCircle
 62
7
  6
CONTINUOUS
 10
8.8562320943
 20
3.423779612
 40
0.0416200672
100
AcDbArc
 50
168.9493942318
 51
174.9297490991
  0
ARC
  5
6D1
100
AcDbEntity
  8
0
100
AcDbCircle
 62
7
  6
CONTINUOUS
 10
8.8562320943
 20
7.574779612
 40
0.0416200672
100
AcDbArc
 50
168.9493942318
 51
174.929749099
  0
ARC
  5
6D2
100
AcDbEntity
  8
0
100
AcDbCircle
 62
7
  6
CONTINUOUS
 10
8.8558569279
 20
3.4691146267
 40
0.0412416781
100
AcDbArc
 50
185.0427909794
 51
191.0780656898
  0
ARC
  5
6D3
100
AcDbEntity
  8
0
100
AcDbCircle
 62
7
  6
CONTINUOUS
 10
8.8558569279
 20
7.6201146267
 40
0.0412416781
100
AcDbArc
 50
185.0427909793
 51
191.0780656898
  0
ARC
  5
6D4
100
AcDbEntity
  8
0
100
AcDbCircle
 62
7
  6
CONTINUOUS
 10
8.90349899
 20
3.5118520654
 40
0.0050406123
100
AcDbArc
 50
198.2234658084
 51
202.345138515
  0
ARC
  5
6D5
100
AcDbEntity
  8
0
100
AcDbCircle
 62
7
  6
CONTINUOUS
 10
8.90349899
 20
7.6628520654
 40
0.0050406123
100
AcDbArc
 50
198.2234658081
 51
202.3451385156
  0
ARC
  5
6D6
100
AcDbEntity
  8
0
100
AcDbCircle
 62
7
  6
CONTINUOUS
 10
8.9034609391
 20
3.5118370152
 40
0.0049997617
100
AcDbArc
 50
90.5620772666
 51
198.1960103258
  0
ARC
  5
6D7
100
AcDbEntity
  8
0
100
AcDbCircle
 62
7
  6
CONTINUOUS
 10
8.9034609391
 20
7.6628370152
 40
0.0049997617
100
AcDbArc
 50
90.5620772666
 51
198.1960103257
  0
ARC
  5
6D8
100
AcDbEntity
  8
0
100
AcDbCircle
 62
7
  6
CONTINUOUS
 10
8.8990759009
 20
3.4819067551
 40
0.0039370079
100
AcDbArc
 50
180.0
 51
270.0
  0
ARC
  5
6D9
100
AcDbEntity
  8
0
100
AcDbCircle
 62
7
  6
CONTINUOUS
 10
8.8990759009
 20
3.4110406133
 40
0.0039370079
100
AcDbArc
 50
90.0
 51
180.0
  0
ARC
  5
6DA
100
AcDbEntity
  8
0
100
AcDbCircle
 62
7
  6
CONTINUOUS
 10
8.8990759009
 20
7.6329067551
 40
0.0039370079
100
AcDbArc
 50
180.0
 51
270.0
  0
ARC
  5
6DB
100
AcDbEntity
  8
0
100
AcDbCircle
 62
7
  6
CONTINUOUS
 10
8.8990759009
 20
7.5620406133
 40
0.0039370079
100
AcDbArc
 50
90.0
 51
180.0
  0
ARC
  5
6DC
100
AcDbEntity
  8
0
100
AcDbCircle
 62
7
  6
CONTINUOUS
 10
8.9798903021
 20
3.3901648995
 40
0.0033918478
100
AcDbArc
 50
295.1660772413
 51
300.1900233303
  0
ARC
  5
6DD
100
AcDbEntity
  8
0
100
AcDbCircle
 62
7
  6
CONTINUOUS
 10
8.9798903021
 20
7.5411648995
 40
0.0033918478
100
AcDbArc
 50
295.1660772421
 51
300.1900233292
  0
ARC
  5
6DE
100
AcDbEntity
  8
0
100
AcDbCircle
 62
7
  6
CONTINUOUS
 10
9.0175928534
 20
3.5038663861
 40
0.0029961338
100
AcDbArc
 50
110.0563104563
 51
115.4375946534
  0
ARC
  5
6DF
100
AcDbEntity
  8
0
100
AcDbCircle
 62
7
  6
CONTINUOUS
 10
9.0175928534
 20
7.6548663861
 40
0.0029961338
100
AcDbArc
 50
110.0563104556
 51
115.4375946542
  0
ARC
  5
6E0
100
AcDbEntity
  8
0
100
AcDbCircle
 62
7
  6
CONTINUOUS
 10
8.9800664752
 20
3.3897906035
 40
0.0029781639
100
AcDbArc
 50
289.62603973
 51
295.1606205612
  0
ARC
  5
6E1
100
AcDbEntity
  8
0
100
AcDbCircle
 62
7
  6
CONTINUOUS
 10
8.9800664752
 20
7.5407906035
 40
0.0029781639
100
AcDbArc
 50
289.6260397283
 51
295.1606205632
  0
ARC
  5
6E2
100
AcDbEntity
  8
0
100
AcDbCircle
 62
7
  6
CONTINUOUS
 10
8.9802333303
 20
3.3788504993
 40
0.0020132351
100
AcDbArc
 50
265.510545221
 51
269.508911287
  0
ARC
  5
6E3
100
AcDbEntity
  8
0
100
AcDbCircle
 62
7
  6
CONTINUOUS
 10
8.9802333303
 20
7.5298504993
 40
0.0020132351
100
AcDbArc
 50
265.5105452178
 51
269.5089112901
  0
SPLINE
  5
6E4
100
AcDbEntity
  8
0
100
AcDbSpline
 62
7
  6
CONTINUOUS
 70
0
 71
3
 72
43
 73
39
 74
0
 42
0.0000001
 43
0.0000001
 44
0.0000000001
 40
0.0
 40
0.0
 40
0.0
 40
0.0
 40
0.0008994
 40
0.0028182269
 40
0.0058860907
 40
0.0101270515
 40
0.0155397923
 40
0.022110283
 40
0.0298222587
 40
0.0386585408
 40
0.0596326858
 40
0.0848496759
 40
0.1140472971
 40
0.1469531565
 40
0.1832647333
 40
0.2226159822
 40
0.2646324629
 40
0.308920762
 40
0.4025588967
 40
0.4999422963
 40
0.5973238712
 40
0.6909742719
 40
0.7352594342
 40
0.7772872935
 40
0.816649943
 40
0.8529577971
 40
0.8858789351
 40
0.9150930586
 40
0.9403033562
 40
0.9612926082
 40
0.9701423033
 40
0.9778626654
 40
0.9844327957
 40
0.9898431831
 40
0.9940884708
 40
0.9971681142
 40
0.9990981662
 40
1.0
 40
1.0
 40
1.0
 40
1.0
 10
8.9094609481
 20
3.3768373989
 30
0.0
 10
8.909418895
 20
3.3768375966
 30
0.0
 10
8.9093289424
 20
3.376972233
 30
0.0
 10
8.9092585194
 20
3.3772186281
 30
0.0
 10
8.9091631273
 20
3.3776500519
 30
0.0
 10
8.909075809
 20
3.3782343347
 30
0.0
 10
8.9089830475
 20
3.3789889257
 30
0.0
 10
8.9088912286
 20
3.379904712
 30
0.0
 10
8.9087984181
 20
3.3809819095
 30
0.0
 10
8.9086669473
 20
3.3827313721
 30
0.0
 10
8.908506731
 20
3.3852994533
 30
0.0
 10
8.9083225553
 20
3.38881963
 30
0.0
 10
8.9081375237
 20
3.3928983456
 30
0.0
 10
8.9079519595
 20
3.3974962451
 30
0.0
 10
8.9077661621
 20
3.4025692425
 30
0.0
 10
8.9075800469
 20
3.4080684768
 30
0.0
 10
8.9073937515
 20
3.4139408746
 30
0.0
 10
8.9071405675
 20
3.4223507291
 30
0.0
 10
8.9068290229
 20
3.4333487988
 30
0.0
 10
8.9064612763
 20
3.4468287615
 30
0.0
 10
8.9060934542
 20
3.4603092959
 30
0.0
 10
8.9057820088
 20
3.4713077101
 30
0.0
 10
8.9055287379
 20
3.4797185213
 30
0.0
 10
8.9053424741
 20
3.485591839
 30
0.0
 10
8.9051564183
 20
3.491091967
 30
0.0
 10
8.9049705066
 20
3.4961660343
 30
0.0
 10
8.904784978
 20
3.5007652477
 30
0.0
 10
8.9046000827
 20
3.5048451445
 30
0.0
 10
8.9044156977
 20
3.5083664766
 30
0.0
 10
8.9042555079
 20
3.5109355821
 30
0.0
 10
8.9041241266
 20
3.5126867792
 30
0.0
 10
8.904031356
 20
3.5137649925
 30
0.0
 10
8.9039395062
 20
3.5146810263
 30
0.0
 10
8.9038466601
 20
3.5154357294
 30
0.0
 10
8.9037592813
 20
3.516020523
 30
0.0
 10
8.9036638703
 20
3.5164535718
 30
0.0
 10
8.9035936876
 20
3.5167005949
 30
0.0
 10
8.9035037471
 20
3.5168368283
 30
0.0
 10
8.9034615797
 20
3.5168368192
 30
0.0
  0
SPLINE
  5
6E5
100
AcDbEntity
  8
0
100
AcDbSpline
 62
7
  6
CONTINUOUS
 70
0
 71
3
 72
36
 73
32
 74
0
 42
0.0000001
 43
0.0000001
 44
0.0000000001
 40
0.0
 40
0.0
 40
0.0
 40
0.0
 40
0.0039826488
 40
0.0082980177
 40
0.0131870137
 40
0.0188134165
 40
0.0326436107
 40
0.0502280872
 40
0.0716294329
 40
0.0967859941
 40
0.1255600492
 40
0.1577140441
 40
0.1929804098
 40
0.231070274
 40
0.3142957409
 40
0.4043805543
 40
0.4980052027
 40
0.5917230746
 40
0.6820627201
 40
0.7657171754
 40
0.839639074
 40
0.8721248864
 40
0.9012392756
 40
0.9267787813
 40
0.9485743008
 40
0.966530865
 40
0.9807345193
 40
0.9865319355
 40
0.9915628214
 40
0.9959754113
 40
1.0
 40
1.0
 40
1.0
 40
1.0
 10
8.9430948
 20
3.5168369572
 30
0.0
 10
8.9432900221
 20
3.5168325989
 30
0.0
 10
8.9436972343
 20
3.5167617478
 30
0.0
 10
8.9442872487
 20
3.5164834146
 30
0.0
 10
8.9448692299
 20
3.5160407469
 30
0.0
 10
8.9456959416
 20
3.5151747412
 30
0.0
 10
8.9466975562
 20
3.5136456592
 30
0.0
 10
8.9478284231
 20
3.5113132887
 30
0.0
 10
8.948965009
 20
3.5083778238
 30
0.0
 10
8.9501054056
 20
3.5048635786
 30
0.0
 10
8.9512478026
 20
3.5007994706
 30
0.0
 10
8.9523929271
 20
3.4962236855
 30
0.0
 10
8.953539958
 20
3.4911789232
 30
0.0
 10
8.9551168514
 20
3.4836650911
 30
0.0
 10
8.9570521095
 20
3.4734815508
 30
0.0
 10
8.9593176811
 20
3.4605911023
 30
0.0
 10
8.9615864252
 20
3.4471792408
 30
0.0
 10
8.963854931
 20
3.433754726
 30
0.0
 10
8.9661208162
 20
3.4208255114
 30
0.0
 10
8.9683803067
 20
3.4088815564
 30
0.0
 10
8.9703273159
 20
3.3997663979
 30
0.0
 10
8.9719233474
 20
3.3933155963
 30
0.0
 10
8.973067128
 20
3.3891981986
 30
0.0
 10
8.9742074501
 20
3.3856264709
 30
0.0
 10
8.9753432714
 20
3.3826305231
 30
0.0
 10
8.9764763598
 20
3.3802373133
 30
0.0
 10
8.9774764366
 20
3.3786551614
 30
0.0
 10
8.9783010325
 20
3.3777417639
 30
0.0
 10
8.9788815497
 20
3.3772652973
 30
0.0
 10
8.9794698596
 20
3.3769535913
 30
0.0
 10
8.9798790209
 20
3.3768588796
 30
0.0
 10
8.9800757431
 20
3.3768434413
 30
0.0
  0
SPLINE
  5
6E6
100
AcDbEntity
  8
0
100
AcDbSpline
 62
7
  6
CONTINUOUS
 70
0
 71
3
 72
16
 73
12
 74
0
 42
0.0000001
 43
0.0000001
 44
0.0000000001
 40
0.0
 40
0.0
 40
0.0
 40
0.0
 40
0.0545019832
 40
0.0882710949
 40
0.1270945502
 40
0.2209197666
 40
0.3368109785
 40
0.474114916
 40
0.6316754307
 40
0.8076825605
 40
1.0
 40
1.0
 40
1.0
 40
1.0
 10
9.0554692238
 20
3.3869974607
 30
0.0
 10
9.0559889697
 20
3.3871906563
 30
0.0
 10
9.0567355662
 20
3.3877461798
 30
0.0
 10
9.0575924881
 20
3.3887111462
 30
0.0
 10
9.0585743494
 20
3.3900959658
 30
0.0
 10
9.0597633812
 20
3.392335681
 30
0.0
 10
9.061120256
 20
3.3955978071
 30
0.0
 10
9.0624829326
 20
3.3995504675
 30
0.0
 10
9.0638486506
 20
3.4041431835
 30
0.0
 10
9.065217667
 20
3.409315912
 30
0.0
 10
9.0660967868
 20
3.4129588343
 30
0.0
 10
9.0665409701
 20
3.4148643436
 30
0.0
  0
SPLINE
  5
6E7
100
AcDbEntity
  8
0
100
AcDbSpline
 62
7
  6
CONTINUOUS
 70
0
 71
3
 72
16
 73
12
 74
0
 42
0.0000001
 43
0.0000001
 44
0.0000000001
 40
0.0
 40
0.0
 40
0.0
 40
0.0
 40
0.1914267646
 40
0.3668643564
 40
0.5242425938
 40
0.6616805127
 40
0.7778680302
 40
0.8722279079
 40
0.9113146989
 40
0.9452961452
 40
1.0
 40
1.0
 40
1.0
 40
1.0
 10
9.0796547743
 20
3.4779933078
 30
0.0
 10
9.0801033658
 20
3.4799370186
 30
0.0
 10
9.0809907312
 20
3.4836558399
 30
0.0
 10
9.0823725509
 20
3.4889417695
 30
0.0
 10
9.0837506091
 20
3.4936453027
 30
0.0
 10
9.0851246355
 20
3.4977039627
 30
0.0
 10
9.0864951798
 20
3.5010639151
 30
0.0
 10
9.08769323
 20
3.5033806208
 30
0.0
 10
9.0886828183
 20
3.5048228653
 30
0.0
 10
9.0895468431
 20
3.5058326315
 30
0.0
 10
9.090298064
 20
3.5064232506
 30
0.0
 10
9.0908252697
 20
3.5066400804
 30
0.0
  0
SPLINE
  5
6E8
100
AcDbEntity
  8
0
100
AcDbSpline
 62
7
  6
CONTINUOUS
 70
0
 71
3
 72
16
 73
12
 74
0
 42
0.0000001
 43
0.0000001
 44
0.0000000001
 40
0.0
 40
0.0
 40
0.0
 40
0.0
 40
0.1918946919
 40
0.3676963662
 40
0.525286284
 40
0.6627465024
 40
0.778836599
 40
0.8729115095
 40
0.9118117999
 40
0.9456103515
 40
1.0
 40
1.0
 40
1.0
 40
1.0
 10
8.9309326933
 20
3.4780339359
 30
0.0
 10
8.9313827284
 20
3.4799829948
 30
0.0
 10
8.9322731384
 20
3.4837113067
 30
0.0
 10
8.9336595738
 20
3.4890091398
 30
0.0
 10
8.9350420482
 20
3.4937195873
 30
0.0
 10
8.9364212633
 20
3.4977795238
 30
0.0
 10
8.9377956992
 20
3.5011351538
 30
0.0
 10
8.938998303
 20
3.5034440848
 30
0.0
 10
8.9399923727
 20
3.5048758264
 30
0.0
 10
8.9408591319
 20
3.5058742609
 30
0.0
 10
8.941614375
 20
3.5064538214
 30
0.0
 10
8.9421425149
 20
3.5066600228
 30
0.0
  0
SPLINE
  5
6E9
100
AcDbEntity
  8
0
100
AcDbSpline
 62
7
  6
CONTINUOUS
 70
0
 71
3
 72
35
 73
31
 74
0
 42
0.0000001
 43
0.0000001
 44
0.0000000001
 40
0.0
 40
0.0
 40
0.0
 40
0.0
 40
0.0039904494
 40
0.0083106731
 40
0.0132099427
 40
0.0188579452
 40
0.0327466953
 40
0.0503914648
 40
0.0718940873
 40
0.0971880298
 40
0.1260960647
 40
0.1584093541
 40
0.2126690813
 40
0.2728845164
 40
0.4061979359
 40
0.5473300575
 40
0.6171464394
 40
0.6845144014
 40
0.7480151775
 40
0.8063586986
 40
0.8583394331
 40
0.9029716961
 40
0.9222705613
 40
0.9394507543
 40
0.9544789652
 40
0.967346875
 40
0.9780896847
 40
0.9868421846
 40
0.9939339978
 40
1.0
 40
1.0
 40
1.0
 40
1.0
 10
9.0174522924
 20
3.5168358412
 30
0.0
 10
9.0176480986
 20
3.5168325942
 30
0.0
 10
9.0180567683
 20
3.5167640854
 30
0.0
 10
9.0186496181
 20
3.5164873354
 30
0.0
 10
9.0192340276
 20
3.516043534
 30
0.0
 10
9.0200634061
 20
3.5151723429
 30
0.0
 10
9.0210681536
 20
3.5136351702
 30
0.0
 10
9.0222049706
 20
3.5112910182
 30
0.0
 10
9.0233452301
 20
3.5083380446
 30
0.0
 10
9.0244890047
 20
3.5048021391
 30
0.0
 10
9.0256367024
 20
3.5007135362
 30
0.0
 10
9.0270094691
 20
3.4952144617
 30
0.0
 10
9.0285619719
 20
3.4881790539
 30
0.0
 10
9.0309310531
 20
3.4762511988
 30
0.0
 10
9.0337874378
 20
3.4600766346
 30
0.0
 10
9.0365791967
 20
3.4434143161
 30
0.0
 10
9.0388827144
 20
3.4299513967
 30
0.0
 10
9.0406025846
 20
3.4202539052
 30
0.0
 10
9.0423210694
 20
3.4111284037
 30
0.0
 10
9.0440346538
 20
3.4027710881
 30
0.0
 10
9.0457445097
 20
3.3953604401
 30
0.0
 10
9.0472231637
 20
3.389864927
 30
0.0
 10
9.048433638
 20
3.3860720696
 30
0.0
 10
9.0492963603
 20
3.3836952333
 30
0.0
 10
9.0501573117
 20
3.3816560973
 30
0.0
 10
9.0510166075
 20
3.3799634242
 30
0.0
 10
9.0518755433
 20
3.3786228522
 30
0.0
 10
9.0527415673
 20
3.3776375416
 30
0.0
 10
9.0536295533
 20
3.3770054998
 30
0.0
 10
9.0542765545
 20
3.3768413907
 30
0.0
 10
9.0545742137
 20
3.3768369901
 30
0.0
  0
SPLINE
  5
6EA
100
AcDbEntity
  8
0
100
AcDbSpline
 62
7
  6
CONTINUOUS
 70
0
 71
3
 72
14
 73
10
 74
0
 42
0.0000001
 43
0.0000001
 44
0.0000000001
 40
0.0
 40
0.0
 40
0.0
 40
0.0
 40
0.0581787866
 40
0.1345506832
 40
0.2310597229
 40
0.3480297827
 40
0.4848348339
 40
0.6401790866
 40
1.0
 40
1.0
 40
1.0
 40
1.0
 10
8.9815959587
 20
3.3872331139
 30
0.0
 10
8.9820994856
 20
3.3875253858
 30
0.0
 10
8.9831020626
 20
3.3884662834
 30
0.0
 10
8.9843930425
 20
3.3903908596
 30
0.0
 10
8.985692254
 20
3.3929914053
 30
0.0
 10
8.9869922948
 20
3.3962489695
 30
0.0
 10
8.988297261
 20
3.4001312314
 30
0.0
 10
8.9901333566
 20
3.4063929807
 30
0.0
 10
8.9913680285
 20
3.411400665
 30
0.0
 10
8.9921851471
 20
3.4149075122
 30
0.0
  0
SPLINE
  5
6EB
100
AcDbEntity
  8
0
100
AcDbSpline
 62
7
  6
CONTINUOUS
 70
0
 71
3
 72
15
 73
11
 74
0
 42
0.0000001
 43
0.0000001
 44
0.0000000001
 40
0.0
 40
0.0
 40
0.0
 40
0.0
 40
0.3642116246
 40
0.520835251
 40
0.6580941792
 40
0.7746476488
 40
0.869789748
 40
0.909474154
 40
0.9441291016
 40
1.0
 40
1.0
 40
1.0
 40
1.0
 10
9.0053089336
 20
3.4780793164
 30
0.0
 10
9.0061565117
 20
3.4817470445
 30
0.0
 10
9.0074354711
 20
3.486978669
 30
0.0
 10
9.0093433638
 20
3.4935086604
 30
0.0
 10
9.0106970198
 20
3.4975309171
 30
0.0
 10
9.0120459328
 20
3.5008784828
 30
0.0
 10
9.0132266794
 20
3.503199698
 30
0.0
 10
9.0141982224
 20
3.5046619166
 30
0.0
 10
9.0150487679
 20
3.505701896
 30
0.0
 10
9.0157842248
 20
3.5063244884
 30
0.0
 10
9.0163059308
 20
3.5065720557
 30
0.0
  0
SPLINE
  5
6EC
100
AcDbEntity
  8
0
100
AcDbSpline
 62
7
  6
CONTINUOUS
 70
0
 71
3
 72
30
 73
26
 74
0
 42
0.0000001
 43
0.0000001
 44
0.0000000001
 40
0.0
 40
0.0
 40
0.0
 40
0.0
 40
0.0037119695
 40
0.007676625
 40
0.0120875588
 40
0.0170830988
 40
0.0291526776
 40
0.0443208827
 40
0.0627127929
 40
0.0843039524
 40
0.1090158087
 40
0.1367274354
 40
0.2003618543
 40
0.2734647885
 40
0.3538984949
 40
0.4392949528
 40
0.6146487162
 40
0.699345171
 40
0.7786573422
 40
0.8502224804
 40
0.91199947
 40
0.9386602297
 40
0.9622858161
 40
0.9827588762
 40
1.0
 40
1.0
 40
1.0
 40
1.0
 10
9.0918138321
 20
3.5168375251
 30
0.0
 10
9.0919892193
 20
3.5168348796
 30
0.0
 10
9.0923526349
 20
3.516779973
 30
0.0
 10
9.0928835865
 20
3.5165574082
 30
0.0
 10
9.0934087216
 20
3.5162000317
 30
0.0
 10
9.0941504427
 20
3.5155028844
 30
0.0
 10
9.095055385
 20
3.514264593
 30
0.0
 10
9.0960779609
 20
3.5123631321
 30
0.0
 10
9.0971031632
 20
3.5099641157
 30
0.0
 10
9.0981317843
 20
3.5070840391
 30
0.0
 10
9.0991629917
 20
3.5037410725
 30
0.0
 10
9.1006064722
 20
3.4984494774
 30
0.0
 10
9.1023686915
 20
3.4908786222
 30
0.0
 10
9.1044085587
 20
3.4808205107
 30
0.0
 10
9.1064550667
 20
3.4697164461
 30
0.0
 10
9.1092127452
 20
3.4538314822
 30
0.0
 10
9.1118928342
 20
3.4377289651
 30
0.0
 10
9.1146579763
 20
3.4219326433
 30
0.0
 10
9.1167027243
 20
3.410989604
 30
0.0
 10
9.1187422752
 20
3.401149261
 30
0.0
 10
9.1205044764
 20
3.3937938405
 30
0.0
 10
9.121952692
 20
3.3886994034
 30
0.0
 10
9.1229829864
 20
3.3855172591
 30
0.0
 10
9.1240098457
 20
3.3828054073
 30
0.0
 10
9.1247564196
 20
3.3811840084
 30
0.0
 10
9.1251393248
 20
3.3804648752
 30
0.0
  0
SPLINE
  5
6ED
100
AcDbEntity
  8
0
100
AcDbSpline
 62
7
  6
CONTINUOUS
 70
0
 71
3
 72
40
 73
36
 74
0
 42
0.0000001
 43
0.0000001
 44
0.0000000001
 40
0.0
 40
0.0
 40
0.0
 40
0.0
 40
0.0008999111
 40
0.0028194069
 40
0.0058855164
 40
0.0101201999
 40
0.0155278526
 40
0.0220981507
 40
0.0298125747
 40
0.0386515761
 40
0.0596227635
 40
0.0848379537
 40
0.1140435785
 40
0.1469513149
 40
0.2646470393
 40
0.402594034
 40
0.4754929054
 40
0.5489229981
 40
0.6212907579
 40
0.6910405735
 40
0.7566495719
 40
0.8167171447
 40
0.8699237818
 40
0.8935968155
 40
0.9151447809
 40
0.9344404412
 40
0.9513808674
 40
0.9658878714
 40
0.9778852644
 40
0.9872997946
 40
0.9940892477
 40
0.9965000272
 40
0.9982611476
 40
0.9993939078
 40
1.0
 40
1.0
 40
1.0
 40
1.0
 10
8.921461186
 20
3.3768369986
 30
0.0
 10
8.9214191079
 20
3.3768371853
 30
0.0
 10
8.9213291927
 20
3.3769719947
 30
0.0
 10
8.9212587554
 20
3.377218296
 30
0.0
 10
8.9211633708
 20
3.3776494029
 30
0.0
 10
8.9210759487
 20
3.378233056
 30
0.0
 10
8.9209831716
 20
3.3789871246
 30
0.0
 10
8.9208913667
 20
3.3799027994
 30
0.0
 10
8.920798556
 20
3.3809802574
 30
0.0
 10
8.9206671056
 20
3.382729867
 30
0.0
 10
8.9205068047
 20
3.3852979093
 30
0.0
 10
8.9203225938
 20
3.3888183214
 30
0.0
 10
8.9201375437
 20
3.3928975127
 30
0.0
 10
8.9197989008
 20
3.4012983184
 30
0.0
 10
8.9193569859
 20
3.4147834417
 30
0.0
 10
8.9189180278
 20
3.430139269
 30
0.0
 10
8.9185537885
 20
3.4434266052
 30
0.0
 10
8.9182755695
 20
3.4536487541
 30
0.0
 10
8.9179973886
 20
3.4637236055
 30
0.0
 10
8.9177195164
 20
3.4734326197
 30
0.0
 10
8.9174419688
 20
3.4825662607
 30
0.0
 10
8.917165192
 20
3.4909260058
 30
0.0
 10
8.91692711
 20
3.4973250642
 30
0.0
 10
8.916733155
 20
3.5019233149
 30
0.0
 10
8.9165936456
 20
3.5049368043
 30
0.0
 10
8.9164543767
 20
3.5076351173
 30
0.0
 10
8.9163154182
 20
3.5100037683
 30
0.0
 10
8.9161771217
 20
3.5120304356
 30
0.0
 10
8.916039851
 20
3.5137046254
 30
0.0
 10
8.9159046043
 20
3.5150159064
 30
0.0
 10
8.9157839742
 20
3.51587942
 30
0.0
 10
8.91568356
 20
3.5163808693
 30
0.0
 10
8.9156130499
 20
3.5166217105
 30
0.0
 10
8.9155562079
 20
3.5167698161
 30
0.0
 10
8.9154892456
 20
3.51683709
 30
0.0
 10
8.9154609059
 20
3.5168372179
 30
0.0
  0
SPLINE
  5
6EE
100
AcDbEntity
  8
0
100
AcDbSpline
 62
7
  6
CONTINUOUS
 70
0
 71
3
 72
43
 73
39
 74
0
 42
0.0000001
 43
0.0000001
 44
0.0000000001
 40
0.0
 40
0.0
 40
0.0
 40
0.0
 40
0.0008994
 40
0.0028182269
 40
0.0058860907
 40
0.0101270515
 40
0.0155397923
 40
0.022110283
 40
0.0298222587
 40
0.0386585408
 40
0.0596326858
 40
0.0848496759
 40
0.1140472971
 40
0.1469531565
 40
0.1832647333
 40
0.2226159822
 40
0.2646324629
 40
0.308920762
 40
0.4025588967
 40
0.4999422963
 40
0.5973238712
 40
0.6909742719
 40
0.7352594342
 40
0.7772872935
 40
0.816649943
 40
0.8529577971
 40
0.8858789351
 40
0.9150930586
 40
0.9403033562
 40
0.9612926082
 40
0.9701423033
 40
0.9778626654
 40
0.9844327957
 40
0.9898431831
 40
0.9940884708
 40
0.9971681142
 40
0.9990981662
 40
1.0
 40
1.0
 40
1.0
 40
1.0
 10
8.9094609481
 20
7.5278373989
 30
0.0
 10
8.909418895
 20
7.5278375966
 30
0.0
 10
8.9093289424
 20
7.527972233
 30
0.0
 10
8.9092585194
 20
7.5282186281
 30
0.0
 10
8.9091631273
 20
7.5286500519
 30
0.0
 10
8.909075809
 20
7.5292343347
 30
0.0
 10
8.9089830475
 20
7.5299889257
 30
0.0
 10
8.9088912286
 20
7.530904712
 30
0.0
 10
8.9087984181
 20
7.5319819095
 30
0.0
 10
8.9086669473
 20
7.5337313721
 30
0.0
 10
8.908506731
 20
7.5362994533
 30
0.0
 10
8.9083225553
 20
7.53981963
 30
0.0
 10
8.9081375237
 20
7.5438983456
 30
0.0
 10
8.9079519595
 20
7.5484962451
 30
0.0
 10
8.9077661621
 20
7.5535692425
 30
0.0
 10
8.9075800469
 20
7.5590684768
 30
0.0
 10
8.9073937515
 20
7.5649408746
 30
0.0
 10
8.9071405675
 20
7.5733507291
 30
0.0
 10
8.9068290229
 20
7.5843487988
 30
0.0
 10
8.9064612763
 20
7.5978287615
 30
0.0
 10
8.9060934542
 20
7.6113092959
 30
0.0
 10
8.9057820088
 20
7.6223077101
 30
0.0
 10
8.9055287379
 20
7.6307185213
 30
0.0
 10
8.9053424741
 20
7.636591839
 30
0.0
 10
8.9051564183
 20
7.642091967
 30
0.0
 10
8.9049705066
 20
7.6471660343
 30
0.0
 10
8.904784978
 20
7.6517652477
 30
0.0
 10
8.9046000827
 20
7.6558451445
 30
0.0
 10
8.9044156977
 20
7.6593664766
 30
0.0
 10
8.9042555079
 20
7.6619355821
 30
0.0
 10
8.9041241266
 20
7.6636867792
 30
0.0
 10
8.904031356
 20
7.6647649925
 30
0.0
 10
8.9039395062
 20
7.6656810263
 30
0.0
 10
8.9038466601
 20
7.6664357294
 30
0.0
 10
8.9037592813
 20
7.667020523
 30
0.0
 10
8.9036638703
 20
7.6674535718
 30
0.0
 10
8.9035936876
 20
7.6677005949
 30
0.0
 10
8.9035037471
 20
7.6678368283
 30
0.0
 10
8.9034615797
 20
7.6678368192
 30
0.0
  0
SPLINE
  5
6EF
100
AcDbEntity
  8
0
100
AcDbSpline
 62
7
  6
CONTINUOUS
 70
0
 71
3
 72
36
 73
32
 74
0
 42
0.0000001
 43
0.0000001
 44
0.0000000001
 40
0.0
 40
0.0
 40
0.0
 40
0.0
 40
0.0039826488
 40
0.0082980177
 40
0.0131870137
 40
0.0188134165
 40
0.0326436107
 40
0.0502280872
 40
0.0716294329
 40
0.0967859941
 40
0.1255600492
 40
0.1577140441
 40
0.1929804098
 40
0.231070274
 40
0.3142957409
 40
0.4043805543
 40
0.4980052027
 40
0.5917230746
 40
0.6820627201
 40
0.7657171754
 40
0.839639074
 40
0.8721248864
 40
0.9012392756
 40
0.9267787813
 40
0.9485743008
 40
0.966530865
 40
0.9807345193
 40
0.9865319355
 40
0.9915628214
 40
0.9959754113
 40
1.0
 40
1.0
 40
1.0
 40
1.0
 10
8.9430948
 20
7.6678369572
 30
0.0
 10
8.9432900221
 20
7.6678325989
 30
0.0
 10
8.9436972343
 20
7.6677617478
 30
0.0
 10
8.9442872487
 20
7.6674834146
 30
0.0
 10
8.9448692299
 20
7.6670407469
 30
0.0
 10
8.9456959416
 20
7.6661747412
 30
0.0
 10
8.9466975562
 20
7.6646456592
 30
0.0
 10
8.9478284231
 20
7.6623132887
 30
0.0
 10
8.948965009
 20
7.6593778238
 30
0.0
 10
8.9501054056
 20
7.6558635786
 30
0.0
 10
8.9512478026
 20
7.6517994706
 30
0.0
 10
8.9523929271
 20
7.6472236855
 30
0.0
 10
8.953539958
 20
7.6421789232
 30
0.0
 10
8.9551168514
 20
7.6346650911
 30
0.0
 10
8.9570521095
 20
7.6244815508
 30
0.0
 10
8.9593176811
 20
7.6115911023
 30
0.0
 10
8.9615864252
 20
7.5981792408
 30
0.0
 10
8.963854931
 20
7.584754726
 30
0.0
 10
8.9661208162
 20
7.5718255114
 30
0.0
 10
8.9683803067
 20
7.5598815564
 30
0.0
 10
8.9703273159
 20
7.5507663979
 30
0.0
 10
8.9719233474
 20
7.5443155963
 30
0.0
 10
8.973067128
 20
7.5401981986
 30
0.0
 10
8.9742074501
 20
7.5366264709
 30
0.0
 10
8.9753432714
 20
7.5336305231
 30
0.0
 10
8.9764763598
 20
7.5312373133
 30
0.0
 10
8.9774764366
 20
7.5296551614
 30
0.0
 10
8.9783010325
 20
7.5287417639
 30
0.0
 10
8.9788815497
 20
7.5282652973
 30
0.0
 10
8.9794698596
 20
7.5279535913
 30
0.0
 10
8.9798790209
 20
7.5278588796
 30
0.0
 10
8.9800757431
 20
7.5278434413
 30
0.0
  0
SPLINE
  5
6F0
100
AcDbEntity
  8
0
100
AcDbSpline
 62
7
  6
CONTINUOUS
 70
0
 71
3
 72
16
 73
12
 74
0
 42
0.0000001
 43
0.0000001
 44
0.0000000001
 40
0.0
 40
0.0
 40
0.0
 40
0.0
 40
0.0545019832
 40
0.0882710949
 40
0.1270945502
 40
0.2209197666
 40
0.3368109785
 40
0.474114916
 40
0.6316754307
 40
0.8076825605
 40
1.0
 40
1.0
 40
1.0
 40
1.0
 10
9.0554692238
 20
7.5379974607
 30
0.0
 10
9.0559889697
 20
7.5381906563
 30
0.0
 10
9.0567355662
 20
7.5387461798
 30
0.0
 10
9.0575924881
 20
7.5397111462
 30
0.0
 10
9.0585743494
 20
7.5410959658
 30
0.0
 10
9.0597633812
 20
7.543335681
 30
0.0
 10
9.061120256
 20
7.5465978071
 30
0.0
 10
9.0624829326
 20
7.5505504675
 30
0.0
 10
9.0638486506
 20
7.5551431835
 30
0.0
 10
9.065217667
 20
7.560315912
 30
0.0
 10
9.0660967868
 20
7.5639588343
 30
0.0
 10
9.0665409701
 20
7.5658643436
 30
0.0
  0
SPLINE
  5
6F1
100
AcDbEntity
  8
0
100
AcDbSpline
 62
7
  6
CONTINUOUS
 70
0
 71
3
 72
16
 73
12
 74
0
 42
0.0000001
 43
0.0000001
 44
0.0000000001
 40
0.0
 40
0.0
 40
0.0
 40
0.0
 40
0.1914267646
 40
0.3668643564
 40
0.5242425938
 40
0.6616805127
 40
0.7778680302
 40
0.8722279079
 40
0.9113146989
 40
0.9452961452
 40
1.0
 40
1.0
 40
1.0
 40
1.0
 10
9.0796547743
 20
7.6289933078
 30
0.0
 10
9.0801033658
 20
7.6309370186
 30
0.0
 10
9.0809907312
 20
7.6346558399
 30
0.0
 10
9.0823725509
 20
7.6399417695
 30
0.0
 10
9.0837506091
 20
7.6446453027
 30
0.0
 10
9.0851246355
 20
7.6487039627
 30
0.0
 10
9.0864951798
 20
7.6520639151
 30
0.0
 10
9.08769323
 20
7.6543806208
 30
0.0
 10
9.0886828183
 20
7.6558228653
 30
0.0
 10
9.0895468431
 20
7.6568326315
 30
0.0
 10
9.090298064
 20
7.6574232506
 30
0.0
 10
9.0908252697
 20
7.6576400804
 30
0.0
  0
SPLINE
  5
6F2
100
AcDbEntity
  8
0
100
AcDbSpline
 62
7
  6
CONTINUOUS
 70
0
 71
3
 72
16
 73
12
 74
0
 42
0.0000001
 43
0.0000001
 44
0.0000000001
 40
0.0
 40
0.0
 40
0.0
 40
0.0
 40
0.1918946919
 40
0.3676963662
 40
0.525286284
 40
0.6627465024
 40
0.778836599
 40
0.8729115095
 40
0.9118117999
 40
0.9456103515
 40
1.0
 40
1.0
 40
1.0
 40
1.0
 10
8.9309326933
 20
7.6290339359
 30
0.0
 10
8.9313827284
 20
7.6309829948
 30
0.0
 10
8.9322731384
 20
7.6347113067
 30
0.0
 10
8.9336595738
 20
7.6400091398
 30
0.0
 10
8.9350420482
 20
7.6447195873
 30
0.0
 10
8.9364212633
 20
7.6487795238
 30
0.0
 10
8.9377956992
 20
7.6521351538
 30
0.0
 10
8.938998303
 20
7.6544440848
 30
0.0
 10
8.9399923727
 20
7.6558758264
 30
0.0
 10
8.9408591319
 20
7.6568742609
 30
0.0
 10
8.941614375
 20
7.6574538214
 30
0.0
 10
8.9421425149
 20
7.6576600228
 30
0.0
  0
SPLINE
  5
6F3
100
AcDbEntity
  8
0
100
AcDbSpline
 62
7
  6
CONTINUOUS
 70
0
 71
3
 72
35
 73
31
 74
0
 42
0.0000001
 43
0.0000001
 44
0.0000000001
 40
0.0
 40
0.0
 40
0.0
 40
0.0
 40
0.0039904494
 40
0.0083106731
 40
0.0132099427
 40
0.0188579452
 40
0.0327466953
 40
0.0503914648
 40
0.0718940873
 40
0.0971880298
 40
0.1260960647
 40
0.1584093541
 40
0.2126690813
 40
0.2728845164
 40
0.4061979359
 40
0.5473300575
 40
0.6171464394
 40
0.6845144014
 40
0.7480151775
 40
0.8063586986
 40
0.8583394331
 40
0.9029716961
 40
0.9222705613
 40
0.9394507543
 40
0.9544789652
 40
0.967346875
 40
0.9780896847
 40
0.9868421846
 40
0.9939339978
 40
1.0
 40
1.0
 40
1.0
 40
1.0
 10
9.0174522924
 20
7.6678358412
 30
0.0
 10
9.0176480986
 20
7.6678325942
 30
0.0
 10
9.0180567683
 20
7.6677640854
 30
0.0
 10
9.0186496181
 20
7.6674873354
 30
0.0
 10
9.0192340276
 20
7.667043534
 30
0.0
 10
9.0200634061
 20
7.6661723429
 30
0.0
 10
9.0210681536
 20
7.6646351702
 30
0.0
 10
9.0222049706
 20
7.6622910182
 30
0.0
 10
9.0233452301
 20
7.6593380446
 30
0.0
 10
9.0244890047
 20
7.6558021391
 30
0.0
 10
9.0256367024
 20
7.6517135362
 30
0.0
 10
9.0270094691
 20
7.6462144617
 30
0.0
 10
9.0285619719
 20
7.6391790539
 30
0.0
 10
9.0309310531
 20
7.6272511988
 30
0.0
 10
9.0337874378
 20
7.6110766346
 30
0.0
 10
9.0365791967
 20
7.5944143161
 30
0.0
 10
9.0388827144
 20
7.5809513967
 30
0.0
 10
9.0406025846
 20
7.5712539052
 30
0.0
 10
9.0423210694
 20
7.5621284037
 30
0.0
 10
9.0440346538
 20
7.5537710881
 30
0.0
 10
9.0457445097
 20
7.5463604401
 30
0.0
 10
9.0472231637
 20
7.540864927
 30
0.0
 10
9.048433638
 20
7.5370720696
 30
0.0
 10
9.0492963603
 20
7.5346952333
 30
0.0
 10
9.0501573117
 20
7.5326560973
 30
0.0
 10
9.0510166075
 20
7.5309634242
 30
0.0
 10
9.0518755433
 20
7.5296228522
 30
0.0
 10
9.0527415673
 20
7.5286375416
 30
0.0
 10
9.0536295533
 20
7.5280054998
 30
0.0
 10
9.0542765545
 20
7.5278413907
 30
0.0
 10
9.0545742137
 20
7.5278369901
 30
0.0
  0
SPLINE
  5
6F4
100
AcDbEntity
  8
0
100
AcDbSpline
 62
7
  6
CONTINUOUS
 70
0
 71
3
 72
14
 73
10
 74
0
 42
0.0000001
 43
0.0000001
 44
0.0000000001
 40
0.0
 40
0.0
 40
0.0
 40
0.0
 40
0.0581787866
 40
0.1345506832
 40
0.2310597229
 40
0.3480297827
 40
0.4848348339
 40
0.6401790866
 40
1.0
 40
1.0
 40
1.0
 40
1.0
 10
8.9815959587
 20
7.5382331139
 30
0.0
 10
8.9820994856
 20
7.5385253858
 30
0.0
 10
8.9831020626
 20
7.5394662834
 30
0.0
 10
8.9843930425
 20
7.5413908596
 30
0.0
 10
8.985692254
 20
7.5439914053
 30
0.0
 10
8.9869922948
 20
7.5472489695
 30
0.0
 10
8.988297261
 20
7.5511312314
 30
0.0
 10
8.9901333566
 20
7.5573929807
 30
0.0
 10
8.9913680285
 20
7.562400665
 30
0.0
 10
8.9921851471
 20
7.5659075122
 30
0.0
  0
SPLINE
  5
6F5
100
AcDbEntity
  8
0
100
AcDbSpline
 62
7
  6
CONTINUOUS
 70
0
 71
3
 72
15
 73
11
 74
0
 42
0.0000001
 43
0.0000001
 44
0.0000000001
 40
0.0
 40
0.0
 40
0.0
 40
0.0
 40
0.3642116246
 40
0.520835251
 40
0.6580941792
 40
0.7746476488
 40
0.869789748
 40
0.909474154
 40
0.9441291016
 40
1.0
 40
1.0
 40
1.0
 40
1.0
 10
9.0053089336
 20
7.6290793164
 30
0.0
 10
9.0061565117
 20
7.6327470445
 30
0.0
 10
9.0074354711
 20
7.637978669
 30
0.0
 10
9.0093433638
 20
7.6445086604
 30
0.0
 10
9.0106970198
 20
7.6485309171
 30
0.0
 10
9.0120459328
 20
7.6518784828
 30
0.0
 10
9.0132266794
 20
7.654199698
 30
0.0
 10
9.0141982224
 20
7.6556619166
 30
0.0
 10
9.0150487679
 20
7.656701896
 30
0.0
 10
9.0157842248
 20
7.6573244884
 30
0.0
 10
9.0163059308
 20
7.6575720557
 30
0.0
  0
SPLINE
  5
6F6
100
AcDbEntity
  8
0
100
AcDbSpline
 62
7
  6
CONTINUOUS
 70
0
 71
3
 72
30
 73
26
 74
0
 42
0.0000001
 43
0.0000001
 44
0.0000000001
 40
0.0
 40
0.0
 40
0.0
 40
0.0
 40
0.0037119695
 40
0.007676625
 40
0.0120875588
 40
0.0170830988
 40
0.0291526776
 40
0.0443208827
 40
0.0627127929
 40
0.0843039524
 40
0.1090158087
 40
0.1367274354
 40
0.2003618543
 40
0.2734647885
 40
0.3538984949
 40
0.4392949528
 40
0.6146487162
 40
0.699345171
 40
0.7786573422
 40
0.8502224804
 40
0.91199947
 40
0.9386602297
 40
0.9622858161
 40
0.9827588762
 40
1.0
 40
1.0
 40
1.0
 40
1.0
 10
9.0918138321
 20
7.6678375251
 30
0.0
 10
9.0919892193
 20
7.6678348796
 30
0.0
 10
9.0923526349
 20
7.667779973
 30
0.0
 10
9.0928835865
 20
7.6675574082
 30
0.0
 10
9.0934087216
 20
7.6672000317
 30
0.0
 10
9.0941504427
 20
7.6665028844
 30
0.0
 10
9.095055385
 20
7.665264593
 30
0.0
 10
9.0960779609
 20
7.6633631321
 30
0.0
 10
9.0971031632
 20
7.6609641157
 30
0.0
 10
9.0981317843
 20
7.6580840391
 30
0.0
 10
9.0991629917
 20
7.6547410725
 30
0.0
 10
9.1006064722
 20
7.6494494774
 30
0.0
 10
9.1023686915
 20
7.6418786222
 30
0.0
 10
9.1044085587
 20
7.6318205107
 30
0.0
 10
9.1064550667
 20
7.6207164461
 30
0.0
 10
9.1092127452
 20
7.6048314822
 30
0.0
 10
9.1118928342
 20
7.5887289651
 30
0.0
 10
9.1146579763
 20
7.5729326433
 30
0.0
 10
9.1167027243
 20
7.561989604
 30
0.0
 10
9.1187422752
 20
7.552149261
 30
0.0
 10
9.1205044764
 20
7.5447938405
 30
0.0
 10
9.121952692
 20
7.5396994034
 30
0.0
 10
9.1229829864
 20
7.5365172591
 30
0.0
 10
9.1240098457
 20
7.5338054073
 30
0.0
 10
9.1247564196
 20
7.5321840084
 30
0.0
 10
9.1251393248
 20
7.5314648752
 30
0.0
  0
SPLINE
  5
6F7
100
AcDbEntity
  8
0
100
AcDbSpline
 62
7
  6
CONTINUOUS
 70
0
 71
3
 72
40
 73
36
 74
0
 42
0.0000001
 43
0.0000001
 44
0.0000000001
 40
0.0
 40
0.0
 40
0.0
 40
0.0
 40
0.0008999111
 40
0.0028194069
 40
0.0058855164
 40
0.0101201999
 40
0.0155278526
 40
0.0220981507
 40
0.0298125747
 40
0.0386515761
 40
0.0596227635
 40
0.0848379537
 40
0.1140435785
 40
0.1469513149
 40
0.2646470393
 40
0.402594034
 40
0.4754929054
 40
0.5489229981
 40
0.6212907579
 40
0.6910405735
 40
0.7566495719
 40
0.8167171447
 40
0.8699237818
 40
0.8935968155
 40
0.9151447809
 40
0.9344404412
 40
0.9513808674
 40
0.9658878714
 40
0.9778852644
 40
0.9872997946
 40
0.9940892477
 40
0.9965000272
 40
0.9982611476
 40
0.9993939078
 40
1.0
 40
1.0
 40
1.0
 40
1.0
 10
8.921461186
 20
7.5278369986
 30
0.0
 10
8.9214191079
 20
7.5278371853
 30
0.0
 10
8.9213291927
 20
7.5279719947
 30
0.0
 10
8.9212587554
 20
7.528218296
 30
0.0
 10
8.9211633708
 20
7.5286494029
 30
0.0
 10
8.9210759487
 20
7.529233056
 30
0.0
 10
8.9209831716
 20
7.5299871246
 30
0.0
 10
8.9208913667
 20
7.5309027994
 30
0.0
 10
8.920798556
 20
7.5319802574
 30
0.0
 10
8.9206671056
 20
7.533729867
 30
0.0
 10
8.9205068047
 20
7.5362979093
 30
0.0
 10
8.9203225938
 20
7.5398183214
 30
0.0
 10
8.9201375437
 20
7.5438975127
 30
0.0
 10
8.9197989008
 20
7.5522983184
 30
0.0
 10
8.9193569859
 20
7.5657834417
 30
0.0
 10
8.9189180278
 20
7.581139269
 30
0.0
 10
8.9185537885
 20
7.5944266052
 30
0.0
 10
8.9182755695
 20
7.6046487541
 30
0.0
 10
8.9179973886
 20
7.6147236055
 30
0.0
 10
8.9177195164
 20
7.6244326197
 30
0.0
 10
8.9174419688
 20
7.6335662607
 30
0.0
 10
8.917165192
 20
7.6419260058
 30
0.0
 10
8.91692711
 20
7.6483250642
 30
0.0
 10
8.916733155
 20
7.6529233149
 30
0.0
 10
8.9165936456
 20
7.6559368043
 30
0.0
 10
8.9164543767
 20
7.6586351173
 30
0.0
 10
8.9163154182
 20
7.6610037683
 30
0.0
 10
8.9161771217
 20
7.6630304356
 30
0.0
 10
8.916039851
 20
7.6647046254
 30
0.0
 10
8.9159046043
 20
7.6660159064
 30
0.0
 10
8.9157839742
 20
7.66687942
 30
0.0
 10
8.91568356
 20
7.6673808693
 30
0.0
 10
8.9156130499
 20
7.6676217105
 30
0.0
 10
8.9155562079
 20
7.6677698161
 30
0.0
 10
8.9154892456
 20
7.66783709
 30
0.0
 10
8.9154609059
 20
7.6678372179
 30
0.0
  0
ENDSEC
  0
SECTION
  2
OBJECTS
  0
DICTIONARY
  5
C
100
AcDbDictionary
280
0
281
1
  3
ACAD_GROUP
350
D
  3
ACAD_MLINESTYLE
350
17
  3
ACAD_LAYOUT
350
1A
  3
ACAD_PLOTSETTINGS
350
19
  3
ACAD_PLOTSTYLENAME
350
E
  3
ACAD_TABLESTYLE
350
       6F8
  0
DICTIONARY
  5
D
102
{ACAD_REACTORS
330
C
102
}
100
AcDbDictionary
280
0
281
1
  0
ACDBDICTIONARYWDFLT
  5
E
102
{ACAD_REACTORS
330
C
102
}
100
AcDbDictionary
281
1
  3
Normal
350
F
100
AcDbDictionaryWithDefault
340
F
  0
DICTIONARY
  5
17
102
{ACAD_REACTORS
330
C
102
}
100
AcDbDictionary
280
0
281
1
  3
Standard
350
18
  0
DICTIONARY
  5
6F8
330
C
100
AcDbDictionary
281
1
  3
Standard
350
       6FB
  3
Standard1
350
       6FC
  0
DICTIONARY
  5
19
102
{ACAD_REACTORS
330
C
102
}
100
AcDbDictionary
281
1
  0
DICTIONARY
  5
1A
102
{ACAD_REACTORS
330
C
102
}
100
AcDbDictionary
281
1
  3
Model
350
6F9
  3
Layout1
350
6FA
  0
ACDBPLACEHOLDER
  5
F
102
{ACAD_REACTORS
330
E
102
}
  0
MLINESTYLE
  5
18
102
{ACAD_REACTORS
330
17
102
}
100
AcDbMlineStyle
  2
STANDARD
 70
0
  3

 62
256
 51
90.0
 52
90.0
 71
2
 49
0.5
 62
256
  6
BYLAYER
 49
-0.5
 62
256
  6
BYLAYER
  0
LAYOUT
  5
6F9
102
{ACAD_REACTORS
330
1A
102
}
100
AcDbPlotSettings
  1

  2
none_device
  4
ANSI_B_(17.00_x_11.00_Inches)
  6

 40
0.0
 41
0.0
 42
0.0
 43
0.0
 44
431.8
 45
279.4
 46
0.0
 47
0.0
 48
0.0
 49
0.0
140
0.0
141
0.0
142
1.0
143
1.0
 70
1024
 72
0
 73
0
 74
0
  7

 75
0
147
1.0
148
0.0
149
0.0
100
AcDbLayout
  1
Model
 70
0
 71
0
 10
0.0
 20
0.0
 11
17.0
 21
11.0
 12
0.0
 22
0.0
 32
0.0
 14
0.0
 24
0.0
 34
0.0
 15
0.0
 25
0.0
 35
0.0
146
0.0
 13
0.0
 23
0.0
 33
0.0
 16
1.0
 26
0.0
 36
0.0
 17
0.0
 27
1.0
 37
0.0
 76
0
330
22F
345
0
346
0
  0
LAYOUT
  5
6FA
102
{ACAD_REACTORS
330
1A
102
}
100
AcDbPlotSettings
  1

  2
none_device
  4
ANSI_B_(17.00_x_11.00_Inches)
  6

 40
0.0
 41
0.0
 42
0.0
 43
0.0
 44
431.8
 45
279.4
 46
0.0
 47
0.0
 48
0.0
 49
0.0
140
0.0
141
0.0
142
1.0
143
1.0
 70
0
 72
0
 73
0
 74
0
  7

 75
0
147
1.0
148
0.0
149
0.0
100
AcDbLayout
  1
Layout1
 70
0
 71
1
 10
0.0
 20
0.0
 11
17.0
 21
11.0
 12
0.0
 22
0.0
 32
0.0
 14
0.0
 24
0.0
 34
0.0
 15
0.0
 25
0.0
 35
0.0
146
0.0
 13
0.0
 23
0.0
 33
0.0
 16
1.0
 26
0.0
 36
0.0
 17
0.0
 27
1.0
 37
0.0
 76
0
330
230
345
0
346
0
  0
TABLESTYLE
  5
6FB
102
{ACAD_REACTORS
330
6F8
330
2D8
330
2D9
330
2DA
102
}
330
6F8
100
AcDbTableStyle
  3
Standard
 70
0
 71
0
 40
0.06
 41
0.06
280
1
281
1
  7
Standard
140
0.18
170
1
 62
0
 63
7
283
0
  7
Standard
140
0.18
170
1
 62
0
 63
7
283
0
  7
Standard
140
0.18
170
1
 62
0
 63
7
283
0
  0
TABLESTYLE
  5
6FC
102
{ACAD_REACTORS
330
6F8
102
}
330
6F8
100
AcDbTableStyle
  3
Standard1
 70
1
 71
0
 40
0.06
 41
0.06
280
1
281
1
  7
Standard
140
0.18
170
1
 62
0
 63
7
283
0
  7
Standard
140
0.18
170
1
 62
0
 63
7
283
0
  7
Standard
140
0.18
170
1
 62
0
 63
7
283
0
  0
ENDSEC
  0
EOF
