999
DXF file: C:\Users\jjorden\Desktop\cu_pxi-8432-33_2ch.dxf
999
Pro/ENGINEER 2021063 by Parametric Technology Corporation
  0
SECTION
  2
HEADER
  9
$ACADVER
  1
AC1032
  9
$DWGCODEPAGE
  3
ANSI_1252
  9
$EXTMAX
 10
17.0
 20
11.0
 30
0.0
  9
$EXTMIN
 10
0.0
 20
0.0
 30
0.0
  9
$LIMMIN
 10
0.0
 20
0.0
  9
$LIMMAX
 10
17.0
 20
11.0
  9
$VIEWCTR
 10
8.5
 20
5.5
  9
$VIEWSIZE
 40
11.0
  9
$CLAYER
  8
0
  9
$LTSCALE
 40
0.935
  9
$CELTYPE
  6
BYLAYER
  9
$DIMSCALE
 40
1.0
  9
$DIMASZ
 40
0.18
  9
$DIMEXO
 40
0.0625
  9
$DIMDLI
 40
0.646
  9
$DIMEXE
 40
0.125
  9
$DIMCEN
 40
0.153
  9
$DIMLFAC
 40
1.0
  9
$DIMBLK
  1
_FILLED
  9
$DIMALT
 70
1
  9
$DIMALTD
 70
1
  9
$DIMALTTD
 70
2
  9
$DIMALTF
 40
25.4
  9
$DIMTXT
 40
0.125
  9
$DIMTOL
 70
1
  9
$DIMLIM
 70
0
  9
$DIMTFAC
 40
1.0
  9
$DIMTP
 40
0.5
  9
$DIMTM
 40
0.5
  9
$DIMGAP
 40
0.09
  9
$DIMDSEP
 70
46
  9
$AUNITS
 70
0
  9
$PDMODE
 70
3
  9
$PDSIZE
 40
0.3125
  9
$HANDSEED
  5
754
  9
$TILEMODE
 70
1
  9
$MEASUREMENT
 70
0
  9
$INSUNITS
 70
1
  0
ENDSEC
  0
SECTION
  2
CLASSES
  0
CLASS
  1
ACDBDICTIONARYWDFLT
  2
AcDbDictionaryWithDefault
  3
AutoCAD 2000
 90
0
 91
1
280
0
281
0
  0
CLASS
  1
ACDBPLACEHOLDER
  2
AcDbPlaceHolder
  3
AutoCAD 2000
 90
0
 91
1
280
0
281
0
  0
CLASS
  1
LAYOUT
  2
AcDbLayout
  3
AutoCAD 2000
 90
0
 91
0
280
0
281
0
  0
CLASS
  1
TABLESTYLE
  2
AcDbTableStyle
  3
ObjectDBX Classes
 90
2047
 91
1
280
0
281
0
  0
CLASS
  1
ACAD_TABLE
  2
AcDbTable
  3
ObjectDBX Classes
 90
1025
 91
3
280
0
281
1
  0
ENDSEC
  0
SECTION
  2
TABLES
  0
TABLE
  2
VPORT
  5
8
100
AcDbSymbolTable
 70
2
  0
VPORT
  5
1F4
100
AcDbSymbolTableRecord
100
AcDbViewportTableRecord
  2
*ACTIVE
 70
0
 10
0.0
 20
0.0
 11
1.0
 21
1.0
 12
8.5
 22
5.5
 13
0.0
 23
0.0
 14
1.0
 24
1.0
 15
0.0
 25
0.0
 16
0.0
 26
0.0
 36
1.0
 17
0.0
 27
0.0
 37
0.0
 40
11.0
 41
1.5454545455
 42
50.0
 43
0.0
 44
0.0
 50
0.0
 51
0.0
 71
0
 72
100
 73
1
 74
1
 75
0
 76
0
 77
0
 78
0
  0
ENDTAB
  0
TABLE
  2
LTYPE
  5
5
100
AcDbSymbolTable
 70
6
  0
LTYPE
  5
14
100
AcDbSymbolTableRecord
100
AcDbLinetypeTableRecord
  2
BYBLOCK
 70
0
  3

 72
65
 73
0
 40
0.0
  0
LTYPE
  5
15
100
AcDbSymbolTableRecord
100
AcDbLinetypeTableRecord
  2
BYLAYER
 70
0
  3

 72
65
 73
0
 40
0.0
  0
LTYPE
  5
16
100
AcDbSymbolTableRecord
100
AcDbLinetypeTableRecord
  2
CONTINUOUS
 70
64
  3
Solid line
 72
65
 73
0
 40
0.0
  0
LTYPE
  5
1F5
100
AcDbSymbolTableRecord
100
AcDbLinetypeTableRecord
  2
CENTER
 70
64
  3
____ _ ____ _ ____ _ ____ _ ____ _ ____ _ ____
 72
65
 73
4
 40
0.6
 49
0.375
 74
0
 49
-0.075
 74
0
 49
0.075
 74
0
 49
-0.075
 74
0
  0
LTYPE
  5
1F6
100
AcDbSymbolTableRecord
100
AcDbLinetypeTableRecord
  2
HIDDEN
 70
64
  3
- - - - - - - - - - - - - - - - - - - -
 72
65
 73
2
 40
0.2
 49
0.1
 74
0
 49
-0.1
 74
0
  0
LTYPE
  5
1F7
100
AcDbSymbolTableRecord
100
AcDbLinetypeTableRecord
  2
PHANTOM
 70
64
  3
_____ _ _ _____ _ _ _____ _ _ _____
 72
65
 73
6
 40
0.8
 49
0.45
 74
0
 49
-0.05
 74
0
 49
0.1
 74
0
 49
-0.05
 74
0
 49
0.1
 74
0
 49
-0.05
 74
0
  0
LTYPE
  5
1F8
100
AcDbSymbolTableRecord
100
AcDbLinetypeTableRecord
  2
DOT
 70
64
  3
. . . . . . . . . . . . . . . . . . . .
 72
65
 73
2
 40
0.2
 49
0.1
 74
0
 49
-0.1
 74
0
  0
LTYPE
  5
1F9
100
AcDbSymbolTableRecord
100
AcDbLinetypeTableRecord
  2
DASHED
 70
64
  3
- - - - - - - - - - - - - - - - - - - -
 72
65
 73
2
 40
0.2
 49
0.1
 74
0
 49
-0.1
 74
0
  0
ENDTAB
  0
TABLE
  2
LAYER
  5
2
100
AcDbSymbolTable
 70
36
  0
LAYER
  5
10
100
AcDbSymbolTableRecord
100
AcDbLayerTableRecord
  2
0
 70
0
 62
7
  6
CONTINUOUS
370
-3
390
F
  0
LAYER
  5
1FA
100
AcDbSymbolTableRecord
100
AcDbLayerTableRecord
  2
DEFAULT_1
 70
0
 62
7
  6
CENTER
370
-3
390
F
  0
LAYER
  5
1FB
100
AcDbSymbolTableRecord
100
AcDbLayerTableRecord
  2
DEFAULT_2
 70
0
 62
8
  6
HIDDEN
370
-3
390
F
  0
LAYER
  5
1FC
100
AcDbSymbolTableRecord
100
AcDbLayerTableRecord
  2
DEFAULT_3
 70
0
 62
7
  6
PHANTOM
370
-3
390
F
  0
LAYER
  5
1FD
100
AcDbSymbolTableRecord
100
AcDbLayerTableRecord
  2
COOR_SYS
 70
0
 62
7
  6
CONTINUOUS
370
-3
390
F
  0
LAYER
  5
1FE
100
AcDbSymbolTableRecord
100
AcDbLayerTableRecord
  2
COSMETIC
 70
0
 62
7
  6
CONTINUOUS
370
-3
390
F
  0
LAYER
  5
1FF
100
AcDbSymbolTableRecord
100
AcDbLayerTableRecord
  2
DATUM
 70
0
 62
7
  6
CONTINUOUS
370
-3
390
F
  0
LAYER
  5
200
100
AcDbSymbolTableRecord
100
AcDbLayerTableRecord
  2
DATUMCURVES
 70
0
 62
7
  6
CONTINUOUS
370
-3
390
F
  0
LAYER
  5
201
100
AcDbSymbolTableRecord
100
AcDbLayerTableRecord
  2
DETAIL
 70
0
 62
7
  6
CONTINUOUS
370
-3
390
F
  0
LAYER
  5
202
100
AcDbSymbolTableRecord
100
AcDbLayerTableRecord
  2
DIMENSIONS
 70
0
 62
7
  6
CONTINUOUS
370
-3
390
F
  0
LAYER
  5
203
100
AcDbSymbolTableRecord
100
AcDbLayerTableRecord
  2
NOTE
 70
0
 62
7
  6
CONTINUOUS
370
-3
390
F
  0
LAYER
  5
204
100
AcDbSymbolTableRecord
100
AcDbLayerTableRecord
  2
NOTES
 70
0
 62
7
  6
CONTINUOUS
370
-3
390
F
  0
LAYER
  5
205
100
AcDbSymbolTableRecord
100
AcDbLayerTableRecord
  2
REF_DIM
 70
0
 62
7
  6
CONTINUOUS
370
-3
390
F
  0
LAYER
  5
206
100
AcDbSymbolTableRecord
100
AcDbLayerTableRecord
  2
_LAYER_1_
 70
0
 62
7
  6
CONTINUOUS
370
-3
390
F
  0
ENDTAB
  0
TABLE
  2
STYLE
  5
3
100
AcDbSymbolTable
 70
1
  0
STYLE
  5
11
100
AcDbSymbolTableRecord
100
AcDbTextStyleTableRecord
  2
STANDARD
 70
0
 40
0.0
 41
0.8
 50
0.0
 71
0
 42
0.2
  3
txt
  4

  0
STYLE
  5
207
100
AcDbSymbolTableRecord
100
AcDbTextStyleTableRecord
  2
TEXTSTYLE_1
 70
0
 40
0.0
 41
0.8
 50
0.0
 71
0
 42
0.2
  3
gdt
  4

  0
STYLE
  5
208
100
AcDbSymbolTableRecord
100
AcDbTextStyleTableRecord
  2
TEXTSTYLE_2
 70
0
 40
0.0
 41
1.0
 50
0.0
 71
0
 42
0.2
  3
txt
  4

  0
STYLE
  5
209
100
AcDbSymbolTableRecord
100
AcDbTextStyleTableRecord
  2
TEXTSTYLE_3
 70
0
 40
0.0
 41
0.95
 50
0.0
 71
0
 42
0.2
  3
txt
  4

  0
STYLE
  5
20A
100
AcDbSymbolTableRecord
100
AcDbTextStyleTableRecord
  2
TEXTSTYLE_4
 70
0
 40
0.0
 41
1.0
 50
0.0
 71
0
 42
0.2
  3
symbol_asme.ttf
  4

  0
ENDTAB
  0
TABLE
  2
VIEW
  5
6
100
AcDbSymbolTable
 70
0
  0
ENDTAB
  0
TABLE
  2
UCS
  5
7
100
AcDbSymbolTable
 70
0
  0
ENDTAB
  0
TABLE
  2
APPID
  5
9
100
AcDbSymbolTable
 70
1
  0
APPID
  5
20B
100
AcDbSymbolTableRecord
100
AcDbRegAppTableRecord
  2
ACAD
 70
0
  0
ENDTAB
  0
TABLE
  2
BLOCK_RECORD
  5
1
100
AcDbSymbolTable
 70
0
  0
BLOCK_RECORD
  5
20C
100
AcDbSymbolTableRecord
100
AcDbBlockTableRecord
  2
*Model_Space
  0
BLOCK_RECORD
  5
20D
100
AcDbSymbolTableRecord
100
AcDbBlockTableRecord
  2
*Paper_Space
  0
BLOCK_RECORD
  5
20E
100
AcDbSymbolTableRecord
100
AcDbBlockTableRecord
  2
_FILLED
  0
BLOCK_RECORD
  5
20F
100
AcDbSymbolTableRecord
100
AcDbBlockTableRecord
  2
*D0
  0
BLOCK_RECORD
  5
210
100
AcDbSymbolTableRecord
100
AcDbBlockTableRecord
  2
*D1
  0
BLOCK_RECORD
  5
211
100
AcDbSymbolTableRecord
100
AcDbBlockTableRecord
  2
*D2
  0
BLOCK_RECORD
  5
212
100
AcDbSymbolTableRecord
100
AcDbBlockTableRecord
  2
*D3
  0
BLOCK_RECORD
  5
213
100
AcDbSymbolTableRecord
100
AcDbBlockTableRecord
  2
*D4
  0
BLOCK_RECORD
  5
214
100
AcDbSymbolTableRecord
100
AcDbBlockTableRecord
  2
*D5
  0
BLOCK_RECORD
  5
215
100
AcDbSymbolTableRecord
100
AcDbBlockTableRecord
  2
*D6
  0
BLOCK_RECORD
  5
216
100
AcDbSymbolTableRecord
100
AcDbBlockTableRecord
  2
*D7
  0
BLOCK_RECORD
  5
217
100
AcDbSymbolTableRecord
100
AcDbBlockTableRecord
  2
*D8
  0
BLOCK_RECORD
  5
218
100
AcDbSymbolTableRecord
100
AcDbBlockTableRecord
  2
*D9
  0
BLOCK_RECORD
  5
219
100
AcDbSymbolTableRecord
100
AcDbBlockTableRecord
  2
*D10
  0
BLOCK_RECORD
  5
21A
100
AcDbSymbolTableRecord
100
AcDbBlockTableRecord
  2
*D11
  0
BLOCK_RECORD
  5
21B
100
AcDbSymbolTableRecord
100
AcDbBlockTableRecord
  2
*D12
  0
BLOCK_RECORD
  5
21C
100
AcDbSymbolTableRecord
100
AcDbBlockTableRecord
  2
*D13
  0
BLOCK_RECORD
  5
21D
100
AcDbSymbolTableRecord
100
AcDbBlockTableRecord
  2
*D14
  0
BLOCK_RECORD
  5
21E
100
AcDbSymbolTableRecord
100
AcDbBlockTableRecord
  2
*D15
  0
BLOCK_RECORD
  5
21F
100
AcDbSymbolTableRecord
100
AcDbBlockTableRecord
  2
*D16
  0
BLOCK_RECORD
  5
220
100
AcDbSymbolTableRecord
100
AcDbBlockTableRecord
  2
*D17
  0
BLOCK_RECORD
  5
221
100
AcDbSymbolTableRecord
100
AcDbBlockTableRecord
  2
*D18
  0
BLOCK_RECORD
  5
222
100
AcDbSymbolTableRecord
100
AcDbBlockTableRecord
  2
NOTES_HEADER_BL2
  0
BLOCK_RECORD
  5
223
100
AcDbSymbolTableRecord
100
AcDbBlockTableRecord
  2
METRIC_BL1
  0
BLOCK_RECORD
  5
224
100
AcDbSymbolTableRecord
100
AcDbBlockTableRecord
  2
CUSTOM_NOTE_BL0
  0
BLOCK_RECORD
  5
225
100
AcDbSymbolTableRecord
100
AcDbBlockTableRecord
  2
*T1
  0
BLOCK_RECORD
  5
226
100
AcDbSymbolTableRecord
100
AcDbBlockTableRecord
  2
*T2
  0
BLOCK_RECORD
  5
227
100
AcDbSymbolTableRecord
100
AcDbBlockTableRecord
  2
*T3
  0
ENDTAB
  0
TABLE
  2
DIMSTYLE
  5
A
100
AcDbSymbolTable
 70
1
100
AcDbDimStyleTable
 71
0
  0
DIMSTYLE
105
228
100
AcDbSymbolTableRecord
100
AcDbDimStyleTableRecord
  2
STANDARD
 70
0
  3

  4

 40
1.0
 41
0.18
 42
0.0625
 43
0.38
 44
0.125
 45
0.0
 46
0.0
 47
0.5
 48
0.5
140
0.125
141
0.09
142
0.0
143
1.0
144
1.0
145
0.0
146
1.0
147
0.09
 71
1
 72
0
 73
1
 74
1
 75
0
 76
0
 77
0
 78
0
 79
0
170
1
171
1
172
0
173
0
174
0
175
0
176
0
177
0
178
0
270
2
179
2
271
2
272
2
273
2
274
2
275
0
280
0
281
0
282
0
283
1
284
0
285
0
286
0
287
3
288
0
340
11
278
46
341
20E
342
20E
343
20E
344
20E
  0
DIMSTYLE
105
229
100
AcDbSymbolTableRecord
100
AcDbDimStyleTableRecord
  2
DIMSTYLE_1
 70
0
  3

  4

 40
1.0
 41
0.18
 42
0.0625
 43
0.38
 44
0.125
 45
0.0
 46
0.0
 47
0.254
 48
0.254
140
0.125
141
0.09
142
0.0
143
1.0
144
1.0
145
0.0
146
1.0
147
0.0625
 71
0
 72
0
 73
1
 74
1
 75
0
 76
0
 77
0
 78
0
 79
0
170
1
171
2
172
0
173
0
174
0
175
0
176
0
177
0
178
0
270
2
179
2
271
1
272
1
273
2
274
2
275
0
280
0
281
0
282
0
283
1
284
0
285
0
286
0
287
3
288
0
340
11
278
46
341
20E
342
20E
343
20E
344
20E
  0
DIMSTYLE
105
22A
100
AcDbSymbolTableRecord
100
AcDbDimStyleTableRecord
  2
DIMSTYLE_2
 70
0
  3

  4

 40
1.0
 41
0.18
 42
0.0625
 43
0.38
 44
0.125
 45
0.0
 46
0.0
 47
0.0
 48
0.0
140
0.125
141
0.09
142
0.0
143
1.0
144
1.0
145
0.0
146
1.0
147
0.03125
 71
0
 72
0
 73
1
 74
1
 75
0
 76
0
 77
0
 78
0
 79
0
170
1
171
2
172
0
173
0
174
0
175
0
176
0
177
0
178
0
270
2
179
2
271
1
272
1
273
2
274
2
275
0
280
0
281
0
282
0
283
1
284
0
285
0
286
0
287
3
288
0
340
11
278
46
341
20E
342
20E
343
20E
344
20E
  0
DIMSTYLE
105
22B
100
AcDbSymbolTableRecord
100
AcDbDimStyleTableRecord
  2
DIMSTYLE_3
 70
0
  3

  4

 40
1.0
 41
0.18
 42
0.0625
 43
0.38
 44
0.125
 45
0.0
 46
0.0
 47
0.01
 48
0.01
140
0.125
141
0.09
142
0.0
143
1.0
144
1.0
145
0.0
146
1.0
147
0.03125
 71
0
 72
0
 73
1
 74
1
 75
0
 76
0
 77
0
 78
0
 79
0
170
1
171
2
172
0
173
0
174
0
175
0
176
0
177
0
178
0
270
2
179
2
271
1
272
1
273
2
274
2
275
0
280
0
281
0
282
0
283
1
284
0
285
0
286
0
287
3
288
0
340
11
278
46
341
20E
342
20E
343
20E
344
20E
  0
DIMSTYLE
105
22C
100
AcDbSymbolTableRecord
100
AcDbDimStyleTableRecord
  2
DIMSTYLE_4
 70
0
  3

  4

 40
1.0
 41
0.18
 42
0.0625
 43
0.38
 44
0.125
 45
0.0
 46
0.0
 47
0.01
 48
0.01
140
0.125
141
0.09
142
0.0
143
1.0
144
1.0
145
0.0
146
1.0
147
0.0625
 71
0
 72
0
 73
1
 74
1
 75
0
 76
0
 77
0
 78
0
 79
0
170
1
171
2
172
0
173
0
174
0
175
0
176
0
177
0
178
0
270
2
179
2
271
1
272
1
273
2
274
2
275
0
280
0
281
0
282
0
283
1
284
0
285
0
286
0
287
3
288
0
340
11
278
46
341
20E
342
20E
343
20E
344
20E
  0
ENDTAB
  0
ENDSEC
  0
SECTION
  2
BLOCKS
  0
BLOCK
  5
20
100
AcDbEntity
  8
0
100
AcDbBlockBegin
  2
*Model_Space
 70
0
 10
0.0
 20
0.0
 30
0.0
  3
*Model_Space
  1

  0
ENDBLK
  5
21
100
AcDbEntity
  8
0
100
AcDbBlockEnd
  0
BLOCK
  5
1C
100
AcDbEntity
  8
0
100
AcDbBlockBegin
  2
*Paper_Space
 70
0
 10
0.0
 20
0.0
 30
0.0
  3
*Paper_Space
  1

  0
ENDBLK
  5
1D
100
AcDbEntity
  8
0
100
AcDbBlockEnd
  0
BLOCK
  5
22D
100
AcDbEntity
  8
DETAIL
100
AcDbBlockBegin
 62
2
  6
CONTINUOUS
  2
NOTES_HEADER_BL2
 70
64
 10
3.1215
 20
0.9375
  3
NOTES_HEADER_BL2
  1

  0
TEXT
  5
22E
100
AcDbEntity
  8
DETAIL
100
AcDbText
 62
2
  6
CONTINUOUS
 10
0.9375
 20
0.8595
  7
STANDARD
 40
0.156
  1
NOTES:  UNLESS OTHERWISE SPECIFIED.
 41
0.8
 72
0
100
AcDbText
  0
ENDBLK
  5
22F
100
AcDbEntity
  8
0
  6
BYBLOCK
 62
0
100
AcDbBlockEnd
  0
BLOCK
  5
230
100
AcDbEntity
  8
0
100
AcDbBlockBegin
 62
2
  6
CONTINUOUS
  2
METRIC_BL1
 70
64
 10
12.2427668563
 20
2.2045347211
  3
METRIC_BL1
  1

  0
TEXT
  5
231
100
AcDbEntity
  8
0
100
AcDbText
 62
2
  6
CONTINUOUS
 10
11.7640862908
 20
2.1034262814
  7
STANDARD
 40
0.2
  1
METRIC
 41
0.8
 72
0
100
AcDbText
  0
LWPOLYLINE
  5
232
100
AcDbEntity
  8
0
100
AcDbPolyline
 62
7
  6
CONTINUOUS
 90
2
 70
0
 43
0.0154545455
 10
11.5627668563
 20
2.3845347211
 10
12.9227668563
 20
2.3845347211
  0
LWPOLYLINE
  5
233
100
AcDbEntity
  8
0
100
AcDbPolyline
 62
7
  6
CONTINUOUS
 90
2
 70
0
 43
0.0154545455
 10
11.5627668563
 20
2.0245347211
 10
12.9227668563
 20
2.0245347211
  0
LWPOLYLINE
  5
234
100
AcDbEntity
  8
0
100
AcDbPolyline
 62
7
  6
CONTINUOUS
 90
2
 70
0
 43
0.0154545455
 10
12.9227668563
 20
2.3845347211
 10
12.9227668563
 20
2.0245347211
  0
LWPOLYLINE
  5
235
100
AcDbEntity
  8
0
100
AcDbPolyline
 62
7
  6
CONTINUOUS
 90
2
 70
0
 43
0.0154545455
 10
11.5627668563
 20
2.3845347211
 10
11.5627668563
 20
2.0245347211
  0
ENDBLK
  5
236
100
AcDbEntity
  8
0
  6
BYBLOCK
 62
0
100
AcDbBlockEnd
  0
BLOCK
  5
237
100
AcDbEntity
  8
0
100
AcDbBlockBegin
 62
2
  6
CONTINUOUS
  2
CUSTOM_NOTE_BL0
 70
64
 10
3.6750529031
 20
1.3123857822
  3
CUSTOM_NOTE_BL0
  1

  0
TEXT
  5
238
100
AcDbEntity
  8
0
100
AcDbText
 62
2
  6
CONTINUOUS
 10
0.9376058062
 20
1.2497715643
  7
STANDARD
 40
0.125
  1
1.
 41
0.8
 72
0
100
AcDbText
  0
TEXT
  5
239
100
AcDbEntity
  8
0
100
AcDbText
 62
2
  6
CONTINUOUS
 10
1.3125
 20
1.25
  7
STANDARD
 40
0.125
  1
REFER TO PRODUCT MANUAL ON NI.COM FOR MORE DETAILS.
 41
0.8
 72
0
100
AcDbText
  0
ENDBLK
  5
23A
100
AcDbEntity
  8
0
  6
BYBLOCK
 62
0
100
AcDbBlockEnd
  0
BLOCK
  5
23B
100
AcDbEntity
  8
0
100
AcDbBlockBegin
  2
_FILLED
 70
64
 10
0.0
 20
0.0
  3
_FILLED
  1

  0
SOLID
  5
23C
100
AcDbEntity
  8
0
  6
BYBLOCK
 62
0
100
AcDbTrace
 10
0.0
 20
0.0
 11
-1.0
 21
0.1736111111
 12
-1.0
 22
-0.1736111111
 13
-1.0
 23
-0.1736111111
  0
ENDBLK
  5
23D
100
AcDbEntity
  8
0
  6
BYBLOCK
 62
0
100
AcDbBlockEnd
  0
BLOCK
  5
23E
100
AcDbEntity
  8
DIMENSIONS
100
AcDbBlockBegin
 62
2
  6
CONTINUOUS
  2
*D0
 70
65
 10
0.0
 20
0.0
  3
*D0
  1

  0
MTEXT
  5
23F
100
AcDbEntity
  8
DIMENSIONS
100
AcDbMText
 62
2
  6
CONTINUOUS
  7
STANDARD
 71
2
 72
1
 10
15.1875
 20
6.1735538381
 30
0.0
 11
1.0
 21
0.0
 31
0.0
 73
2
 44
0.9
  1
128.6{\ftxt.shx;\W1.000000;\H0.125000; }[5.06]
 40
0.125
 41
1.225
  0
LINE
  5
240
100
AcDbEntity
  8
DIMENSIONS
100
AcDbLine
 62
2
  6
CONTINUOUS
 10
7.0624824164
 20
3.5786988381
 11
15.3125
 21
3.5786988381
  0
LINE
  5
241
100
AcDbEntity
  8
DIMENSIONS
100
AcDbLine
 62
2
  6
CONTINUOUS
 10
7.0644824164
 20
8.6434088381
 11
15.3125
 21
8.6434088381
  0
LINE
  5
242
100
AcDbEntity
  8
DIMENSIONS
100
AcDbLine
 62
2
  6
CONTINUOUS
 10
15.1875
 20
3.5786988381
 11
15.1875
 21
5.9860538381
  0
LINE
  5
243
100
AcDbEntity
  8
DIMENSIONS
100
AcDbLine
 62
2
  6
CONTINUOUS
 10
15.1875
 20
8.6434088381
 11
15.1875
 21
6.2360538381
  0
INSERT
  5
244
100
AcDbEntity
  8
DIMENSIONS
100
AcDbBlockReference
 62
2
  6
CONTINUOUS
  2
_FILLED
 10
15.1875
 20
3.5786988381
 41
0.18
 42
0.18
 43
0.18
 50
270.0
  0
INSERT
  5
245
100
AcDbEntity
  8
DIMENSIONS
100
AcDbBlockReference
 62
2
  6
CONTINUOUS
  2
_FILLED
 10
15.1875
 20
8.6434088381
 41
0.18
 42
0.18
 43
0.18
 50
90.0
  0
ENDBLK
  5
246
100
AcDbEntity
  8
0
  6
BYBLOCK
 62
0
100
AcDbBlockEnd
  0
BLOCK
  5
247
100
AcDbEntity
  8
DIMENSIONS
100
AcDbBlockBegin
 62
2
  6
CONTINUOUS
  2
*D1
 70
65
 10
0.0
 20
0.0
  3
*D1
  1

  0
MTEXT
  5
248
100
AcDbEntity
  8
DIMENSIONS
100
AcDbMText
 62
2
  6
CONTINUOUS
  7
STANDARD
 71
1
 72
1
 10
6.9394824164
 20
9.1439088381
 30
0.0
 11
0.0
 21
1.0
 31
0.0
 73
2
 44
0.9
  1
0.0{\ftxt.shx;\W1.000000;\H0.125000; }[.00]
 40
0.125
 41
0.925
  0
LINE
  5
249
100
AcDbEntity
  8
DIMENSIONS
100
AcDbLine
 62
2
  6
CONTINUOUS
 10
7.0019824164
 20
8.7059088381
 11
7.0019824164
 21
9.0814088381
  0
ENDBLK
  5
24A
100
AcDbEntity
  8
0
  6
BYBLOCK
 62
0
100
AcDbBlockEnd
  0
BLOCK
  5
24B
100
AcDbEntity
  8
DIMENSIONS
100
AcDbBlockBegin
 62
2
  6
CONTINUOUS
  2
*D2
 70
65
 10
0.0
 20
0.0
  3
*D2
  1

  0
MTEXT
  5
24C
100
AcDbEntity
  8
DIMENSIONS
100
AcDbMText
 62
2
  6
CONTINUOUS
  7
STANDARD
 71
1
 72
1
 10
6.2552409128
 20
9.1439088381
 30
0.0
 11
0.0
 21
1.0
 31
0.0
 73
2
 44
0.9
  1
4X 8.1{\ftxt.shx;\W1.000000;\H0.125000; }[.32]\PJACKSCREW
 40
0.125
 41
1.225
  0
LINE
  5
24D
100
AcDbEntity
  8
DIMENSIONS
100
AcDbLine
 62
2
  6
CONTINUOUS
 10
6.6829824164
 20
7.6603171058
 11
6.6829824164
 21
8.1084799886
  0
LINE
  5
24E
100
AcDbEntity
  8
DIMENSIONS
100
AcDbLine
 62
2
  6
CONTINUOUS
 10
6.6829824164
 20
8.1084799886
 11
6.3177409128
 21
8.4749528599
  0
LINE
  5
24F
100
AcDbEntity
  8
DIMENSIONS
100
AcDbLine
 62
2
  6
CONTINUOUS
 10
6.3177409128
 20
8.4749528599
 11
6.3177409128
 21
9.0814088381
  0
ENDBLK
  5
250
100
AcDbEntity
  8
0
  6
BYBLOCK
 62
0
100
AcDbBlockEnd
  0
BLOCK
  5
251
100
AcDbEntity
  8
DIMENSIONS
100
AcDbBlockBegin
 62
2
  6
CONTINUOUS
  2
*D3
 70
65
 10
0.0
 20
0.0
  3
*D3
  1

  0
MTEXT
  5
252
100
AcDbEntity
  8
DIMENSIONS
100
AcDbMText
 62
2
  6
CONTINUOUS
  7
STANDARD
 71
1
 72
1
 10
6.7136782315
 20
9.1439088381
 30
0.0
 11
0.0
 21
1.0
 31
0.0
 73
2
 44
0.9
  1
2.9{\ftxt.shx;\W1.000000;\H0.125000; }[.12]
 40
0.125
 41
0.925
  0
LINE
  5
253
100
AcDbEntity
  8
DIMENSIONS
100
AcDbLine
 62
2
  6
CONTINUOUS
 10
6.8869824164
 20
8.6959088381
 11
6.8869824164
 21
8.8445157374
  0
LINE
  5
254
100
AcDbEntity
  8
DIMENSIONS
100
AcDbLine
 62
2
  6
CONTINUOUS
 10
6.8869824164
 20
8.8445157374
 11
6.7761782315
 21
8.939821952
  0
LINE
  5
255
100
AcDbEntity
  8
DIMENSIONS
100
AcDbLine
 62
2
  6
CONTINUOUS
 10
6.7761782315
 20
8.939821952
 11
6.7761782315
 21
9.0814088381
  0
ENDBLK
  5
256
100
AcDbEntity
  8
0
  6
BYBLOCK
 62
0
100
AcDbBlockEnd
  0
BLOCK
  5
257
100
AcDbEntity
  8
DIMENSIONS
100
AcDbBlockBegin
 62
2
  6
CONTINUOUS
  2
*D4
 70
65
 10
0.0
 20
0.0
  3
*D4
  1

  0
MTEXT
  5
258
100
AcDbEntity
  8
DIMENSIONS
100
AcDbMText
 62
2
  6
CONTINUOUS
  7
STANDARD
 71
3
 72
1
 10
6.125
 20
3.0056988381
 30
0.0
 11
0.0
 21
1.0
 31
0.0
 73
2
 44
0.9
  1
2X 7.7{\ftxt.shx;\W1.000000;\H0.125000; }[.31]\PCONNECTOR
 40
0.125
 41
1.225
  0
LINE
  5
259
100
AcDbEntity
  8
DIMENSIONS
100
AcDbLine
 62
2
  6
CONTINUOUS
 10
6.6969592668
 20
5.0496320664
 11
6.6969592668
 21
3.8867602431
  0
LINE
  5
25A
100
AcDbEntity
  8
DIMENSIONS
100
AcDbLine
 62
2
  6
CONTINUOUS
 10
6.6969592668
 20
3.8867602431
 11
6.1875
 21
3.5618712435
  0
LINE
  5
25B
100
AcDbEntity
  8
DIMENSIONS
100
AcDbLine
 62
2
  6
CONTINUOUS
 10
6.1875
 20
3.5618712435
 11
6.1875
 21
3.0681988381
  0
ENDBLK
  5
25C
100
AcDbEntity
  8
0
  6
BYBLOCK
 62
0
100
AcDbBlockEnd
  0
BLOCK
  5
25D
100
AcDbEntity
  8
DIMENSIONS
100
AcDbBlockBegin
 62
2
  6
CONTINUOUS
  2
*D5
 70
65
 10
0.0
 20
0.0
  3
*D5
  1

  0
MTEXT
  5
25E
100
AcDbEntity
  8
DIMENSIONS
100
AcDbMText
 62
2
  6
CONTINUOUS
  7
STANDARD
 71
3
 72
1
 10
2.5267922459
 20
5.0354588381
 30
0.0
 11
1.0
 21
0.0
 31
0.0
 73
2
 44
0.9
  1
32.3{\ftxt.shx;\W1.000000;\H0.125000; }[1.27]
 40
0.125
 41
1.125
  0
LINE
  5
25F
100
AcDbEntity
  8
DIMENSIONS
100
AcDbLine
 62
2
  6
CONTINUOUS
 10
3.1949744953
 20
4.9729588381
 11
2.5892922459
 21
4.9729588381
  0
ENDBLK
  5
260
100
AcDbEntity
  8
0
  6
BYBLOCK
 62
0
100
AcDbBlockEnd
  0
BLOCK
  5
261
100
AcDbEntity
  8
DIMENSIONS
100
AcDbBlockBegin
 62
2
  6
CONTINUOUS
  2
*D6
 70
65
 10
0.0
 20
0.0
  3
*D6
  1

  0
MTEXT
  5
262
100
AcDbEntity
  8
DIMENSIONS
100
AcDbMText
 62
2
  6
CONTINUOUS
  7
STANDARD
 71
3
 72
1
 10
2.5267922459
 20
3.7631988381
 30
0.0
 11
1.0
 21
0.0
 31
0.0
 73
2
 44
0.9
  1
0.0{\ftxt.shx;\W1.000000;\H0.125000; }[.00]
 40
0.125
 41
0.925
  0
LINE
  5
263
100
AcDbEntity
  8
DIMENSIONS
100
AcDbLine
 62
2
  6
CONTINUOUS
 10
3.1245331741
 20
3.7006988381
 11
2.5892922459
 21
3.7006988381
  0
ENDBLK
  5
264
100
AcDbEntity
  8
0
  6
BYBLOCK
 62
0
100
AcDbBlockEnd
  0
BLOCK
  5
265
100
AcDbEntity
  8
DIMENSIONS
100
AcDbBlockBegin
 62
2
  6
CONTINUOUS
  2
*D7
 70
65
 10
0.0
 20
0.0
  3
*D7
  1

  0
MTEXT
  5
266
100
AcDbEntity
  8
DIMENSIONS
100
AcDbMText
 62
2
  6
CONTINUOUS
  7
STANDARD
 71
3
 72
1
 10
2.5267922459
 20
6.0193171058
 30
0.0
 11
1.0
 21
0.0
 31
0.0
 73
2
 44
0.9
  1
57.3{\ftxt.shx;\W1.000000;\H0.125000; }[2.26]
 40
0.125
 41
1.125
  0
LINE
  5
267
100
AcDbEntity
  8
DIMENSIONS
100
AcDbLine
 62
2
  6
CONTINUOUS
 10
3.1986973943
 20
5.9568171058
 11
2.5892922459
 21
5.9568171058
  0
ENDBLK
  5
268
100
AcDbEntity
  8
0
  6
BYBLOCK
 62
0
100
AcDbBlockEnd
  0
BLOCK
  5
269
100
AcDbEntity
  8
DIMENSIONS
100
AcDbBlockBegin
 62
2
  6
CONTINUOUS
  2
*D8
 70
65
 10
0.0
 20
0.0
  3
*D8
  1

  0
MTEXT
  5
26A
100
AcDbEntity
  8
DIMENSIONS
100
AcDbMText
 62
2
  6
CONTINUOUS
  7
STANDARD
 71
3
 72
1
 10
2.5267922459
 20
6.5824588381
 30
0.0
 11
1.0
 21
0.0
 31
0.0
 73
2
 44
0.9
  1
71.6{\ftxt.shx;\W1.000000;\H0.125000; }[2.82]
 40
0.125
 41
1.125
  0
LINE
  5
26B
100
AcDbEntity
  8
DIMENSIONS
100
AcDbLine
 62
2
  6
CONTINUOUS
 10
3.2098660913
 20
6.5199588381
 11
2.5892922459
 21
6.5199588381
  0
ENDBLK
  5
26C
100
AcDbEntity
  8
0
  6
BYBLOCK
 62
0
100
AcDbBlockEnd
  0
BLOCK
  5
26D
100
AcDbEntity
  8
DIMENSIONS
100
AcDbBlockBegin
 62
2
  6
CONTINUOUS
  2
*D9
 70
65
 10
0.0
 20
0.0
  3
*D9
  1

  0
MTEXT
  5
26E
100
AcDbEntity
  8
DIMENSIONS
100
AcDbMText
 62
2
  6
CONTINUOUS
  7
STANDARD
 71
3
 72
1
 10
2.5267922459
 20
5.5273879719
 30
0.0
 11
1.0
 21
0.0
 31
0.0
 73
2
 44
0.9
  1
44.8{\ftxt.shx;\W1.000000;\H0.125000; }[1.76]
 40
0.125
 41
1.125
  0
LINE
  5
26F
100
AcDbEntity
  8
DIMENSIONS
100
AcDbLine
 62
2
  6
CONTINUOUS
 10
3.3963602236
 20
5.4648879719
 11
2.5892922459
 21
5.4648879719
  0
ENDBLK
  5
270
100
AcDbEntity
  8
0
  6
BYBLOCK
 62
0
100
AcDbBlockEnd
  0
BLOCK
  5
271
100
AcDbEntity
  8
DIMENSIONS
100
AcDbBlockBegin
 62
2
  6
CONTINUOUS
  2
*D10
 70
65
 10
0.0
 20
0.0
  3
*D10
  1

  0
MTEXT
  5
272
100
AcDbEntity
  8
DIMENSIONS
100
AcDbMText
 62
2
  6
CONTINUOUS
  7
STANDARD
 71
3
 72
1
 10
2.5267922459
 20
7.0743879719
 30
0.0
 11
1.0
 21
0.0
 31
0.0
 73
2
 44
0.9
  1
84.1{\ftxt.shx;\W1.000000;\H0.125000; }[3.31]
 40
0.125
 41
1.125
  0
LINE
  5
273
100
AcDbEntity
  8
DIMENSIONS
100
AcDbLine
 62
2
  6
CONTINUOUS
 10
3.3915407809
 20
7.0118879719
 11
2.5892922459
 21
7.0118879719
  0
ENDBLK
  5
274
100
AcDbEntity
  8
0
  6
BYBLOCK
 62
0
100
AcDbBlockEnd
  0
BLOCK
  5
275
100
AcDbEntity
  8
DIMENSIONS
100
AcDbBlockBegin
 62
2
  6
CONTINUOUS
  2
*D11
 70
65
 10
0.0
 20
0.0
  3
*D11
  1

  0
MTEXT
  5
276
100
AcDbEntity
  8
DIMENSIONS
100
AcDbMText
 62
2
  6
CONTINUOUS
  7
STANDARD
 71
3
 72
1
 10
2.5267922459
 20
8.4841471921
 30
0.0
 11
1.0
 21
0.0
 31
0.0
 73
2
 44
0.9
  1
122.5{\ftxt.shx;\W1.000000;\H0.125000; }[4.82]
 40
0.125
 41
1.225
  0
LINE
  5
277
100
AcDbEntity
  8
DIMENSIONS
100
AcDbLine
 62
2
  6
CONTINUOUS
 10
3.0404674113
 20
8.5254088381
 11
2.8911897312
 21
8.5254088381
  0
LINE
  5
278
100
AcDbEntity
  8
DIMENSIONS
100
AcDbLine
 62
2
  6
CONTINUOUS
 10
2.8911897312
 20
8.5254088381
 11
2.7385508718
 21
8.4216471921
  0
LINE
  5
279
100
AcDbEntity
  8
DIMENSIONS
100
AcDbLine
 62
2
  6
CONTINUOUS
 10
2.7385508718
 20
8.4216471921
 11
2.5892922459
 21
8.4216471921
  0
ENDBLK
  5
27A
100
AcDbEntity
  8
0
  6
BYBLOCK
 62
0
100
AcDbBlockEnd
  0
BLOCK
  5
27B
100
AcDbEntity
  8
DIMENSIONS
100
AcDbBlockBegin
 62
2
  6
CONTINUOUS
  2
*D12
 70
65
 10
0.0
 20
0.0
  3
*D12
  1

  0
MTEXT
  5
27C
100
AcDbEntity
  8
DIMENSIONS
100
AcDbMText
 62
2
  6
CONTINUOUS
  7
STANDARD
 71
3
 72
1
 10
2.5267922459
 20
8.7059088381
 30
0.0
 11
1.0
 21
0.0
 31
0.0
 73
2
 44
0.9
  1
125.5{\ftxt.shx;\W1.000000;\H0.125000; }[4.94]
 40
0.125
 41
1.225
  0
LINE
  5
27D
100
AcDbEntity
  8
DIMENSIONS
100
AcDbLine
 62
2
  6
CONTINUOUS
 10
2.9711426396
 20
8.6434088381
 11
2.5892922459
 21
8.6434088381
  0
ENDBLK
  5
27E
100
AcDbEntity
  8
0
  6
BYBLOCK
 62
0
100
AcDbBlockEnd
  0
BLOCK
  5
27F
100
AcDbEntity
  8
DIMENSIONS
100
AcDbBlockBegin
 62
2
  6
CONTINUOUS
  2
*D13
 70
65
 10
0.0
 20
0.0
  3
*D13
  1

  0
MTEXT
  5
280
100
AcDbEntity
  8
DIMENSIONS
100
AcDbMText
 62
2
  6
CONTINUOUS
  7
STANDARD
 71
3
 72
1
 10
2.5267922459
 20
7.5663171058
 30
0.0
 11
1.0
 21
0.0
 31
0.0
 73
2
 44
0.9
  1
96.6{\ftxt.shx;\W1.000000;\H0.125000; }[3.80]
 40
0.125
 41
1.125
  0
LINE
  5
281
100
AcDbEntity
  8
DIMENSIONS
100
AcDbLine
 62
2
  6
CONTINUOUS
 10
3.1620773908
 20
7.5038171058
 11
2.5892922459
 21
7.5038171058
  0
ENDBLK
  5
282
100
AcDbEntity
  8
0
  6
BYBLOCK
 62
0
100
AcDbBlockEnd
  0
BLOCK
  5
283
100
AcDbEntity
  8
DIMENSIONS
100
AcDbBlockBegin
 62
2
  6
CONTINUOUS
  2
*D14
 70
65
 10
0.0
 20
0.0
  3
*D14
  1

  0
MTEXT
  5
284
100
AcDbEntity
  8
DIMENSIONS
100
AcDbMText
 62
2
  6
CONTINUOUS
  7
STANDARD
 71
3
 72
1
 10
2.9711426396
 20
3.0851310991
 30
0.0
 11
0.0
 21
1.0
 31
0.0
 73
2
 44
0.9
  1
7.5{\ftxt.shx;\W1.000000;\H0.125000; }[.29]
 40
0.125
 41
0.925
  0
LINE
  5
285
100
AcDbEntity
  8
DIMENSIONS
100
AcDbLine
 62
2
  6
CONTINUOUS
 10
3.0336426396
 20
3.4431988381
 11
3.0336426396
 21
3.1476310991
  0
ENDBLK
  5
286
100
AcDbEntity
  8
0
  6
BYBLOCK
 62
0
100
AcDbBlockEnd
  0
BLOCK
  5
287
100
AcDbEntity
  8
DIMENSIONS
100
AcDbBlockBegin
 62
2
  6
CONTINUOUS
  2
*D15
 70
65
 10
0.0
 20
0.0
  3
*D15
  1

  0
MTEXT
  5
288
100
AcDbEntity
  8
DIMENSIONS
100
AcDbMText
 62
2
  6
CONTINUOUS
  7
STANDARD
 71
3
 72
1
 10
3.2651426396
 20
3.0851310991
 30
0.0
 11
0.0
 21
1.0
 31
0.0
 73
2
 44
0.9
  1
2X 0.0{\ftxt.shx;\W1.000000;\H0.125000; }[.00]
 40
0.125
 41
1.225
  0
LINE
  5
289
100
AcDbEntity
  8
DIMENSIONS
100
AcDbLine
 62
2
  6
CONTINUOUS
 10
3.3276426396
 20
3.4704185096
 11
3.3276426396
 21
3.1476310991
  0
ENDBLK
  5
28A
100
AcDbEntity
  8
0
  6
BYBLOCK
 62
0
100
AcDbBlockEnd
  0
BLOCK
  5
28B
100
AcDbEntity
  8
DIMENSIONS
100
AcDbBlockBegin
 62
2
  6
CONTINUOUS
  2
*D16
 70
65
 10
0.0
 20
0.0
  3
*D16
  1

  0
MTEXT
  5
28C
100
AcDbEntity
  8
DIMENSIONS
100
AcDbMText
 62
2
  6
CONTINUOUS
  7
STANDARD
 71
3
 72
1
 10
3.7591426396
 20
3.0851310991
 30
0.0
 11
0.0
 21
1.0
 31
0.0
 73
2
 44
0.9
  1
12.5{\ftxt.shx;\W1.000000;\H0.125000; }[.49]
 40
0.125
 41
1.025
  0
LINE
  5
28D
100
AcDbEntity
  8
DIMENSIONS
100
AcDbLine
 62
2
  6
CONTINUOUS
 10
3.8216426396
 20
3.4431988381
 11
3.8216426396
 21
3.1476310991
  0
ENDBLK
  5
28E
100
AcDbEntity
  8
0
  6
BYBLOCK
 62
0
100
AcDbBlockEnd
  0
BLOCK
  5
28F
100
AcDbEntity
  8
DIMENSIONS
100
AcDbBlockBegin
 62
2
  6
CONTINUOUS
  2
*D17
 70
65
 10
0.0
 20
0.0
  3
*D17
  1

  0
MTEXT
  5
290
100
AcDbEntity
  8
DIMENSIONS
100
AcDbMText
 62
2
  6
CONTINUOUS
  7
STANDARD
 71
1
 72
1
 10
3.3731426396
 20
9.1439088381
 30
0.0
 11
0.0
 21
1.0
 31
0.0
 73
2
 44
0.9
  1
4X 2.7{\ftxt.shx;\W1.000000;\H0.125000; }[.11]
 40
0.125
 41
1.225
  0
LINE
  5
291
100
AcDbEntity
  8
DIMENSIONS
100
AcDbLine
 62
2
  6
CONTINUOUS
 10
3.4356426396
 20
7.7473171058
 11
3.4356426396
 21
9.0814088381
  0
ENDBLK
  5
292
100
AcDbEntity
  8
0
  6
BYBLOCK
 62
0
100
AcDbBlockEnd
  0
BLOCK
  5
293
100
AcDbEntity
  8
DIMENSIONS
100
AcDbBlockBegin
 62
2
  6
CONTINUOUS
  2
*D18
 70
65
 10
0.0
 20
0.0
  3
*D18
  1

  0
MTEXT
  5
294
100
AcDbEntity
  8
DIMENSIONS
100
AcDbMText
 62
2
  6
CONTINUOUS
  7
STANDARD
 71
2
 72
1
 10
10.2019824164
 20
3.070843735
 30
0.0
 11
1.0
 21
0.0
 31
0.0
 73
2
 44
0.9
  1
162.6{\ftxt.shx;\W1.000000;\H0.125000; }[6.40]
 40
0.125
 41
1.225
  0
LINE
  5
295
100
AcDbEntity
  8
DIMENSIONS
100
AcDbLine
 62
2
  6
CONTINUOUS
 10
13.4019824164
 20
4.1584588381
 11
13.4019824164
 21
2.883343735
  0
LINE
  5
296
100
AcDbEntity
  8
DIMENSIONS
100
AcDbLine
 62
2
  6
CONTINUOUS
 10
7.0019824164
 20
4.1379088381
 11
7.0019824164
 21
2.883343735
  0
LINE
  5
297
100
AcDbEntity
  8
DIMENSIONS
100
AcDbLine
 62
2
  6
CONTINUOUS
 10
13.4019824164
 20
3.008343735
 11
10.8769824164
 21
3.008343735
  0
LINE
  5
298
100
AcDbEntity
  8
DIMENSIONS
100
AcDbLine
 62
2
  6
CONTINUOUS
 10
7.0019824164
 20
3.008343735
 11
9.5269824164
 21
3.008343735
  0
INSERT
  5
299
100
AcDbEntity
  8
DIMENSIONS
100
AcDbBlockReference
 62
2
  6
CONTINUOUS
  2
_FILLED
 10
13.4019824164
 20
3.008343735
 41
0.18
 42
0.18
 43
0.18
  0
INSERT
  5
29A
100
AcDbEntity
  8
DIMENSIONS
100
AcDbBlockReference
 62
2
  6
CONTINUOUS
  2
_FILLED
 10
7.0019824164
 20
3.008343735
 41
0.18
 42
0.18
 43
0.18
 50
180.0
  0
ENDBLK
  5
29B
100
AcDbEntity
  8
0
  6
BYBLOCK
 62
0
100
AcDbBlockEnd
  0
BLOCK
  5
29C
100
AcDbEntity
  8
0
100
AcDbBlockBegin
  2
*T1
 70
1
 10
0.0
 20
0.0
  3
*T1
  1

  0
LINE
  5
29D
100
AcDbEntity
  8
0
100
AcDbLine
 62
2
  6
CONTINUOUS
 10
0.0
 20
0.0
 11
3.375
 21
0.0
  0
LINE
  5
29E
100
AcDbEntity
  8
0
100
AcDbLine
 62
2
  6
CONTINUOUS
 10
0.0
 20
0.0
 11
0.0
 21
-0.313
  0
LINE
  5
29F
100
AcDbEntity
  8
0
100
AcDbLine
 62
2
  6
CONTINUOUS
 10
0.0
 20
-0.313
 11
3.375
 21
-0.313
  0
LINE
  5
2A0
100
AcDbEntity
  8
0
100
AcDbLine
 62
2
  6
CONTINUOUS
 10
3.375
 20
0.0
 11
3.375
 21
-0.313
  0
MTEXT
  5
2A1
100
AcDbEntity
  8
NOTE
100
AcDbMText
 62
2
  6
CONTINUOUS
  7
STANDARD
 71
1
 72
1
 10
0.0625
 20
-0.078125
 30
0.0
 11
1.0
 21
0.0
 31
0.0
 73
2
 44
0.9
  1
    COPYRIGHT    2019, 2022
 40
0.053
 41
2.2896
  0
ENDBLK
  5
2A2
100
AcDbEntity
  8
0
  6
BYBLOCK
 62
0
100
AcDbBlockEnd
  0
BLOCK
  5
2A3
100
AcDbEntity
  8
0
100
AcDbBlockBegin
  2
*T2
 70
1
 10
0.0
 20
0.0
  3
*T2
  1

  0
LINE
  5
2A4
100
AcDbEntity
  8
0
100
AcDbLine
 62
2
  6
CONTINUOUS
 10
0.0
 20
0.0
 11
3.6798
 21
0.0
  0
LINE
  5
2A5
100
AcDbEntity
  8
0
100
AcDbLine
 62
2
  6
CONTINUOUS
 10
0.0
 20
0.0
 11
0.0
 21
-1.709
  0
LINE
  5
2A6
100
AcDbEntity
  8
0
100
AcDbLine
 62
2
  6
CONTINUOUS
 10
0.0
 20
-1.14
 11
3.6798
 21
-1.14
  0
LINE
  5
2A7
100
AcDbEntity
  8
0
100
AcDbLine
 62
2
  6
CONTINUOUS
 10
0.0
 20
-1.569
 11
3.6798
 21
-1.569
  0
LINE
  5
2A8
100
AcDbEntity
  8
0
100
AcDbLine
 62
2
  6
CONTINUOUS
 10
0.0
 20
-1.709
 11
3.6798
 21
-1.709
  0
LINE
  5
2A9
100
AcDbEntity
  8
0
100
AcDbLine
 62
2
  6
CONTINUOUS
 10
0.3688
 20
-1.14
 11
0.3688
 21
-1.569
  0
LINE
  5
2AA
100
AcDbEntity
  8
0
100
AcDbLine
 62
2
  6
CONTINUOUS
 10
0.6998
 20
-1.569
 11
0.6998
 21
-1.709
  0
LINE
  5
2AB
100
AcDbEntity
  8
0
100
AcDbLine
 62
2
  6
CONTINUOUS
 10
1.0808
 20
-1.14
 11
1.0808
 21
-1.569
  0
LINE
  5
2AC
100
AcDbEntity
  8
0
100
AcDbLine
 62
2
  6
CONTINUOUS
 10
2.6798
 20
-1.569
 11
2.6798
 21
-1.709
  0
LINE
  5
2AD
100
AcDbEntity
  8
0
100
AcDbLine
 62
2
  6
CONTINUOUS
 10
3.6798
 20
0.0
 11
3.6798
 21
-1.709
  0
MTEXT
  5
2AE
100
AcDbEntity
  8
NOTE
100
AcDbMText
 62
7
  6
CONTINUOUS
  7
STANDARD
 71
2
 72
1
 10
1.8399
 20
-0.6091875
 30
0.0
 11
1.0
 21
0.0
 31
0.0
 73
2
 44
0.9
  1
PXI-8432/33 2CH\P 
 40
0.15625
 41
3.75
  0
MTEXT
  5
2AF
100
AcDbEntity
  8
NOTE
100
AcDbMText
 62
7
  6
CONTINUOUS
  7
STANDARD
 71
2
 72
1
 10
2.3803
 20
-1.338875
 30
0.0
 11
1.0
 21
0.0
 31
0.0
 73
2
 44
0.9
  1
09/13/2022 
 40
0.15625
 41
2.75
  0
MTEXT
  5
2B0
100
AcDbEntity
  8
DETAIL
100
AcDbMText
 62
7
  6
CONTINUOUS
  7
STANDARD
 71
3
 72
1
 10
0.6373
 20
-1.589
 30
0.0
 11
1.0
 21
0.0
 31
0.0
 73
2
 44
0.9
  1
1/1
 40
0.1
 41
0.48
  0
MTEXT
  5
2B1
100
AcDbEntity
  8
DETAIL
100
AcDbMText
 62
7
  6
CONTINUOUS
  7
STANDARD
 71
1
 72
1
 10
2.7423
 20
-1.589
 30
0.0
 11
1.0
 21
0.0
 31
0.0
 73
2
 44
0.9
  1
    1    1
 40
0.1
 41
1.6
  0
ENDBLK
  5
2B2
100
AcDbEntity
  8
0
  6
BYBLOCK
 62
0
100
AcDbBlockEnd
  0
BLOCK
  5
2B3
100
AcDbEntity
  8
0
100
AcDbBlockBegin
  2
*T3
 70
1
 10
0.0
 20
0.0
  3
*T3
  1

  0
LINE
  5
2B4
100
AcDbEntity
  8
0
100
AcDbLine
 62
2
  6
CONTINUOUS
 10
0.0
 20
0.0
 11
1.0
 21
0.0
  0
LINE
  5
2B5
100
AcDbEntity
  8
0
100
AcDbLine
 62
2
  6
CONTINUOUS
 10
0.0
 20
0.0
 11
0.0
 21
-0.0005
  0
LINE
  5
2B6
100
AcDbEntity
  8
0
100
AcDbLine
 62
2
  6
CONTINUOUS
 10
0.0
 20
-0.0005
 11
1.0
 21
-0.0005
  0
LINE
  5
2B7
100
AcDbEntity
  8
0
100
AcDbLine
 62
2
  6
CONTINUOUS
 10
1.0
 20
0.0
 11
1.0
 21
-0.0005
  0
MTEXT
  5
2B8
100
AcDbEntity
  8
DETAIL
100
AcDbMText
 62
2
  6
CONTINUOUS
  7
STANDARD
 71
3
 72
1
 10
0.9375
 20
-0.078125
 30
0.0
 11
1.0
 21
0.0
 31
0.0
 73
2
 44
0.9
  1
CU_PXI-8432-33_2CH
 40
0.057262
 41
1.6491456
  0
ENDBLK
  5
2B9
100
AcDbEntity
  8
0
  6
BYBLOCK
 62
0
100
AcDbBlockEnd
  0
ENDSEC
  0
SECTION
  2
ENTITIES
  0
SPLINE
  5
2BA
100
AcDbEntity
  8
0
100
AcDbSpline
 62
2
  6
CONTINUOUS
 70
2
 71
3
 72
26
 73
22
 74
0
 42
0.0000001
 43
0.0000001
 44
0.0000000001
 40
0.0
 40
0.0
 40
0.0
 40
0.0
 40
1.0
 40
1.0
 40
1.0
 40
2.0
 40
2.0
 40
2.0
 40
3.0
 40
3.0
 40
3.0
 40
4.0
 40
4.0
 40
4.0
 40
5.0
 40
5.0
 40
5.0
 40
6.0
 40
6.0
 40
6.0
 40
7.0
 40
7.0
 40
7.0
 40
7.0
 10
13.27138341
 20
1.8953952
 30
0.0
 10
13.3078581345
 20
1.8953952
 30
0.0
 10
13.336736215
 20
1.8658902431
 30
0.0
 10
13.336736215
 20
1.82778885
 30
0.0
 10
13.336736215
 20
1.82778885
 30
0.0
 10
13.336736215
 20
1.699336785
 30
0.0
 10
13.336736215
 20
1.699336785
 30
0.0
 10
13.336736215
 20
1.699336785
 30
0.0
 10
13.27138341
 20
1.699336785
 30
0.0
 10
13.27138341
 20
1.699336785
 30
0.0
 10
13.27138341
 20
1.699336785
 30
0.0
 10
13.27138341
 20
1.830042395
 30
0.0
 10
13.27138341
 20
1.830042395
 30
0.0
 10
13.27138341
 20
1.830042395
 30
0.0
 10
13.206030605
 20
1.830042395
 30
0.0
 10
13.206030605
 20
1.830042395
 30
0.0
 10
13.206030605
 20
1.830042395
 30
0.0
 10
13.206030605
 20
1.8953952
 30
0.0
 10
13.206030605
 20
1.8953952
 30
0.0
 10
13.206030605
 20
1.8953952
 30
0.0
 10
13.27138341
 20
1.8953952
 30
0.0
 10
13.27138341
 20
1.8953952
 30
0.0
  0
SPLINE
  5
2BB
100
AcDbEntity
  8
0
100
AcDbSpline
 62
2
  6
CONTINUOUS
 70
2
 71
3
 72
17
 73
13
 74
0
 42
0.0000001
 43
0.0000001
 44
0.0000000001
 40
0.0
 40
0.0
 40
0.0
 40
0.0
 40
1.0
 40
1.0
 40
1.0
 40
2.0
 40
2.0
 40
2.0
 40
3.0
 40
3.0
 40
3.0
 40
4.0
 40
4.0
 40
4.0
 40
4.0
 10
13.43814574
 20
1.8953952
 30
0.0
 10
13.43814574
 20
1.8953952
 30
0.0
 10
13.43814574
 20
1.699336785
 30
0.0
 10
13.43814574
 20
1.699336785
 30
0.0
 10
13.4015315842
 20
1.699336785
 30
0.0
 10
13.372792935
 20
1.7293642724
 30
0.0
 10
13.372792935
 20
1.76468959
 30
0.0
 10
13.372792935
 20
1.76468959
 30
0.0
 10
13.372792935
 20
1.8953952
 30
0.0
 10
13.372792935
 20
1.8953952
 30
0.0
 10
13.372792935
 20
1.8953952
 30
0.0
 10
13.43814574
 20
1.8953952
 30
0.0
 10
13.43814574
 20
1.8953952
 30
0.0
  0
MTEXT
  5
2BC
100
AcDbEntity
  8
0
100
AcDbMText
 62
7
  6
CONTINUOUS
  7
STANDARD
 71
2
 72
1
 10
13.249725
 20
0.636084
 30
0.0
 11
1.0
 21
0.0
 31
0.0
 73
2
 44
0.9
  1
B
 40
0.15625
 41
0.125
  0
MTEXT
  5
2BD
100
AcDbEntity
  8
0
100
AcDbMText
 62
7
  6
CONTINUOUS
  7
STANDARD
 71
2
 72
1
 10
12.275406648
 20
1.4542432371
 30
0.0
 11
1.0
 21
0.0
 31
0.0
 73
2
 44
0.9
  1
DO NOT SCALE DRAWING
 40
0.095
 41
1.52
  0
MTEXT
  5
2BE
100
AcDbEntity
  8
0
100
AcDbMText
 62
2
  6
CONTINUOUS
  7
TEXTSTYLE_2
 71
2
 72
1
 10
12.274621
 20
1.754789
 30
0.0
 11
1.0
 21
0.0
 31
0.0
 73
2
 44
0.9
  1
AND [INCHES].
 40
0.053254
 41
0.692302
  0
MTEXT
  5
2BF
100
AcDbEntity
  8
0
100
AcDbMText
 62
2
  6
CONTINUOUS
  7
TEXTSTYLE_2
 71
2
 72
1
 10
12.268822
 20
1.84654
 30
0.0
 11
1.0
 21
0.0
 31
0.0
 73
2
 44
0.9
  1
DIMENSIONS ARE IN MILLIMETERS
 40
0.053254
 41
1.544366
  0
MTEXT
  5
2C0
100
AcDbEntity
  8
0
100
AcDbMText
 62
2
  6
CONTINUOUS
  7
TEXTSTYLE_2
 71
2
 72
1
 10
12.268822
 20
1.935171
 30
0.0
 11
1.0
 21
0.0
 31
0.0
 73
2
 44
0.9
  1
UNLESS OTHERWISE SPECIFIED
 40
0.053254
 41
1.384604
  0
MTEXT
  5
2C1
100
AcDbEntity
  8
0
100
AcDbMText
 62
2
  6
CONTINUOUS
  7
TEXTSTYLE_2
 71
1
 72
1
 10
14.176497
 20
0.802692
 30
0.0
 11
1.0
 21
0.0
 31
0.0
 73
2
 44
0.9
  1
MM/DD/YYYY
 40
0.053254
 41
0.53254
  0
MTEXT
  5
2C2
100
AcDbEntity
  8
0
100
AcDbMText
 62
2
  6
CONTINUOUS
  7
TEXTSTYLE_2
 71
1
 72
1
 10
13.145085
 20
0.802692
 30
0.0
 11
1.0
 21
0.0
 31
0.0
 73
2
 44
0.9
  1
SIZE
 40
0.053254
 41
0.213016
  0
MTEXT
  5
2C3
100
AcDbEntity
  8
0
100
AcDbMText
 62
7
  6
CONTINUOUS
  7
TEXTSTYLE_2
 71
1
 72
1
 10
13.436331
 20
0.629757
 30
0.0
 11
1.0
 21
0.0
 31
0.0
 73
2
 44
0.9
  1
7U296
 40
0.143155
 41
0.715775
  0
MTEXT
  5
2C4
100
AcDbEntity
  8
0
100
AcDbMText
 62
2
  6
CONTINUOUS
  7
TEXTSTYLE_3
 71
2
 72
1
 10
13.797783
 20
0.802692
 30
0.0
 11
1.0
 21
0.0
 31
0.0
 73
2
 44
0.9
  1
CODE IDENT NO.
 40
0.053254
 41
0.7082782
  0
MTEXT
  5
2C5
100
AcDbEntity
  8
0
100
AcDbMText
 62
2
  6
CONTINUOUS
  7
TEXTSTYLE_2
 71
1
 72
1
 10
13.3473507564
 20
1.5929525887
 30
0.0
 11
1.0
 21
0.0
 31
0.0
 73
2
 44
0.9
  1
TITLE
 40
0.053254
 41
0.26627
  0
MTEXT
  5
2C6
100
AcDbEntity
  8
0
100
AcDbMText
 62
2
  6
CONTINUOUS
  7
TEXTSTYLE_2
 71
1
 72
1
 10
15.732682
 20
1.744072
 30
0.0
 11
1.0
 21
0.0
 31
0.0
 73
2
 44
0.9
  1
AUSTIN, TEXAS
 40
0.069617
 41
0.905021
  0
MTEXT
  5
2C7
100
AcDbEntity
  8
0
100
AcDbMText
 62
2
  6
CONTINUOUS
  7
TEXTSTYLE_2
 71
1
 72
1
 10
13.090377
 20
0.358517
 30
0.0
 11
1.0
 21
0.0
 31
0.0
 73
2
 44
0.9
  1
SCALE:
 40
0.053254
 41
0.319524
  0
MTEXT
  5
2C8
100
AcDbEntity
  8
0
100
AcDbMText
 62
2
  6
CONTINUOUS
  7
TEXTSTYLE_2
 71
1
 72
1
 10
15.789224
 20
0.362499
 30
0.0
 11
1.0
 21
0.0
 31
0.0
 73
2
 44
0.9
  1
SHEET    OF
 40
0.057262
 41
0.629882
  0
MTEXT
  5
2C9
100
AcDbEntity
  8
0
100
AcDbMText
 62
2
  6
CONTINUOUS
  7
STANDARD
 71
1
 72
1
 10
11.5563608323
 20
1.2384285806
 30
0.0
 11
1.0
 21
0.0
 31
0.0
 73
2
 44
0.9
  1
THIRD ANGLE PROJECTION
 40
0.08
 41
1.408
  0
MTEXT
  5
2CA
100
AcDbEntity
  8
0
100
AcDbMText
 62
7
  6
CONTINUOUS
  7
STANDARD
 71
2
 72
1
 10
14.8815019183
 20
2.220013061
 30
0.0
 11
1.0
 21
0.0
 31
0.0
 73
2
 44
0.9
  1
CUSTOMER DRAWING
 40
0.15625
 41
2.0
  0
MTEXT
  5
2CB
100
AcDbEntity
  8
0
100
AcDbMText
 62
2
  6
CONTINUOUS
  7
STANDARD
 71
1
 72
1
 10
0.5582879959
 20
10.5546479011
 30
0.0
 11
1.0
 21
0.0
 31
0.0
 73
2
 44
0.9
  1
NATIONAL INSTRUMENTS CORPORATION AND ITS LICENSORS. ALL RIGHTS RESERVED
 40
0.053
 41
3.0104
  0
MTEXT
  5
2CC
100
AcDbEntity
  8
0
100
AcDbMText
 62
2
  6
CONTINUOUS
  7
STANDARD
 71
1
 72
1
 10
0.9460128297
 20
10.6893269917
 30
0.0
 11
1.0
 21
0.0
 31
0.0
 73
2
 44
0.9
  1
c
 40
0.053
 41
0.0424
  0
MTEXT
  5
2CD
100
AcDbEntity
  8
0
100
AcDbMText
 62
2
  6
CONTINUOUS
  7
TEXTSTYLE_2
 71
1
 72
1
 10
16.217682
 20
1.919072
 30
0.0
 11
1.0
 21
0.0
 31
0.0
 73
2
 44
0.9
  1
NI.COM
 40
0.069617
 41
0.417702
  0
INSERT
  5
2CE
100
AcDbEntity
  8
0
100
AcDbBlockReference
 62
2
  6
CONTINUOUS
  2
CUSTOM_NOTE_BL0
 10
3.6750529031
 20
1.3123857822
  0
INSERT
  5
2CF
100
AcDbEntity
  8
0
100
AcDbBlockReference
 62
2
  6
CONTINUOUS
  2
METRIC_BL1
 10
12.2427668563
 20
2.2045347211
  0
DIMENSION
  5
2D0
100
AcDbEntity
  8
DIMENSIONS
100
AcDbDimension
 62
2
  6
CONTINUOUS
  2
*D0
 10
15.1875
 20
8.6434088381
 11
15.1875
 21
6.1110538381
 70
160
 71
2
 72
2
 41
0.9
 42
128.643634
  3
DIMSTYLE_1
100
AcDbAlignedDimension
 13
6.9999824164
 23
3.5786988381
 14
7.0019824164
 24
8.6434088381
 50
90.0
100
AcDbRotatedDimension
  0
DIMENSION
  5
2D1
100
AcDbEntity
  8
DIMENSIONS
100
AcDbDimension
 62
2
  6
CONTINUOUS
  2
*D1
 10
7.0019824164
 20
8.6434088381
 11
7.0019824164
 21
9.6064088381
 70
230
 71
1
 72
2
 41
0.9
  3
DIMSTYLE_2
100
AcDbOrdinateDimension
 13
7.0019824164
 23
8.7059088381
 14
7.0019824164
 24
9.0814088381
  0
DIMENSION
  5
2D2
100
AcDbEntity
  8
DIMENSIONS
100
AcDbDimension
 62
2
  6
CONTINUOUS
  2
*D2
 10
7.0019824164
 20
7.5978171058
 11
6.4271159128
 21
9.7564088381
 70
230
 71
1
 72
2
 41
0.9
 42
8.1026
  1
4X <>\PJACKSCREW
  3
DIMSTYLE_3
100
AcDbOrdinateDimension
 13
6.6829824164
 23
7.6603171058
 14
6.3177409128
 24
9.0814088381
  0
DIMENSION
  5
2D3
100
AcDbEntity
  8
DIMENSIONS
100
AcDbDimension
 62
2
  6
CONTINUOUS
  2
*D3
 10
7.0019824164
 20
8.6334088381
 11
6.7761782315
 21
9.6064088381
 70
230
 71
1
 72
2
 41
0.9
 42
2.921
  3
DIMSTYLE_3
100
AcDbOrdinateDimension
 13
6.8869824164
 23
8.6959088381
 14
6.7761782315
 24
9.0814088381
  0
DIMENSION
  5
2D4
100
AcDbEntity
  8
DIMENSIONS
100
AcDbDimension
 62
2
  6
CONTINUOUS
  2
*D4
 10
7.0019824164
 20
5.1711871845
 11
6.296875
 21
2.3931988381
 70
230
 71
3
 72
2
 41
0.9
 42
7.747588
  1
2X <>\PCONNECTOR
  3
DIMSTYLE_3
100
AcDbOrdinateDimension
 13
6.6969592668
 23
5.0496320664
 14
6.1875
 24
3.0681988381
  0
DIMENSION
  5
2D5
100
AcDbEntity
  8
DIMENSIONS
100
AcDbDimension
 62
2
  6
CONTINUOUS
  2
*D5
 10
3.1870331741
 20
3.7006988381
 11
1.9642922459
 21
4.9729588381
 70
166
 71
3
 72
2
 41
0.9
 42
32.315404
  3
DIMSTYLE_3
100
AcDbOrdinateDimension
 13
3.1949744953
 23
4.9729588381
 14
2.5892922459
 24
4.9729588381
  0
DIMENSION
  5
2D6
100
AcDbEntity
  8
DIMENSIONS
100
AcDbDimension
 62
2
  6
CONTINUOUS
  2
*D6
 10
3.1870331741
 20
3.7006988381
 11
2.0642922459
 21
3.7006988381
 70
166
 71
3
 72
2
 41
0.9
  3
DIMSTYLE_2
100
AcDbOrdinateDimension
 13
3.1245331741
 23
3.7006988381
 14
2.5892922459
 24
3.7006988381
  0
DIMENSION
  5
2D7
100
AcDbEntity
  8
DIMENSIONS
100
AcDbDimension
 62
2
  6
CONTINUOUS
  2
*D7
 10
3.2611973943
 20
3.7006988381
 11
1.9642922459
 21
5.9568171058
 70
166
 71
3
 72
2
 41
0.9
 42
57.305404
  3
DIMSTYLE_3
100
AcDbOrdinateDimension
 13
3.1986973943
 23
5.9568171058
 14
2.5892922459
 24
5.9568171058
  0
DIMENSION
  5
2D8
100
AcDbEntity
  8
DIMENSIONS
100
AcDbDimension
 62
2
  6
CONTINUOUS
  2
*D8
 10
3.2723660913
 20
3.7006988381
 11
1.9642922459
 21
6.5199588381
 70
166
 71
3
 72
2
 41
0.9
 42
71.609204
  3
DIMSTYLE_3
100
AcDbOrdinateDimension
 13
3.2098660913
 23
6.5199588381
 14
2.5892922459
 24
6.5199588381
  0
DIMENSION
  5
2D9
100
AcDbEntity
  8
DIMENSIONS
100
AcDbDimension
 62
2
  6
CONTINUOUS
  2
*D9
 10
3.4588602236
 20
3.7006988381
 11
1.9642922459
 21
5.4648879719
 70
166
 71
3
 72
2
 41
0.9
 42
44.810404
  3
DIMSTYLE_3
100
AcDbOrdinateDimension
 13
3.3963602236
 23
5.4648879719
 14
2.5892922459
 24
5.4648879719
  0
DIMENSION
  5
2DA
100
AcDbEntity
  8
DIMENSIONS
100
AcDbDimension
 62
2
  6
CONTINUOUS
  2
*D10
 10
3.4540407809
 20
3.7006988381
 11
1.9642922459
 21
7.0118879719
 70
166
 71
3
 72
2
 41
0.9
 42
84.104204
  3
DIMSTYLE_3
100
AcDbOrdinateDimension
 13
3.3915407809
 23
7.0118879719
 14
2.5892922459
 24
7.0118879719
  0
DIMENSION
  5
2DB
100
AcDbEntity
  8
DIMENSIONS
100
AcDbDimension
 62
2
  6
CONTINUOUS
  2
*D11
 10
3.1029674113
 20
3.7006988381
 11
1.9142922459
 21
8.4216471921
 70
166
 71
3
 72
2
 41
0.9
 42
122.547634
  3
DIMSTYLE_3
100
AcDbOrdinateDimension
 13
3.0404674113
 23
8.5254088381
 14
2.5892922459
 24
8.4216471921
  0
DIMENSION
  5
2DC
100
AcDbEntity
  8
DIMENSIONS
100
AcDbDimension
 62
2
  6
CONTINUOUS
  2
*D12
 10
3.0336426396
 20
3.7006988381
 11
1.9142922459
 21
8.6434088381
 70
166
 71
3
 72
2
 41
0.9
 42
125.544834
  3
DIMSTYLE_3
100
AcDbOrdinateDimension
 13
2.9711426396
 23
8.6434088381
 14
2.5892922459
 24
8.6434088381
  0
DIMENSION
  5
2DD
100
AcDbEntity
  8
DIMENSIONS
100
AcDbDimension
 62
2
  6
CONTINUOUS
  2
*D13
 10
3.2245773908
 20
3.7006988381
 11
1.9642922459
 21
7.5038171058
 70
166
 71
3
 72
2
 41
0.9
 42
96.599204
  3
DIMSTYLE_3
100
AcDbOrdinateDimension
 13
3.1620773908
 23
7.5038171058
 14
2.5892922459
 24
7.5038171058
  0
DIMENSION
  5
2DE
100
AcDbEntity
  8
DIMENSIONS
100
AcDbDimension
 62
2
  6
CONTINUOUS
  2
*D14
 10
3.3276426396
 20
3.5329185096
 11
3.0336426396
 21
2.6226310991
 70
230
 71
3
 72
2
 41
0.9
 42
7.4676
  3
DIMSTYLE_3
100
AcDbOrdinateDimension
 13
3.0336426396
 23
3.4431988381
 14
3.0336426396
 24
3.1476310991
  0
DIMENSION
  5
2DF
100
AcDbEntity
  8
DIMENSIONS
100
AcDbDimension
 62
2
  6
CONTINUOUS
  2
*D15
 10
3.3276426396
 20
3.5329185096
 11
3.3276426396
 21
2.4726310991
 70
230
 71
3
 72
2
 41
0.9
  1
2X <>
  3
DIMSTYLE_2
100
AcDbOrdinateDimension
 13
3.3276426396
 23
3.4704185096
 14
3.3276426396
 24
3.1476310991
  0
DIMENSION
  5
2E0
100
AcDbEntity
  8
DIMENSIONS
100
AcDbDimension
 62
2
  6
CONTINUOUS
  2
*D16
 10
3.3276426396
 20
3.5056988381
 11
3.8216426396
 21
2.5726310991
 70
230
 71
3
 72
2
 41
0.9
 42
12.5476
  3
DIMSTYLE_3
100
AcDbOrdinateDimension
 13
3.8216426396
 23
3.4431988381
 14
3.8216426396
 24
3.1476310991
  0
DIMENSION
  5
2E1
100
AcDbEntity
  8
DIMENSIONS
100
AcDbDimension
 62
2
  6
CONTINUOUS
  2
*D17
 10
3.3276426396
 20
7.5038171058
 11
3.4356426396
 21
9.7564088381
 70
230
 71
1
 72
2
 41
0.9
 42
2.7432
  1
4X <>
  3
DIMSTYLE_3
100
AcDbOrdinateDimension
 13
3.4356426396
 23
7.7473171058
 14
3.4356426396
 24
9.0814088381
  0
DIMENSION
  5
2E2
100
AcDbEntity
  8
DIMENSIONS
100
AcDbDimension
 62
2
  6
CONTINUOUS
  2
*D18
 10
7.0019824164
 20
3.008343735
 11
10.2019824164
 21
3.008343735
 70
160
 71
2
 72
2
 41
0.9
 42
162.56
  3
DIMSTYLE_4
100
AcDbAlignedDimension
 13
13.4019824164
 23
4.2209588381
 14
7.0019824164
 24
4.2004088381
 50
180.0
100
AcDbRotatedDimension
  0
ACAD_TABLE
  5
2E3
100
AcDbEntity
  8
0
 62
2
  6
CONTINUOUS
100
AcDbBlockReference
  2
*T1
 10
0.2500058658
 20
10.7585991628
 30
0.0
100
AcDbTable
342
       752
343
225
 11
1.0
 21
0.0
 31
0.0
 90
22
 91
1
 92
1
 93
0
 94
0
 95
0
 96
0
141
0.313
142
3.375
171
1
172
0
173
0
174
0
175
1
176
1
 91
33
178
0
145
0.0
301
CELL_VALUE
 90
4
  1
    COPYRIGHT    2019, 2022
304
ACVALUE_END
170
1
140
0.053
  0
ACAD_TABLE
  5
2E4
100
AcDbEntity
  8
0
 62
2
  6
CONTINUOUS
100
AcDbBlockReference
  2
*T2
 10
13.0652424456
 20
1.9695308512
 30
0.0
100
AcDbTable
342
       752
343
226
 11
1.0
 21
0.0
 31
0.0
 90
22
 91
5
 92
6
 93
16
 94
0
 95
0
 96
0
 41
0.0
141
0.469
141
0.671
141
0.125
141
0.304
141
0.14
142
0.3688
142
0.331
142
0.381
142
1.599
142
0.571
142
0.429
171
1
172
0
173
0
174
0
175
6
176
1
 91
33
178
0
145
0.0
301
CELL_VALUE
 90
4
  1
 
304
ACVALUE_END
170
1
140
0.15625
171
1
172
0
173
1
174
0
175
1
176
1
 91
1
178
0
145
0.0
170
1
171
1
172
0
173
1
174
0
175
1
176
1
 91
1
178
0
145
0.0
170
1
171
1
172
0
173
1
174
0
175
1
176
1
 91
1
178
0
145
0.0
170
1
171
1
172
0
173
1
174
0
175
1
176
1
 91
1
178
0
145
0.0
170
1
171
1
172
0
173
1
174
0
175
1
176
1
 91
1
178
0
145
0.0
170
1
171
1
172
0
173
0
174
0
175
6
176
1
 91
41
178
0
145
0.0
301
CELL_VALUE
 90
4
  1
PXI-8432/33 2CH\P 
304
ACVALUE_END
170
5
140
0.15625
 64
7
171
1
172
0
173
1
174
0
175
1
176
1
 91
1
178
0
145
0.0
170
1
171
1
172
0
173
1
174
0
175
1
176
1
 91
1
178
0
145
0.0
170
1
171
1
172
0
173
1
174
0
175
1
176
1
 91
1
178
0
145
0.0
170
1
171
1
172
0
173
1
174
0
175
1
176
1
 91
1
178
0
145
0.0
170
1
171
1
172
0
173
1
174
0
175
1
176
1
 91
1
178
0
145
0.0
170
1
171
1
172
0
173
0
174
0
175
1
176
1
 91
33
178
0
145
0.0
301
CELL_VALUE
 90
4
  1
 
304
ACVALUE_END
170
1
140
0.15625
171
1
172
0
173
0
174
0
175
2
176
1
 91
33
178
0
145
0.0
301
CELL_VALUE
 90
4
  1
 
304
ACVALUE_END
170
1
140
0.15625
171
1
172
0
173
1
174
0
175
1
176
1
 91
1
178
0
145
0.0
170
1
171
1
172
0
173
0
174
0
175
3
176
1
 91
33
178
0
145
0.0
301
CELL_VALUE
 90
4
  1
 
304
ACVALUE_END
170
1
140
0.15625
171
1
172
0
173
1
174
0
175
1
176
1
 91
1
178
0
145
0.0
170
1
171
1
172
0
173
1
174
0
175
1
176
1
 91
1
178
0
145
0.0
170
1
171
1
172
0
173
0
174
0
175
1
176
1
 91
33
178
0
145
0.0
301
CELL_VALUE
 90
4
  1
 
304
ACVALUE_END
170
1
140
0.15625
171
1
172
0
173
0
174
0
175
2
176
1
 91
33
178
0
145
0.0
301
CELL_VALUE
 90
4
  1
 
304
ACVALUE_END
170
1
140
0.15625
171
1
172
0
173
1
174
0
175
1
176
1
 91
1
178
0
145
0.0
170
1
171
1
172
0
173
0
174
0
175
3
176
1
 91
41
178
0
145
0.0
301
CELL_VALUE
 90
4
  1
09/13/2022 
304
ACVALUE_END
170
5
140
0.15625
 64
7
171
1
172
0
173
1
174
0
175
1
176
1
 91
1
178
0
145
0.0
170
1
171
1
172
0
173
1
174
0
175
1
176
1
 91
1
178
0
145
0.0
170
1
171
1
172
0
173
0
174
0
175
2
176
1
 91
41
178
0
145
0.0
301
CELL_VALUE
 90
4
  1
1/1
304
ACVALUE_END
170
6
140
0.1
 64
7
171
1
172
0
173
1
174
0
175
1
176
1
 91
1
178
0
145
0.0
170
1
171
1
172
0
173
0
174
0
175
2
176
1
 91
33
178
0
145
0.0
301
CELL_VALUE
 90
4
  1
 
304
ACVALUE_END
170
1
140
0.15625
171
1
172
0
173
1
174
0
175
1
176
1
 91
1
178
0
145
0.0
170
1
171
1
172
0
173
0
174
0
175
2
176
1
 91
41
178
0
145
0.0
301
CELL_VALUE
 90
4
  1
    1    1
304
ACVALUE_END
170
4
140
0.1
 64
7
171
1
172
0
173
1
174
0
175
1
176
1
 91
1
178
0
145
0.0
170
1
  0
ACAD_TABLE
  5
2E5
100
AcDbEntity
  8
0
 62
2
  6
CONTINUOUS
100
AcDbBlockReference
  2
*T3
 10
15.7461638083
 20
0.2607424503
 30
0.0
100
AcDbTable
342
       752
343
227
 11
1.0
 21
0.0
 31
0.0
 90
22
 91
1
 92
1
 93
16
 94
0
 95
0
 96
0
 41
0.0
141
0.0005
142
1.0
171
1
172
0
173
0
174
0
175
1
176
1
 91
33
178
0
145
0.0
301
CELL_VALUE
 90
4
  1
CU_PXI-8432-33_2CH
304
ACVALUE_END
170
3
140
0.057262
  0
LEADER
  5
2E6
100
AcDbEntity
  8
DETAIL
100
AcDbLeader
 62
2
  6
CONTINUOUS
  3
STANDARD
 71
1
 72
0
 73
0
 75
0
 40
0.125
 41
1.1
 76
3
 10
3.6198946081
 20
5.4031037946
 30
0.0
 10
4.4152231958
 20
6.5668683963
 30
0.0
 10
4.5952231958
 20
6.5668683963
 30
0.0
340
2E8
1001
ACAD
1000
DSTYLE
1002
{
1070
77
1070
0
1002
}
  0
LEADER
  5
2E7
100
AcDbEntity
  8
DETAIL
100
AcDbLeader
 62
2
  6
CONTINUOUS
  3
STANDARD
 71
1
 72
0
 73
0
 75
0
 40
0.125
 41
1.1
 76
3
 10
3.6002095687
 20
7.0014767824
 30
0.0
 10
4.4152231958
 20
6.5668683963
 30
0.0
 10
4.5952231958
 20
6.5668683963
 30
0.0
340
2E8
1001
ACAD
1000
DSTYLE
1002
{
1070
77
1070
0
1002
}
  0
MTEXT
  5
2E8
102
{ACAD_REACTORS
330
2E6
330
2E7
102
}
100
AcDbEntity
  8
DETAIL
100
AcDbMText
 62
2
  6
CONTINUOUS
  7
STANDARD
 71
1
 72
1
 10
4.5952231958
 20
6.6293683963
 30
0.0
 11
1.0
 21
0.0
 31
0.0
 73
2
 44
0.9
  1
9 PIN D-SUB
 40
0.125
 41
1.1
  0
LEADER
  5
2E9
100
AcDbEntity
  8
DETAIL
100
AcDbLeader
 62
2
  6
CONTINUOUS
  3
STANDARD
 71
1
 72
0
 73
0
 75
0
 40
0.125
 41
0.9
 76
3
 10
3.4733695956
 20
7.5452016051
 30
0.0
 10
4.2438925971
 20
8.0618712435
 30
0.0
 10
4.4238925971
 20
8.0618712435
 30
0.0
340
2EA
1001
ACAD
1000
DSTYLE
1002
{
1070
77
1070
0
1002
}
  0
MTEXT
  5
2EA
102
{ACAD_REACTORS
330
2E9
102
}
100
AcDbEntity
  8
DETAIL
100
AcDbMText
 62
2
  6
CONTINUOUS
  7
STANDARD
 71
1
 72
1
 10
4.4238925971
 20
8.1243712435
 30
0.0
 11
1.0
 21
0.0
 31
0.0
 73
2
 44
0.9
  1
4X #4-40,\P   MAX \fSymbol_ASME;{\W1.0;↧}\ftxt;3.0 [.12]
 40
0.125
 41
2.6266483516
  0
INSERT
  5
2EB
100
AcDbEntity
  8
DETAIL
100
AcDbBlockReference
 62
2
  6
CONTINUOUS
  2
NOTES_HEADER_BL2
 10
3.1215
 20
0.9375
  0
LWPOLYLINE
  5
2EC
100
AcDbEntity
  8
0
100
AcDbPolyline
 62
7
  6
CONTINUOUS
 90
2
 70
0
 43
0.0200000008
 10
0.25
 20
10.758589
 10
0.25
 20
0.258589
  0
LINE
  5
2ED
100
AcDbEntity
  8
0
100
AcDbLine
 62
7
  6
CONTINUOUS
 10
12.3962658799
 20
0.7462095293
 11
12.8357572221
 21
0.8589530402
  0
LWPOLYLINE
  5
2EE
100
AcDbEntity
  8
0
100
AcDbPolyline
 62
7
  6
CONTINUOUS
 90
2
 70
0
 43
0.0200000008
 10
0.25
 20
0.258589
 10
16.75
 20
0.258589
  0
LINE
  5
2EF
100
AcDbEntity
  8
0
100
AcDbLine
 62
2
  6
CONTINUOUS
 10
11.6146008393
 20
0.6418595933
 11
11.802287918
 21
0.6418595933
  0
LINE
  5
2F0
100
AcDbEntity
  8
0
100
AcDbLine
 62
2
  6
CONTINUOUS
 10
11.8335379479
 20
0.6418595933
 11
11.8960380076
 21
0.6418595933
  0
LINE
  5
2F1
100
AcDbEntity
  8
0
100
AcDbLine
 62
2
  6
CONTINUOUS
 10
11.9272880375
 20
0.6418595933
 11
12.557543179
 21
0.6418595933
  0
LINE
  5
2F2
100
AcDbEntity
  8
0
100
AcDbLine
 62
2
  6
CONTINUOUS
 10
12.5887932089
 20
0.6418595933
 11
12.6512932686
 21
0.6418595933
  0
LINE
  5
2F3
100
AcDbEntity
  8
0
100
AcDbLine
 62
2
  6
CONTINUOUS
 10
12.6825432985
 20
0.6418595933
 11
12.8982572819
 21
0.6418595933
  0
LINE
  5
2F4
100
AcDbEntity
  8
0
100
AcDbLine
 62
2
  6
CONTINUOUS
 10
13.065325
 20
1.077557
 11
11.482032
 21
1.077557
  0
LINE
  5
2F5
100
AcDbEntity
  8
0
100
AcDbLine
 62
2
  6
CONTINUOUS
 10
11.482032
 20
1.326524
 11
13.065325
 21
1.326524
  0
LINE
  5
2F6
100
AcDbEntity
  8
0
100
AcDbLine
 62
2
  6
CONTINUOUS
 10
13.065325
 20
1.632876
 11
16.750025
 21
1.632876
  0
LINE
  5
2F7
100
AcDbEntity
  8
0
100
AcDbLine
 62
2
  6
CONTINUOUS
 10
13.206030605
 20
1.699336785
 11
13.1406778
 21
1.699336785
  0
LINE
  5
2F8
100
AcDbEntity
  8
0
100
AcDbLine
 62
2
  6
CONTINUOUS
 10
13.1406778
 20
1.830042395
 11
13.206030605
 21
1.830042395
  0
LWPOLYLINE
  5
2F9
100
AcDbEntity
  8
0
100
AcDbPolyline
 62
7
  6
CONTINUOUS
 90
2
 70
0
 43
0.0200000008
 10
11.4718052732
 20
1.9701650509
 10
16.75
 20
1.970721
  0
LINE
  5
2FA
100
AcDbEntity
  8
0
100
AcDbLine
 62
7
  6
CONTINUOUS
 10
12.3962658799
 20
0.5361608992
 11
12.8357572221
 21
0.4247609248
  0
LWPOLYLINE
  5
2FB
100
AcDbEntity
  8
0
100
AcDbPolyline
 62
7
  6
CONTINUOUS
 90
2
 70
0
 43
0.0200000008
 10
11.482032
 20
0.25
 10
11.482032
 20
1.970721
  0
LINE
  5
2FC
100
AcDbEntity
  8
0
100
AcDbLine
 62
2
  6
CONTINUOUS
 10
11.8647879778
 20
0.3865620904
 11
11.8647879778
 21
0.5793595336
  0
LINE
  5
2FD
100
AcDbEntity
  8
0
100
AcDbLine
 62
2
  6
CONTINUOUS
 10
11.8647879778
 20
0.6106095634
 11
11.8647879778
 21
0.6731096232
  0
LINE
  5
2FE
100
AcDbEntity
  8
0
100
AcDbLine
 62
2
  6
CONTINUOUS
 10
11.8647879778
 20
0.704359653
 11
11.8647879778
 21
0.8911570904
  0
LINE
  5
2FF
100
AcDbEntity
  8
0
100
AcDbLine
 62
7
  6
CONTINUOUS
 10
12.3962658799
 20
0.5361608992
 11
12.3962658799
 21
0.7462095293
  0
LINE
  5
300
100
AcDbEntity
  8
0
100
AcDbLine
 62
7
  6
CONTINUOUS
 10
12.8357572221
 20
0.4247609248
 11
12.8357572221
 21
0.8589530402
  0
LWPOLYLINE
  5
301
100
AcDbEntity
  8
0
100
AcDbPolyline
 62
7
  6
CONTINUOUS
 90
2
 70
0
 43
0.0200000008
 10
13.065325
 20
1.970721
 10
13.065325
 20
0.258589
  0
LINE
  5
302
100
AcDbEntity
  8
0
100
AcDbLine
 62
2
  6
CONTINUOUS
 10
13.1406778
 20
1.699336785
 11
13.1406778
 21
1.830042395
  0
LINE
  5
303
100
AcDbEntity
  8
0
100
AcDbLine
 62
2
  6
CONTINUOUS
 10
13.206030605
 20
1.830042395
 11
13.206030605
 21
1.699336785
  0
LWPOLYLINE
  5
304
100
AcDbEntity
  8
0
100
AcDbPolyline
 62
7
  6
CONTINUOUS
 90
2
 70
0
 43
0.0200000008
 10
16.75
 20
10.758589
 10
0.25
 20
10.758589
  0
LINE
  5
305
100
AcDbEntity
  8
0
100
AcDbLine
 62
2
  6
CONTINUOUS
 10
13.1406778
 20
1.8298589931
 11
13.1408612019
 21
1.830042395
  0
LINE
  5
306
100
AcDbEntity
  8
0
100
AcDbLine
 62
2
  6
CONTINUOUS
 10
13.206030605
 20
1.8952117981
 11
13.2062140069
 21
1.8953952
  0
LINE
  5
307
100
AcDbEntity
  8
0
100
AcDbLine
 62
2
  6
CONTINUOUS
 10
13.1406778
 20
1.8284779251
 11
13.1422422699
 21
1.830042395
  0
LINE
  5
308
100
AcDbEntity
  8
0
100
AcDbLine
 62
2
  6
CONTINUOUS
 10
13.206030605
 20
1.8938307301
 11
13.2075950749
 21
1.8953952
  0
LINE
  5
309
100
AcDbEntity
  8
0
100
AcDbLine
 62
2
  6
CONTINUOUS
 10
13.1406778
 20
1.8270968572
 11
13.1436233378
 21
1.830042395
  0
LINE
  5
30A
100
AcDbEntity
  8
0
100
AcDbLine
 62
2
  6
CONTINUOUS
 10
13.206030605
 20
1.8924496622
 11
13.2089761428
 21
1.8953952
  0
LINE
  5
30B
100
AcDbEntity
  8
0
100
AcDbLine
 62
2
  6
CONTINUOUS
 10
13.1406778
 20
1.8257157893
 11
13.1450044057
 21
1.830042395
  0
LINE
  5
30C
100
AcDbEntity
  8
0
100
AcDbLine
 62
2
  6
CONTINUOUS
 10
13.206030605
 20
1.8910685943
 11
13.2103572107
 21
1.8953952
  0
LINE
  5
30D
100
AcDbEntity
  8
0
100
AcDbLine
 62
2
  6
CONTINUOUS
 10
13.1406778
 20
1.8243347213
 11
13.1463854737
 21
1.830042395
  0
LINE
  5
30E
100
AcDbEntity
  8
0
100
AcDbLine
 62
2
  6
CONTINUOUS
 10
13.206030605
 20
1.8896875263
 11
13.2117382787
 21
1.8953952
  0
LINE
  5
30F
100
AcDbEntity
  8
0
100
AcDbLine
 62
2
  6
CONTINUOUS
 10
13.1406778
 20
1.8229536534
 11
13.1477665416
 21
1.830042395
  0
LINE
  5
310
100
AcDbEntity
  8
0
100
AcDbLine
 62
2
  6
CONTINUOUS
 10
13.206030605
 20
1.8883064584
 11
13.2131193466
 21
1.8953952
  0
LINE
  5
311
100
AcDbEntity
  8
0
100
AcDbLine
 62
2
  6
CONTINUOUS
 10
13.1406778
 20
1.8215725855
 11
13.1491476095
 21
1.830042395
  0
LINE
  5
312
100
AcDbEntity
  8
0
100
AcDbLine
 62
2
  6
CONTINUOUS
 10
13.206030605
 20
1.8869253905
 11
13.2145004145
 21
1.8953952
  0
LINE
  5
313
100
AcDbEntity
  8
0
100
AcDbLine
 62
2
  6
CONTINUOUS
 10
13.1406778
 20
1.8201915175
 11
13.1505286775
 21
1.830042395
  0
LINE
  5
314
100
AcDbEntity
  8
0
100
AcDbLine
 62
2
  6
CONTINUOUS
 10
13.206030605
 20
1.8855443225
 11
13.2158814825
 21
1.8953952
  0
LINE
  5
315
100
AcDbEntity
  8
0
100
AcDbLine
 62
2
  6
CONTINUOUS
 10
13.1406778
 20
1.8188104496
 11
13.1519097454
 21
1.830042395
  0
LINE
  5
316
100
AcDbEntity
  8
0
100
AcDbLine
 62
2
  6
CONTINUOUS
 10
13.206030605
 20
1.8841632546
 11
13.2172625504
 21
1.8953952
  0
LINE
  5
317
100
AcDbEntity
  8
0
100
AcDbLine
 62
2
  6
CONTINUOUS
 10
13.1406778
 20
1.8174293817
 11
13.1532908133
 21
1.830042395
  0
LINE
  5
318
100
AcDbEntity
  8
0
100
AcDbLine
 62
2
  6
CONTINUOUS
 10
13.206030605
 20
1.8827821867
 11
13.2186436183
 21
1.8953952
  0
LINE
  5
319
100
AcDbEntity
  8
0
100
AcDbLine
 62
2
  6
CONTINUOUS
 10
13.1406778
 20
1.8160483138
 11
13.1546718812
 21
1.830042395
  0
LINE
  5
31A
100
AcDbEntity
  8
0
100
AcDbLine
 62
2
  6
CONTINUOUS
 10
13.206030605
 20
1.8814011188
 11
13.2200246862
 21
1.8953952
  0
LINE
  5
31B
100
AcDbEntity
  8
0
100
AcDbLine
 62
2
  6
CONTINUOUS
 10
13.1406778
 20
1.8146672458
 11
13.1560529492
 21
1.830042395
  0
LINE
  5
31C
100
AcDbEntity
  8
0
100
AcDbLine
 62
2
  6
CONTINUOUS
 10
13.206030605
 20
1.8800200508
 11
13.2214057542
 21
1.8953952
  0
LINE
  5
31D
100
AcDbEntity
  8
0
100
AcDbLine
 62
2
  6
CONTINUOUS
 10
13.1406778
 20
1.8132861779
 11
13.1574340171
 21
1.830042395
  0
LINE
  5
31E
100
AcDbEntity
  8
0
100
AcDbLine
 62
2
  6
CONTINUOUS
 10
13.206030605
 20
1.8786389829
 11
13.2227868221
 21
1.8953952
  0
LINE
  5
31F
100
AcDbEntity
  8
0
100
AcDbLine
 62
2
  6
CONTINUOUS
 10
13.1406778
 20
1.81190511
 11
13.158815085
 21
1.830042395
  0
LINE
  5
320
100
AcDbEntity
  8
0
100
AcDbLine
 62
2
  6
CONTINUOUS
 10
13.206030605
 20
1.877257915
 11
13.22416789
 21
1.8953952
  0
LINE
  5
321
100
AcDbEntity
  8
0
100
AcDbLine
 62
2
  6
CONTINUOUS
 10
13.1406778
 20
1.810524042
 11
13.160196153
 21
1.830042395
  0
LINE
  5
322
100
AcDbEntity
  8
0
100
AcDbLine
 62
2
  6
CONTINUOUS
 10
13.206030605
 20
1.875876847
 11
13.225548958
 21
1.8953952
  0
LINE
  5
323
100
AcDbEntity
  8
0
100
AcDbLine
 62
2
  6
CONTINUOUS
 10
13.1406778
 20
1.8091429741
 11
13.1615772209
 21
1.830042395
  0
LINE
  5
324
100
AcDbEntity
  8
0
100
AcDbLine
 62
2
  6
CONTINUOUS
 10
13.206030605
 20
1.8744957791
 11
13.2269300259
 21
1.8953952
  0
LINE
  5
325
100
AcDbEntity
  8
0
100
AcDbLine
 62
2
  6
CONTINUOUS
 10
13.1406778
 20
1.8077619062
 11
13.1629582888
 21
1.830042395
  0
LINE
  5
326
100
AcDbEntity
  8
0
100
AcDbLine
 62
2
  6
CONTINUOUS
 10
13.206030605
 20
1.8731147112
 11
13.2283110938
 21
1.8953952
  0
LINE
  5
327
100
AcDbEntity
  8
0
100
AcDbLine
 62
2
  6
CONTINUOUS
 10
13.1406778
 20
1.8063808382
 11
13.1643393568
 21
1.830042395
  0
LINE
  5
328
100
AcDbEntity
  8
0
100
AcDbLine
 62
2
  6
CONTINUOUS
 10
13.206030605
 20
1.8717336432
 11
13.2296921618
 21
1.8953952
  0
LINE
  5
329
100
AcDbEntity
  8
0
100
AcDbLine
 62
2
  6
CONTINUOUS
 10
13.1406778
 20
1.8049997703
 11
13.1657204247
 21
1.830042395
  0
LINE
  5
32A
100
AcDbEntity
  8
0
100
AcDbLine
 62
2
  6
CONTINUOUS
 10
13.206030605
 20
1.8703525753
 11
13.2310732297
 21
1.8953952
  0
LINE
  5
32B
100
AcDbEntity
  8
0
100
AcDbLine
 62
2
  6
CONTINUOUS
 10
13.1406778
 20
1.8036187024
 11
13.1671014926
 21
1.830042395
  0
LINE
  5
32C
100
AcDbEntity
  8
0
100
AcDbLine
 62
2
  6
CONTINUOUS
 10
13.206030605
 20
1.8689715074
 11
13.2324542976
 21
1.8953952
  0
LINE
  5
32D
100
AcDbEntity
  8
0
100
AcDbLine
 62
2
  6
CONTINUOUS
 10
13.1406778
 20
1.8022376344
 11
13.1684825606
 21
1.830042395
  0
LINE
  5
32E
100
AcDbEntity
  8
0
100
AcDbLine
 62
2
  6
CONTINUOUS
 10
13.206030605
 20
1.8675904394
 11
13.2338353656
 21
1.8953952
  0
LINE
  5
32F
100
AcDbEntity
  8
0
100
AcDbLine
 62
2
  6
CONTINUOUS
 10
13.1406778
 20
1.8008565665
 11
13.1698636285
 21
1.830042395
  0
LINE
  5
330
100
AcDbEntity
  8
0
100
AcDbLine
 62
2
  6
CONTINUOUS
 10
13.206030605
 20
1.8662093715
 11
13.2352164335
 21
1.8953952
  0
LINE
  5
331
100
AcDbEntity
  8
0
100
AcDbLine
 62
2
  6
CONTINUOUS
 10
13.1406778
 20
1.7994754986
 11
13.1712446964
 21
1.830042395
  0
LINE
  5
332
100
AcDbEntity
  8
0
100
AcDbLine
 62
2
  6
CONTINUOUS
 10
13.206030605
 20
1.8648283036
 11
13.2365975014
 21
1.8953952
  0
LINE
  5
333
100
AcDbEntity
  8
0
100
AcDbLine
 62
2
  6
CONTINUOUS
 10
13.1406778
 20
1.7980944306
 11
13.1726257644
 21
1.830042395
  0
LINE
  5
334
100
AcDbEntity
  8
0
100
AcDbLine
 62
2
  6
CONTINUOUS
 10
13.206030605
 20
1.8634472356
 11
13.2379785694
 21
1.8953952
  0
LINE
  5
335
100
AcDbEntity
  8
0
100
AcDbLine
 62
2
  6
CONTINUOUS
 10
13.1406778
 20
1.7967133627
 11
13.1740068323
 21
1.830042395
  0
LINE
  5
336
100
AcDbEntity
  8
0
100
AcDbLine
 62
2
  6
CONTINUOUS
 10
13.206030605
 20
1.8620661677
 11
13.2393596373
 21
1.8953952
  0
LINE
  5
337
100
AcDbEntity
  8
0
100
AcDbLine
 62
2
  6
CONTINUOUS
 10
13.1406778
 20
1.7953322948
 11
13.1753879002
 21
1.830042395
  0
LINE
  5
338
100
AcDbEntity
  8
0
100
AcDbLine
 62
2
  6
CONTINUOUS
 10
13.206030605
 20
1.8606850998
 11
13.2407407052
 21
1.8953952
  0
LINE
  5
339
100
AcDbEntity
  8
0
100
AcDbLine
 62
2
  6
CONTINUOUS
 10
13.1406778
 20
1.7939512268
 11
13.1767689682
 21
1.830042395
  0
LINE
  5
33A
100
AcDbEntity
  8
0
100
AcDbLine
 62
2
  6
CONTINUOUS
 10
13.206030605
 20
1.8593040318
 11
13.2421217732
 21
1.8953952
  0
LINE
  5
33B
100
AcDbEntity
  8
0
100
AcDbLine
 62
2
  6
CONTINUOUS
 10
13.1406778
 20
1.7925701589
 11
13.1781500361
 21
1.830042395
  0
LINE
  5
33C
100
AcDbEntity
  8
0
100
AcDbLine
 62
2
  6
CONTINUOUS
 10
13.206030605
 20
1.8579229639
 11
13.2435028411
 21
1.8953952
  0
LINE
  5
33D
100
AcDbEntity
  8
0
100
AcDbLine
 62
2
  6
CONTINUOUS
 10
13.1406778
 20
1.791189091
 11
13.179531104
 21
1.830042395
  0
LINE
  5
33E
100
AcDbEntity
  8
0
100
AcDbLine
 62
2
  6
CONTINUOUS
 10
13.206030605
 20
1.856541896
 11
13.244883909
 21
1.8953952
  0
LINE
  5
33F
100
AcDbEntity
  8
0
100
AcDbLine
 62
2
  6
CONTINUOUS
 10
13.1406778
 20
1.789808023
 11
13.180912172
 21
1.830042395
  0
LINE
  5
340
100
AcDbEntity
  8
0
100
AcDbLine
 62
2
  6
CONTINUOUS
 10
13.206030605
 20
1.855160828
 11
13.246264977
 21
1.8953952
  0
LINE
  5
341
100
AcDbEntity
  8
0
100
AcDbLine
 62
2
  6
CONTINUOUS
 10
13.1406778
 20
1.7884269551
 11
13.1822932399
 21
1.830042395
  0
LINE
  5
342
100
AcDbEntity
  8
0
100
AcDbLine
 62
2
  6
CONTINUOUS
 10
13.206030605
 20
1.8537797601
 11
13.2476460449
 21
1.8953952
  0
LINE
  5
343
100
AcDbEntity
  8
0
100
AcDbLine
 62
2
  6
CONTINUOUS
 10
13.1406778
 20
1.7870458872
 11
13.1836743078
 21
1.830042395
  0
LINE
  5
344
100
AcDbEntity
  8
0
100
AcDbLine
 62
2
  6
CONTINUOUS
 10
13.206030605
 20
1.8523986922
 11
13.2490271128
 21
1.8953952
  0
LINE
  5
345
100
AcDbEntity
  8
0
100
AcDbLine
 62
2
  6
CONTINUOUS
 10
13.1406778
 20
1.7856648192
 11
13.1850553758
 21
1.830042395
  0
LINE
  5
346
100
AcDbEntity
  8
0
100
AcDbLine
 62
2
  6
CONTINUOUS
 10
13.206030605
 20
1.8510176242
 11
13.2504081808
 21
1.8953952
  0
LINE
  5
347
100
AcDbEntity
  8
0
100
AcDbLine
 62
2
  6
CONTINUOUS
 10
13.1406778
 20
1.7842837513
 11
13.1864364437
 21
1.830042395
  0
LINE
  5
348
100
AcDbEntity
  8
0
100
AcDbLine
 62
2
  6
CONTINUOUS
 10
13.206030605
 20
1.8496365563
 11
13.2517892487
 21
1.8953952
  0
LINE
  5
349
100
AcDbEntity
  8
0
100
AcDbLine
 62
2
  6
CONTINUOUS
 10
13.1406778
 20
1.7829026834
 11
13.1878175116
 21
1.830042395
  0
LINE
  5
34A
100
AcDbEntity
  8
0
100
AcDbLine
 62
2
  6
CONTINUOUS
 10
13.206030605
 20
1.8482554884
 11
13.2531703166
 21
1.8953952
  0
LINE
  5
34B
100
AcDbEntity
  8
0
100
AcDbLine
 62
2
  6
CONTINUOUS
 10
13.1406778
 20
1.7815216155
 11
13.1891985795
 21
1.830042395
  0
LINE
  5
34C
100
AcDbEntity
  8
0
100
AcDbLine
 62
2
  6
CONTINUOUS
 10
13.206030605
 20
1.8468744205
 11
13.2545513845
 21
1.8953952
  0
LINE
  5
34D
100
AcDbEntity
  8
0
100
AcDbLine
 62
2
  6
CONTINUOUS
 10
13.1406778
 20
1.7801405475
 11
13.1905796475
 21
1.830042395
  0
LINE
  5
34E
100
AcDbEntity
  8
0
100
AcDbLine
 62
2
  6
CONTINUOUS
 10
13.206030605
 20
1.8454933525
 11
13.2559324525
 21
1.8953952
  0
LINE
  5
34F
100
AcDbEntity
  8
0
100
AcDbLine
 62
2
  6
CONTINUOUS
 10
13.1406778
 20
1.7787594796
 11
13.1919607154
 21
1.830042395
  0
LINE
  5
350
100
AcDbEntity
  8
0
100
AcDbLine
 62
2
  6
CONTINUOUS
 10
13.206030605
 20
1.8441122846
 11
13.2573135204
 21
1.8953952
  0
LINE
  5
351
100
AcDbEntity
  8
0
100
AcDbLine
 62
2
  6
CONTINUOUS
 10
13.1406778
 20
1.7773784117
 11
13.1933417833
 21
1.830042395
  0
LINE
  5
352
100
AcDbEntity
  8
0
100
AcDbLine
 62
2
  6
CONTINUOUS
 10
13.206030605
 20
1.8427312167
 11
13.2586945883
 21
1.8953952
  0
LINE
  5
353
100
AcDbEntity
  8
0
100
AcDbLine
 62
2
  6
CONTINUOUS
 10
13.1406778
 20
1.7759973437
 11
13.1947228513
 21
1.830042395
  0
LINE
  5
354
100
AcDbEntity
  8
0
100
AcDbLine
 62
2
  6
CONTINUOUS
 10
13.206030605
 20
1.8413501487
 11
13.2600756563
 21
1.8953952
  0
LINE
  5
355
100
AcDbEntity
  8
0
100
AcDbLine
 62
2
  6
CONTINUOUS
 10
13.1406778
 20
1.7746162758
 11
13.1961039192
 21
1.830042395
  0
LINE
  5
356
100
AcDbEntity
  8
0
100
AcDbLine
 62
2
  6
CONTINUOUS
 10
13.206030605
 20
1.8399690808
 11
13.2614567242
 21
1.8953952
  0
LINE
  5
357
100
AcDbEntity
  8
0
100
AcDbLine
 62
2
  6
CONTINUOUS
 10
13.1406778
 20
1.7732352079
 11
13.1974849871
 21
1.830042395
  0
LINE
  5
358
100
AcDbEntity
  8
0
100
AcDbLine
 62
2
  6
CONTINUOUS
 10
13.206030605
 20
1.8385880129
 11
13.2628377921
 21
1.8953952
  0
LINE
  5
359
100
AcDbEntity
  8
0
100
AcDbLine
 62
2
  6
CONTINUOUS
 10
13.1406778
 20
1.7718541399
 11
13.1988660551
 21
1.830042395
  0
LINE
  5
35A
100
AcDbEntity
  8
0
100
AcDbLine
 62
2
  6
CONTINUOUS
 10
13.206030605
 20
1.8372069449
 11
13.2642188601
 21
1.8953952
  0
LINE
  5
35B
100
AcDbEntity
  8
0
100
AcDbLine
 62
2
  6
CONTINUOUS
 10
13.1406778
 20
1.770473072
 11
13.200247123
 21
1.830042395
  0
LINE
  5
35C
100
AcDbEntity
  8
0
100
AcDbLine
 62
2
  6
CONTINUOUS
 10
13.206030605
 20
1.835825877
 11
13.265599928
 21
1.8953952
  0
LINE
  5
35D
100
AcDbEntity
  8
0
100
AcDbLine
 62
2
  6
CONTINUOUS
 10
13.1406778
 20
1.7690920041
 11
13.2016281909
 21
1.830042395
  0
LINE
  5
35E
100
AcDbEntity
  8
0
100
AcDbLine
 62
2
  6
CONTINUOUS
 10
13.206030605
 20
1.8344448091
 11
13.2669809959
 21
1.8953952
  0
LINE
  5
35F
100
AcDbEntity
  8
0
100
AcDbLine
 62
2
  6
CONTINUOUS
 10
13.1406778
 20
1.7677109361
 11
13.2030092589
 21
1.830042395
  0
LINE
  5
360
100
AcDbEntity
  8
0
100
AcDbLine
 62
2
  6
CONTINUOUS
 10
13.206030605
 20
1.8330637411
 11
13.2683620639
 21
1.8953952
  0
LINE
  5
361
100
AcDbEntity
  8
0
100
AcDbLine
 62
2
  6
CONTINUOUS
 10
13.1406778
 20
1.7663298682
 11
13.2043903268
 21
1.830042395
  0
LINE
  5
362
100
AcDbEntity
  8
0
100
AcDbLine
 62
2
  6
CONTINUOUS
 10
13.206030605
 20
1.8316826732
 11
13.2697431318
 21
1.8953952
  0
LINE
  5
363
100
AcDbEntity
  8
0
100
AcDbLine
 62
2
  6
CONTINUOUS
 10
13.1406778
 20
1.7649488003
 11
13.2057713947
 21
1.830042395
  0
LINE
  5
364
100
AcDbEntity
  8
0
100
AcDbLine
 62
2
  6
CONTINUOUS
 10
13.206030605
 20
1.8303016053
 11
13.2711241997
 21
1.8953952
  0
LINE
  5
365
100
AcDbEntity
  8
0
100
AcDbLine
 62
2
  6
CONTINUOUS
 10
13.1406778
 20
1.7635677323
 11
13.206030605
 21
1.8289205373
  0
LINE
  5
366
100
AcDbEntity
  8
0
100
AcDbLine
 62
2
  6
CONTINUOUS
 10
13.2071524627
 20
1.830042395
 11
13.2724124836
 21
1.895302416
  0
LINE
  5
367
100
AcDbEntity
  8
0
100
AcDbLine
 62
2
  6
CONTINUOUS
 10
13.1406778
 20
1.7621866644
 11
13.206030605
 21
1.8275394694
  0
LINE
  5
368
100
AcDbEntity
  8
0
100
AcDbLine
 62
2
  6
CONTINUOUS
 10
13.2085335306
 20
1.830042395
 11
13.2736793293
 21
1.8951881937
  0
LINE
  5
369
100
AcDbEntity
  8
0
100
AcDbLine
 62
2
  6
CONTINUOUS
 10
13.1406778
 20
1.7608055965
 11
13.206030605
 21
1.8261584015
  0
LINE
  5
36A
100
AcDbEntity
  8
0
100
AcDbLine
 62
2
  6
CONTINUOUS
 10
13.2099145985
 20
1.830042395
 11
13.2749461751
 21
1.8950739715
  0
LINE
  5
36B
100
AcDbEntity
  8
0
100
AcDbLine
 62
2
  6
CONTINUOUS
 10
13.1406778
 20
1.7594245285
 11
13.206030605
 21
1.8247773335
  0
LINE
  5
36C
100
AcDbEntity
  8
0
100
AcDbLine
 62
2
  6
CONTINUOUS
 10
13.2112956665
 20
1.830042395
 11
13.2762130208
 21
1.8949597493
  0
LINE
  5
36D
100
AcDbEntity
  8
0
100
AcDbLine
 62
2
  6
CONTINUOUS
 10
13.1406778
 20
1.7580434606
 11
13.206030605
 21
1.8233962656
  0
LINE
  5
36E
100
AcDbEntity
  8
0
100
AcDbLine
 62
2
  6
CONTINUOUS
 10
13.2126767344
 20
1.830042395
 11
13.2774798665
 21
1.8948455271
  0
LINE
  5
36F
100
AcDbEntity
  8
0
100
AcDbLine
 62
2
  6
CONTINUOUS
 10
13.1406778
 20
1.7566623927
 11
13.206030605
 21
1.8220151977
  0
LINE
  5
370
100
AcDbEntity
  8
0
100
AcDbLine
 62
2
  6
CONTINUOUS
 10
13.2140578023
 20
1.830042395
 11
13.2787467122
 21
1.8947313049
  0
LINE
  5
371
100
AcDbEntity
  8
0
100
AcDbLine
 62
2
  6
CONTINUOUS
 10
13.1406778
 20
1.7552813247
 11
13.206030605
 21
1.8206341297
  0
LINE
  5
372
100
AcDbEntity
  8
0
100
AcDbLine
 62
2
  6
CONTINUOUS
 10
13.2154388703
 20
1.830042395
 11
13.280013558
 21
1.8946170827
  0
LINE
  5
373
100
AcDbEntity
  8
0
100
AcDbLine
 62
2
  6
CONTINUOUS
 10
13.1406778
 20
1.7539002568
 11
13.206030605
 21
1.8192530618
  0
LINE
  5
374
100
AcDbEntity
  8
0
100
AcDbLine
 62
2
  6
CONTINUOUS
 10
13.2168199382
 20
1.830042395
 11
13.2812804037
 21
1.8945028605
  0
LINE
  5
375
100
AcDbEntity
  8
0
100
AcDbLine
 62
2
  6
CONTINUOUS
 10
13.1406778
 20
1.7525191889
 11
13.206030605
 21
1.8178719939
  0
LINE
  5
376
100
AcDbEntity
  8
0
100
AcDbLine
 62
2
  6
CONTINUOUS
 10
13.2182010061
 20
1.830042395
 11
13.2825472494
 21
1.8943886383
  0
LINE
  5
377
100
AcDbEntity
  8
0
100
AcDbLine
 62
2
  6
CONTINUOUS
 10
13.1406778
 20
1.7511381209
 11
13.206030605
 21
1.8164909259
  0
LINE
  5
378
100
AcDbEntity
  8
0
100
AcDbLine
 62
2
  6
CONTINUOUS
 10
13.2195820741
 20
1.830042395
 11
13.2837343128
 21
1.8941946338
  0
LINE
  5
379
100
AcDbEntity
  8
0
100
AcDbLine
 62
2
  6
CONTINUOUS
 10
13.1406778
 20
1.749757053
 11
13.206030605
 21
1.815109858
  0
LINE
  5
37A
100
AcDbEntity
  8
0
100
AcDbLine
 62
2
  6
CONTINUOUS
 10
13.220963142
 20
1.830042395
 11
13.2848134565
 21
1.8938927095
  0
LINE
  5
37B
100
AcDbEntity
  8
0
100
AcDbLine
 62
2
  6
CONTINUOUS
 10
13.1406778
 20
1.7483759851
 11
13.206030605
 21
1.8137287901
  0
LINE
  5
37C
100
AcDbEntity
  8
0
100
AcDbLine
 62
2
  6
CONTINUOUS
 10
13.2223442099
 20
1.830042395
 11
13.2858926002
 21
1.8935907853
  0
LINE
  5
37D
100
AcDbEntity
  8
0
100
AcDbLine
 62
2
  6
CONTINUOUS
 10
13.1406778
 20
1.7469949172
 11
13.206030605
 21
1.8123477222
  0
LINE
  5
37E
100
AcDbEntity
  8
0
100
AcDbLine
 62
2
  6
CONTINUOUS
 10
13.2237252778
 20
1.830042395
 11
13.2869717439
 21
1.8932888611
  0
LINE
  5
37F
100
AcDbEntity
  8
0
100
AcDbLine
 62
2
  6
CONTINUOUS
 10
13.1406778
 20
1.7456138492
 11
13.206030605
 21
1.8109666542
  0
LINE
  5
380
100
AcDbEntity
  8
0
100
AcDbLine
 62
2
  6
CONTINUOUS
 10
13.2251063458
 20
1.830042395
 11
13.2880508876
 21
1.8929869368
  0
LINE
  5
381
100
AcDbEntity
  8
0
100
AcDbLine
 62
2
  6
CONTINUOUS
 10
13.1406778
 20
1.7442327813
 11
13.206030605
 21
1.8095855863
  0
LINE
  5
382
100
AcDbEntity
  8
0
100
AcDbLine
 62
2
  6
CONTINUOUS
 10
13.2264874137
 20
1.830042395
 11
13.2891300313
 21
1.8926850126
  0
LINE
  5
383
100
AcDbEntity
  8
0
100
AcDbLine
 62
2
  6
CONTINUOUS
 10
13.1406778
 20
1.7428517134
 11
13.206030605
 21
1.8082045184
  0
LINE
  5
384
100
AcDbEntity
  8
0
100
AcDbLine
 62
2
  6
CONTINUOUS
 10
13.2278684816
 20
1.830042395
 11
13.290209175
 21
1.8923830884
  0
LINE
  5
385
100
AcDbEntity
  8
0
100
AcDbLine
 62
2
  6
CONTINUOUS
 10
13.1406778
 20
1.7414706454
 11
13.206030605
 21
1.8068234504
  0
LINE
  5
386
100
AcDbEntity
  8
0
100
AcDbLine
 62
2
  6
CONTINUOUS
 10
13.2292495496
 20
1.830042395
 11
13.2912883187
 21
1.8920811641
  0
LINE
  5
387
100
AcDbEntity
  8
0
100
AcDbLine
 62
2
  6
CONTINUOUS
 10
13.1406778
 20
1.7400895775
 11
13.206030605
 21
1.8054423825
  0
LINE
  5
388
100
AcDbEntity
  8
0
100
AcDbLine
 62
2
  6
CONTINUOUS
 10
13.2306306175
 20
1.830042395
 11
13.2923674624
 21
1.8917792399
  0
LINE
  5
389
100
AcDbEntity
  8
0
100
AcDbLine
 62
2
  6
CONTINUOUS
 10
13.1406778
 20
1.7387085096
 11
13.206030605
 21
1.8040613146
  0
LINE
  5
38A
100
AcDbEntity
  8
0
100
AcDbLine
 62
2
  6
CONTINUOUS
 10
13.2320116854
 20
1.830042395
 11
13.2934466061
 21
1.8914773157
  0
LINE
  5
38B
100
AcDbEntity
  8
0
100
AcDbLine
 62
2
  6
CONTINUOUS
 10
13.1406778
 20
1.7373274416
 11
13.206030605
 21
1.8026802466
  0
LINE
  5
38C
100
AcDbEntity
  8
0
100
AcDbLine
 62
2
  6
CONTINUOUS
 10
13.2333927534
 20
1.830042395
 11
13.2945257498
 21
1.8911753914
  0
LINE
  5
38D
100
AcDbEntity
  8
0
100
AcDbLine
 62
2
  6
CONTINUOUS
 10
13.1406778
 20
1.7359463737
 11
13.206030605
 21
1.8012991787
  0
LINE
  5
38E
100
AcDbEntity
  8
0
100
AcDbLine
 62
2
  6
CONTINUOUS
 10
13.2347738213
 20
1.830042395
 11
13.295462794
 21
1.8907313677
  0
LINE
  5
38F
100
AcDbEntity
  8
0
100
AcDbLine
 62
2
  6
CONTINUOUS
 10
13.1406778
 20
1.7345653058
 11
13.206030605
 21
1.7999181108
  0
LINE
  5
390
100
AcDbEntity
  8
0
100
AcDbLine
 62
2
  6
CONTINUOUS
 10
13.2361548892
 20
1.830042395
 11
13.2963884125
 21
1.8902759183
  0
LINE
  5
391
100
AcDbEntity
  8
0
100
AcDbLine
 62
2
  6
CONTINUOUS
 10
13.1406778
 20
1.7331842378
 11
13.206030605
 21
1.7985370428
  0
LINE
  5
392
100
AcDbEntity
  8
0
100
AcDbLine
 62
2
  6
CONTINUOUS
 10
13.2375359572
 20
1.830042395
 11
13.2973140311
 21
1.8898204689
  0
LINE
  5
393
100
AcDbEntity
  8
0
100
AcDbLine
 62
2
  6
CONTINUOUS
 10
13.1406778
 20
1.7318031699
 11
13.206030605
 21
1.7971559749
  0
LINE
  5
394
100
AcDbEntity
  8
0
100
AcDbLine
 62
2
  6
CONTINUOUS
 10
13.2389170251
 20
1.830042395
 11
13.2982396496
 21
1.8893650195
  0
LINE
  5
395
100
AcDbEntity
  8
0
100
AcDbLine
 62
2
  6
CONTINUOUS
 10
13.1406778
 20
1.730422102
 11
13.206030605
 21
1.795774907
  0
LINE
  5
396
100
AcDbEntity
  8
0
100
AcDbLine
 62
2
  6
CONTINUOUS
 10
13.240298093
 20
1.830042395
 11
13.2991652681
 21
1.8889095701
  0
LINE
  5
397
100
AcDbEntity
  8
0
100
AcDbLine
 62
2
  6
CONTINUOUS
 10
13.1406778
 20
1.729041034
 11
13.206030605
 21
1.794393839
  0
LINE
  5
398
100
AcDbEntity
  8
0
100
AcDbLine
 62
2
  6
CONTINUOUS
 10
13.241679161
 20
1.830042395
 11
13.3000908867
 21
1.8884541207
  0
LINE
  5
399
100
AcDbEntity
  8
0
100
AcDbLine
 62
2
  6
CONTINUOUS
 10
13.1406778
 20
1.7276599661
 11
13.206030605
 21
1.7930127711
  0
LINE
  5
39A
100
AcDbEntity
  8
0
100
AcDbLine
 62
2
  6
CONTINUOUS
 10
13.2430602289
 20
1.830042395
 11
13.3010165052
 21
1.8879986713
  0
LINE
  5
39B
100
AcDbEntity
  8
0
100
AcDbLine
 62
2
  6
CONTINUOUS
 10
13.1406778
 20
1.7262788982
 11
13.206030605
 21
1.7916317032
  0
LINE
  5
39C
100
AcDbEntity
  8
0
100
AcDbLine
 62
2
  6
CONTINUOUS
 10
13.2444412968
 20
1.830042395
 11
13.3019421237
 21
1.8875432219
  0
LINE
  5
39D
100
AcDbEntity
  8
0
100
AcDbLine
 62
2
  6
CONTINUOUS
 10
13.1406778
 20
1.7248978302
 11
13.206030605
 21
1.7902506352
  0
LINE
  5
39E
100
AcDbEntity
  8
0
100
AcDbLine
 62
2
  6
CONTINUOUS
 10
13.2458223648
 20
1.830042395
 11
13.3028677423
 21
1.8870877725
  0
LINE
  5
39F
100
AcDbEntity
  8
0
100
AcDbLine
 62
2
  6
CONTINUOUS
 10
13.1406778
 20
1.7235167623
 11
13.206030605
 21
1.7888695673
  0
LINE
  5
3A0
100
AcDbEntity
  8
0
100
AcDbLine
 62
2
  6
CONTINUOUS
 10
13.2472034327
 20
1.830042395
 11
13.3037933608
 21
1.8866323231
  0
LINE
  5
3A1
100
AcDbEntity
  8
0
100
AcDbLine
 62
2
  6
CONTINUOUS
 10
13.1406778
 20
1.7221356944
 11
13.206030605
 21
1.7874884994
  0
LINE
  5
3A2
100
AcDbEntity
  8
0
100
AcDbLine
 62
2
  6
CONTINUOUS
 10
13.2485845006
 20
1.830042395
 11
13.3047189793
 21
1.8861768737
  0
LINE
  5
3A3
100
AcDbEntity
  8
0
100
AcDbLine
 62
2
  6
CONTINUOUS
 10
13.1406778
 20
1.7207546264
 11
13.206030605
 21
1.7861074314
  0
LINE
  5
3A4
100
AcDbEntity
  8
0
100
AcDbLine
 62
2
  6
CONTINUOUS
 10
13.2499655686
 20
1.830042395
 11
13.3055716896
 21
1.8856485161
  0
LINE
  5
3A5
100
AcDbEntity
  8
0
100
AcDbLine
 62
2
  6
CONTINUOUS
 10
13.1406778
 20
1.7193735585
 11
13.206030605
 21
1.7847263635
  0
LINE
  5
3A6
100
AcDbEntity
  8
0
100
AcDbLine
 62
2
  6
CONTINUOUS
 10
13.2513466365
 20
1.830042395
 11
13.3063620539
 21
1.8850578124
  0
LINE
  5
3A7
100
AcDbEntity
  8
0
100
AcDbLine
 62
2
  6
CONTINUOUS
 10
13.1406778
 20
1.7179924906
 11
13.206030605
 21
1.7833452956
  0
LINE
  5
3A8
100
AcDbEntity
  8
0
100
AcDbLine
 62
2
  6
CONTINUOUS
 10
13.2527277044
 20
1.830042395
 11
13.3071524182
 21
1.8844671087
  0
LINE
  5
3A9
100
AcDbEntity
  8
0
100
AcDbLine
 62
2
  6
CONTINUOUS
 10
13.1406778
 20
1.7166114226
 11
13.206030605
 21
1.7819642276
  0
LINE
  5
3AA
100
AcDbEntity
  8
0
100
AcDbLine
 62
2
  6
CONTINUOUS
 10
13.2541087724
 20
1.830042395
 11
13.3079427824
 21
1.8838764051
  0
LINE
  5
3AB
100
AcDbEntity
  8
0
100
AcDbLine
 62
2
  6
CONTINUOUS
 10
13.1406778
 20
1.7152303547
 11
13.206030605
 21
1.7805831597
  0
LINE
  5
3AC
100
AcDbEntity
  8
0
100
AcDbLine
 62
2
  6
CONTINUOUS
 10
13.2554898403
 20
1.830042395
 11
13.3087331467
 21
1.8832857014
  0
LINE
  5
3AD
100
AcDbEntity
  8
0
100
AcDbLine
 62
2
  6
CONTINUOUS
 10
13.1406778
 20
1.7138492868
 11
13.206030605
 21
1.7792020918
  0
LINE
  5
3AE
100
AcDbEntity
  8
0
100
AcDbLine
 62
2
  6
CONTINUOUS
 10
13.2568709082
 20
1.830042395
 11
13.309523511
 21
1.8826949978
  0
LINE
  5
3AF
100
AcDbEntity
  8
0
100
AcDbLine
 62
2
  6
CONTINUOUS
 10
13.1406778
 20
1.7124682189
 11
13.206030605
 21
1.7778210239
  0
LINE
  5
3B0
100
AcDbEntity
  8
0
100
AcDbLine
 62
2
  6
CONTINUOUS
 10
13.2582519761
 20
1.830042395
 11
13.3103138752
 21
1.8821042941
  0
LINE
  5
3B1
100
AcDbEntity
  8
0
100
AcDbLine
 62
2
  6
CONTINUOUS
 10
13.1406778
 20
1.7110871509
 11
13.206030605
 21
1.7764399559
  0
LINE
  5
3B2
100
AcDbEntity
  8
0
100
AcDbLine
 62
2
  6
CONTINUOUS
 10
13.2596330441
 20
1.830042395
 11
13.3111042395
 21
1.8815135904
  0
LINE
  5
3B3
100
AcDbEntity
  8
0
100
AcDbLine
 62
2
  6
CONTINUOUS
 10
13.1406778
 20
1.709706083
 11
13.206030605
 21
1.775058888
  0
LINE
  5
3B4
100
AcDbEntity
  8
0
100
AcDbLine
 62
2
  6
CONTINUOUS
 10
13.261014112
 20
1.830042395
 11
13.3118946038
 21
1.8809228868
  0
LINE
  5
3B5
100
AcDbEntity
  8
0
100
AcDbLine
 62
2
  6
CONTINUOUS
 10
13.1406778
 20
1.7083250151
 11
13.206030605
 21
1.7736778201
  0
LINE
  5
3B6
100
AcDbEntity
  8
0
100
AcDbLine
 62
2
  6
CONTINUOUS
 10
13.2623951799
 20
1.830042395
 11
13.312684968
 21
1.8803321831
  0
LINE
  5
3B7
100
AcDbEntity
  8
0
100
AcDbLine
 62
2
  6
CONTINUOUS
 10
13.1406778
 20
1.7069439471
 11
13.206030605
 21
1.7722967521
  0
LINE
  5
3B8
100
AcDbEntity
  8
0
100
AcDbLine
 62
2
  6
CONTINUOUS
 10
13.2637762479
 20
1.830042395
 11
13.3134753323
 21
1.8797414794
  0
LINE
  5
3B9
100
AcDbEntity
  8
0
100
AcDbLine
 62
2
  6
CONTINUOUS
 10
13.1406778
 20
1.7055628792
 11
13.206030605
 21
1.7709156842
  0
LINE
  5
3BA
100
AcDbEntity
  8
0
100
AcDbLine
 62
2
  6
CONTINUOUS
 10
13.2651573158
 20
1.830042395
 11
13.3142656966
 21
1.8791507758
  0
LINE
  5
3BB
100
AcDbEntity
  8
0
100
AcDbLine
 62
2
  6
CONTINUOUS
 10
13.1406778
 20
1.7041818113
 11
13.206030605
 21
1.7695346163
  0
LINE
  5
3BC
100
AcDbEntity
  8
0
100
AcDbLine
 62
2
  6
CONTINUOUS
 10
13.2665383837
 20
1.830042395
 11
13.3149964024
 21
1.8785004137
  0
LINE
  5
3BD
100
AcDbEntity
  8
0
100
AcDbLine
 62
2
  6
CONTINUOUS
 10
13.1406778
 20
1.7028007433
 11
13.206030605
 21
1.7681535483
  0
LINE
  5
3BE
100
AcDbEntity
  8
0
100
AcDbLine
 62
2
  6
CONTINUOUS
 10
13.2679194517
 20
1.830042395
 11
13.3156785972
 21
1.8778015405
  0
LINE
  5
3BF
100
AcDbEntity
  8
0
100
AcDbLine
 62
2
  6
CONTINUOUS
 10
13.1406778
 20
1.7014196754
 11
13.206030605
 21
1.7667724804
  0
LINE
  5
3C0
100
AcDbEntity
  8
0
100
AcDbLine
 62
2
  6
CONTINUOUS
 10
13.2693005196
 20
1.830042395
 11
13.3163607919
 21
1.8771026673
  0
LINE
  5
3C1
100
AcDbEntity
  8
0
100
AcDbLine
 62
2
  6
CONTINUOUS
 10
13.1406778
 20
1.7000386075
 11
13.206030605
 21
1.7653914125
  0
LINE
  5
3C2
100
AcDbEntity
  8
0
100
AcDbLine
 62
2
  6
CONTINUOUS
 10
13.2706815875
 20
1.830042395
 11
13.3170429867
 21
1.8764037941
  0
LINE
  5
3C3
100
AcDbEntity
  8
0
100
AcDbLine
 62
2
  6
CONTINUOUS
 10
13.1413570455
 20
1.699336785
 11
13.206030605
 21
1.7640103445
  0
LINE
  5
3C4
100
AcDbEntity
  8
0
100
AcDbLine
 62
2
  6
CONTINUOUS
 10
13.27138341
 20
1.8293631495
 11
13.3177251814
 21
1.8757049209
  0
LINE
  5
3C5
100
AcDbEntity
  8
0
100
AcDbLine
 62
2
  6
CONTINUOUS
 10
13.1427381134
 20
1.699336785
 11
13.206030605
 21
1.7626292766
  0
LINE
  5
3C6
100
AcDbEntity
  8
0
100
AcDbLine
 62
2
  6
CONTINUOUS
 10
13.27138341
 20
1.8279820816
 11
13.3184073762
 21
1.8750060478
  0
LINE
  5
3C7
100
AcDbEntity
  8
0
100
AcDbLine
 62
2
  6
CONTINUOUS
 10
13.1441191813
 20
1.699336785
 11
13.206030605
 21
1.7612482087
  0
LINE
  5
3C8
100
AcDbEntity
  8
0
100
AcDbLine
 62
2
  6
CONTINUOUS
 10
13.27138341
 20
1.8266010137
 11
13.3190895709
 21
1.8743071746
  0
LINE
  5
3C9
100
AcDbEntity
  8
0
100
AcDbLine
 62
2
  6
CONTINUOUS
 10
13.1455002493
 20
1.699336785
 11
13.206030605
 21
1.7598671407
  0
LINE
  5
3CA
100
AcDbEntity
  8
0
100
AcDbLine
 62
2
  6
CONTINUOUS
 10
13.27138341
 20
1.8252199457
 11
13.3197717657
 21
1.8736083014
  0
LINE
  5
3CB
100
AcDbEntity
  8
0
100
AcDbLine
 62
2
  6
CONTINUOUS
 10
13.1468813172
 20
1.699336785
 11
13.206030605
 21
1.7584860728
  0
LINE
  5
3CC
100
AcDbEntity
  8
0
100
AcDbLine
 62
2
  6
CONTINUOUS
 10
13.27138341
 20
1.8238388778
 11
13.3204457955
 21
1.8729012633
  0
LINE
  5
3CD
100
AcDbEntity
  8
0
100
AcDbLine
 62
2
  6
CONTINUOUS
 10
13.1482623851
 20
1.699336785
 11
13.206030605
 21
1.7571050049
  0
LINE
  5
3CE
100
AcDbEntity
  8
0
100
AcDbLine
 62
2
  6
CONTINUOUS
 10
13.27138341
 20
1.8224578099
 11
13.3210200408
 21
1.8720944407
  0
LINE
  5
3CF
100
AcDbEntity
  8
0
100
AcDbLine
 62
2
  6
CONTINUOUS
 10
13.1496434531
 20
1.699336785
 11
13.206030605
 21
1.7557239369
  0
LINE
  5
3D0
100
AcDbEntity
  8
0
100
AcDbLine
 62
2
  6
CONTINUOUS
 10
13.27138341
 20
1.8210767419
 11
13.3215942862
 21
1.8712876181
  0
LINE
  5
3D1
100
AcDbEntity
  8
0
100
AcDbLine
 62
2
  6
CONTINUOUS
 10
13.151024521
 20
1.699336785
 11
13.206030605
 21
1.754342869
  0
LINE
  5
3D2
100
AcDbEntity
  8
0
100
AcDbLine
 62
2
  6
CONTINUOUS
 10
13.27138341
 20
1.819695674
 11
13.3221685316
 21
1.8704807956
  0
LINE
  5
3D3
100
AcDbEntity
  8
0
100
AcDbLine
 62
2
  6
CONTINUOUS
 10
13.1524055889
 20
1.699336785
 11
13.206030605
 21
1.7529618011
  0
LINE
  5
3D4
100
AcDbEntity
  8
0
100
AcDbLine
 62
2
  6
CONTINUOUS
 10
13.27138341
 20
1.8183146061
 11
13.3227427769
 21
1.869673973
  0
LINE
  5
3D5
100
AcDbEntity
  8
0
100
AcDbLine
 62
2
  6
CONTINUOUS
 10
13.1537866569
 20
1.699336785
 11
13.206030605
 21
1.7515807331
  0
LINE
  5
3D6
100
AcDbEntity
  8
0
100
AcDbLine
 62
2
  6
CONTINUOUS
 10
13.27138341
 20
1.8169335381
 11
13.3233170223
 21
1.8688671504
  0
LINE
  5
3D7
100
AcDbEntity
  8
0
100
AcDbLine
 62
2
  6
CONTINUOUS
 10
13.1551677248
 20
1.699336785
 11
13.206030605
 21
1.7501996652
  0
LINE
  5
3D8
100
AcDbEntity
  8
0
100
AcDbLine
 62
2
  6
CONTINUOUS
 10
13.27138341
 20
1.8155524702
 11
13.3238912676
 21
1.8680603278
  0
LINE
  5
3D9
100
AcDbEntity
  8
0
100
AcDbLine
 62
2
  6
CONTINUOUS
 10
13.1565487927
 20
1.699336785
 11
13.206030605
 21
1.7488185973
  0
LINE
  5
3DA
100
AcDbEntity
  8
0
100
AcDbLine
 62
2
  6
CONTINUOUS
 10
13.27138341
 20
1.8141714023
 11
13.324465513
 21
1.8672535053
  0
LINE
  5
3DB
100
AcDbEntity
  8
0
100
AcDbLine
 62
2
  6
CONTINUOUS
 10
13.1579298607
 20
1.699336785
 11
13.206030605
 21
1.7474375293
  0
LINE
  5
3DC
100
AcDbEntity
  8
0
100
AcDbLine
 62
2
  6
CONTINUOUS
 10
13.27138341
 20
1.8127903343
 11
13.3250397583
 21
1.8664466827
  0
LINE
  5
3DD
100
AcDbEntity
  8
0
100
AcDbLine
 62
2
  6
CONTINUOUS
 10
13.1593109286
 20
1.699336785
 11
13.206030605
 21
1.7460564614
  0
LINE
  5
3DE
100
AcDbEntity
  8
0
100
AcDbLine
 62
2
  6
CONTINUOUS
 10
13.27138341
 20
1.8114092664
 11
13.3256140037
 21
1.8656398601
  0
LINE
  5
3DF
100
AcDbEntity
  8
0
100
AcDbLine
 62
2
  6
CONTINUOUS
 10
13.1606919965
 20
1.699336785
 11
13.206030605
 21
1.7446753935
  0
LINE
  5
3E0
100
AcDbEntity
  8
0
100
AcDbLine
 62
2
  6
CONTINUOUS
 10
13.27138341
 20
1.8100281985
 11
13.326188249
 21
1.8648330375
  0
LINE
  5
3E1
100
AcDbEntity
  8
0
100
AcDbLine
 62
2
  6
CONTINUOUS
 10
13.1620730644
 20
1.699336785
 11
13.206030605
 21
1.7432943256
  0
LINE
  5
3E2
100
AcDbEntity
  8
0
100
AcDbLine
 62
2
  6
CONTINUOUS
 10
13.27138341
 20
1.8086471306
 11
13.3267624944
 21
1.864026215
  0
LINE
  5
3E3
100
AcDbEntity
  8
0
100
AcDbLine
 62
2
  6
CONTINUOUS
 10
13.1634541324
 20
1.699336785
 11
13.206030605
 21
1.7419132576
  0
LINE
  5
3E4
100
AcDbEntity
  8
0
100
AcDbLine
 62
2
  6
CONTINUOUS
 10
13.27138341
 20
1.8072660626
 11
13.3273367398
 21
1.8632193924
  0
LINE
  5
3E5
100
AcDbEntity
  8
0
100
AcDbLine
 62
2
  6
CONTINUOUS
 10
13.1648352003
 20
1.699336785
 11
13.206030605
 21
1.7405321897
  0
LINE
  5
3E6
100
AcDbEntity
  8
0
100
AcDbLine
 62
2
  6
CONTINUOUS
 10
13.27138341
 20
1.8058849947
 11
13.3277852891
 21
1.8622868737
  0
LINE
  5
3E7
100
AcDbEntity
  8
0
100
AcDbLine
 62
2
  6
CONTINUOUS
 10
13.1662162682
 20
1.699336785
 11
13.206030605
 21
1.7391511218
  0
LINE
  5
3E8
100
AcDbEntity
  8
0
100
AcDbLine
 62
2
  6
CONTINUOUS
 10
13.27138341
 20
1.8045039268
 11
13.3282256239
 21
1.8613461406
  0
LINE
  5
3E9
100
AcDbEntity
  8
0
100
AcDbLine
 62
2
  6
CONTINUOUS
 10
13.1675973362
 20
1.699336785
 11
13.206030605
 21
1.7377700538
  0
LINE
  5
3EA
100
AcDbEntity
  8
0
100
AcDbLine
 62
2
  6
CONTINUOUS
 10
13.27138341
 20
1.8031228588
 11
13.3286659587
 21
1.8604054075
  0
LINE
  5
3EB
100
AcDbEntity
  8
0
100
AcDbLine
 62
2
  6
CONTINUOUS
 10
13.1689784041
 20
1.699336785
 11
13.206030605
 21
1.7363889859
  0
LINE
  5
3EC
100
AcDbEntity
  8
0
100
AcDbLine
 62
2
  6
CONTINUOUS
 10
13.27138341
 20
1.8017417909
 11
13.3291062935
 21
1.8594646744
  0
LINE
  5
3ED
100
AcDbEntity
  8
0
100
AcDbLine
 62
2
  6
CONTINUOUS
 10
13.170359472
 20
1.699336785
 11
13.206030605
 21
1.735007918
  0
LINE
  5
3EE
100
AcDbEntity
  8
0
100
AcDbLine
 62
2
  6
CONTINUOUS
 10
13.27138341
 20
1.800360723
 11
13.3295466284
 21
1.8585239413
  0
LINE
  5
3EF
100
AcDbEntity
  8
0
100
AcDbLine
 62
2
  6
CONTINUOUS
 10
13.17174054
 20
1.699336785
 11
13.206030605
 21
1.73362685
  0
LINE
  5
3F0
100
AcDbEntity
  8
0
100
AcDbLine
 62
2
  6
CONTINUOUS
 10
13.27138341
 20
1.798979655
 11
13.3299869632
 21
1.8575832082
  0
LINE
  5
3F1
100
AcDbEntity
  8
0
100
AcDbLine
 62
2
  6
CONTINUOUS
 10
13.1731216079
 20
1.699336785
 11
13.206030605
 21
1.7322457821
  0
LINE
  5
3F2
100
AcDbEntity
  8
0
100
AcDbLine
 62
2
  6
CONTINUOUS
 10
13.27138341
 20
1.7975985871
 11
13.330427298
 21
1.8566424751
  0
LINE
  5
3F3
100
AcDbEntity
  8
0
100
AcDbLine
 62
2
  6
CONTINUOUS
 10
13.1745026758
 20
1.699336785
 11
13.206030605
 21
1.7308647142
  0
LINE
  5
3F4
100
AcDbEntity
  8
0
100
AcDbLine
 62
2
  6
CONTINUOUS
 10
13.27138341
 20
1.7962175192
 11
13.3308676329
 21
1.855701742
  0
LINE
  5
3F5
100
AcDbEntity
  8
0
100
AcDbLine
 62
2
  6
CONTINUOUS
 10
13.1758837438
 20
1.699336785
 11
13.206030605
 21
1.7294836462
  0
LINE
  5
3F6
100
AcDbEntity
  8
0
100
AcDbLine
 62
2
  6
CONTINUOUS
 10
13.27138341
 20
1.7948364512
 11
13.3313079677
 21
1.8547610089
  0
LINE
  5
3F7
100
AcDbEntity
  8
0
100
AcDbLine
 62
2
  6
CONTINUOUS
 10
13.1772648117
 20
1.699336785
 11
13.206030605
 21
1.7281025783
  0
LINE
  5
3F8
100
AcDbEntity
  8
0
100
AcDbLine
 62
2
  6
CONTINUOUS
 10
13.27138341
 20
1.7934553833
 11
13.3317483025
 21
1.8538202758
  0
LINE
  5
3F9
100
AcDbEntity
  8
0
100
AcDbLine
 62
2
  6
CONTINUOUS
 10
13.372792935
 20
1.8948649083
 11
13.3733232267
 21
1.8953952
  0
LINE
  5
3FA
100
AcDbEntity
  8
0
100
AcDbLine
 62
2
  6
CONTINUOUS
 10
13.1786458796
 20
1.699336785
 11
13.206030605
 21
1.7267215104
  0
LINE
  5
3FB
100
AcDbEntity
  8
0
100
AcDbLine
 62
2
  6
CONTINUOUS
 10
13.27138341
 20
1.7920743154
 11
13.3321886374
 21
1.8528795427
  0
LINE
  5
3FC
100
AcDbEntity
  8
0
100
AcDbLine
 62
2
  6
CONTINUOUS
 10
13.372792935
 20
1.8934838404
 11
13.3747042946
 21
1.8953952
  0
LINE
  5
3FD
100
AcDbEntity
  8
0
100
AcDbLine
 62
2
  6
CONTINUOUS
 10
13.1800269476
 20
1.699336785
 11
13.206030605
 21
1.7253404424
  0
LINE
  5
3FE
100
AcDbEntity
  8
0
100
AcDbLine
 62
2
  6
CONTINUOUS
 10
13.27138341
 20
1.7906932474
 11
13.3325881612
 21
1.8518979986
  0
LINE
  5
3FF
100
AcDbEntity
  8
0
100
AcDbLine
 62
2
  6
CONTINUOUS
 10
13.372792935
 20
1.8921027724
 11
13.3760853626
 21
1.8953952
  0
LINE
  5
400
100
AcDbEntity
  8
0
100
AcDbLine
 62
2
  6
CONTINUOUS
 10
13.1814080155
 20
1.699336785
 11
13.206030605
 21
1.7239593745
  0
LINE
  5
401
100
AcDbEntity
  8
0
100
AcDbLine
 62
2
  6
CONTINUOUS
 10
13.27138341
 20
1.7893121795
 11
13.3328781229
 21
1.8508068924
  0
LINE
  5
402
100
AcDbEntity
  8
0
100
AcDbLine
 62
2
  6
CONTINUOUS
 10
13.372792935
 20
1.8907217045
 11
13.3774664305
 21
1.8953952
  0
LINE
  5
403
100
AcDbEntity
  8
0
100
AcDbLine
 62
2
  6
CONTINUOUS
 10
13.1827890834
 20
1.699336785
 11
13.206030605
 21
1.7225783066
  0
LINE
  5
404
100
AcDbEntity
  8
0
100
AcDbLine
 62
2
  6
CONTINUOUS
 10
13.27138341
 20
1.7879311116
 11
13.3331680846
 21
1.8497157862
  0
LINE
  5
405
100
AcDbEntity
  8
0
100
AcDbLine
 62
2
  6
CONTINUOUS
 10
13.372792935
 20
1.8893406366
 11
13.3788474984
 21
1.8953952
  0
LINE
  5
406
100
AcDbEntity
  8
0
100
AcDbLine
 62
2
  6
CONTINUOUS
 10
13.1841701514
 20
1.699336785
 11
13.206030605
 21
1.7211972386
  0
LINE
  5
407
100
AcDbEntity
  8
0
100
AcDbLine
 62
2
  6
CONTINUOUS
 10
13.27138341
 20
1.7865500436
 11
13.3334580463
 21
1.8486246799
  0
LINE
  5
408
100
AcDbEntity
  8
0
100
AcDbLine
 62
2
  6
CONTINUOUS
 10
13.372792935
 20
1.8879595686
 11
13.3802285664
 21
1.8953952
  0
LINE
  5
409
100
AcDbEntity
  8
0
100
AcDbLine
 62
2
  6
CONTINUOUS
 10
13.1855512193
 20
1.699336785
 11
13.206030605
 21
1.7198161707
  0
LINE
  5
40A
100
AcDbEntity
  8
0
100
AcDbLine
 62
2
  6
CONTINUOUS
 10
13.27138341
 20
1.7851689757
 11
13.333748008
 21
1.8475335737
  0
LINE
  5
40B
100
AcDbEntity
  8
0
100
AcDbLine
 62
2
  6
CONTINUOUS
 10
13.372792935
 20
1.8865785007
 11
13.3816096343
 21
1.8953952
  0
LINE
  5
40C
100
AcDbEntity
  8
0
100
AcDbLine
 62
2
  6
CONTINUOUS
 10
13.1869322872
 20
1.699336785
 11
13.206030605
 21
1.7184351028
  0
LINE
  5
40D
100
AcDbEntity
  8
0
100
AcDbLine
 62
2
  6
CONTINUOUS
 10
13.27138341
 20
1.7837879078
 11
13.3340379697
 21
1.8464424675
  0
LINE
  5
40E
100
AcDbEntity
  8
0
100
AcDbLine
 62
2
  6
CONTINUOUS
 10
13.372792935
 20
1.8851974328
 11
13.3829907022
 21
1.8953952
  0
LINE
  5
40F
100
AcDbEntity
  8
0
100
AcDbLine
 62
2
  6
CONTINUOUS
 10
13.1883133552
 20
1.699336785
 11
13.206030605
 21
1.7170540348
  0
LINE
  5
410
100
AcDbEntity
  8
0
100
AcDbLine
 62
2
  6
CONTINUOUS
 10
13.27138341
 20
1.7824068398
 11
13.3343279314
 21
1.8453513612
  0
LINE
  5
411
100
AcDbEntity
  8
0
100
AcDbLine
 62
2
  6
CONTINUOUS
 10
13.372792935
 20
1.8838163648
 11
13.3843717702
 21
1.8953952
  0
LINE
  5
412
100
AcDbEntity
  8
0
100
AcDbLine
 62
2
  6
CONTINUOUS
 10
13.1896944231
 20
1.699336785
 11
13.206030605
 21
1.7156729669
  0
LINE
  5
413
100
AcDbEntity
  8
0
100
AcDbLine
 62
2
  6
CONTINUOUS
 10
13.27138341
 20
1.7810257719
 11
13.3346178931
 21
1.844260255
  0
LINE
  5
414
100
AcDbEntity
  8
0
100
AcDbLine
 62
2
  6
CONTINUOUS
 10
13.372792935
 20
1.8824352969
 11
13.3857528381
 21
1.8953952
  0
LINE
  5
415
100
AcDbEntity
  8
0
100
AcDbLine
 62
2
  6
CONTINUOUS
 10
13.191075491
 20
1.699336785
 11
13.206030605
 21
1.714291899
  0
LINE
  5
416
100
AcDbEntity
  8
0
100
AcDbLine
 62
2
  6
CONTINUOUS
 10
13.27138341
 20
1.779644704
 11
13.3349078548
 21
1.8431691488
  0
LINE
  5
417
100
AcDbEntity
  8
0
100
AcDbLine
 62
2
  6
CONTINUOUS
 10
13.372792935
 20
1.881054229
 11
13.387133906
 21
1.8953952
  0
LINE
  5
418
100
AcDbEntity
  8
0
100
AcDbLine
 62
2
  6
CONTINUOUS
 10
13.192456559
 20
1.699336785
 11
13.206030605
 21
1.712910831
  0
LINE
  5
419
100
AcDbEntity
  8
0
100
AcDbLine
 62
2
  6
CONTINUOUS
 10
13.27138341
 20
1.778263636
 11
13.3351978165
 21
1.8420780425
  0
LINE
  5
41A
100
AcDbEntity
  8
0
100
AcDbLine
 62
2
  6
CONTINUOUS
 10
13.372792935
 20
1.879673161
 11
13.388514974
 21
1.8953952
  0
LINE
  5
41B
100
AcDbEntity
  8
0
100
AcDbLine
 62
2
  6
CONTINUOUS
 10
13.1938376269
 20
1.699336785
 11
13.206030605
 21
1.7115297631
  0
LINE
  5
41C
100
AcDbEntity
  8
0
100
AcDbLine
 62
2
  6
CONTINUOUS
 10
13.27138341
 20
1.7768825681
 11
13.3354877782
 21
1.8409869363
  0
LINE
  5
41D
100
AcDbEntity
  8
0
100
AcDbLine
 62
2
  6
CONTINUOUS
 10
13.372792935
 20
1.8782920931
 11
13.3898960419
 21
1.8953952
  0
LINE
  5
41E
100
AcDbEntity
  8
0
100
AcDbLine
 62
2
  6
CONTINUOUS
 10
13.1952186948
 20
1.699336785
 11
13.206030605
 21
1.7101486952
  0
LINE
  5
41F
100
AcDbEntity
  8
0
100
AcDbLine
 62
2
  6
CONTINUOUS
 10
13.27138341
 20
1.7755015002
 11
13.3357075668
 21
1.839825657
  0
LINE
  5
420
100
AcDbEntity
  8
0
100
AcDbLine
 62
2
  6
CONTINUOUS
 10
13.372792935
 20
1.8769110252
 11
13.3912771098
 21
1.8953952
  0
LINE
  5
421
100
AcDbEntity
  8
0
100
AcDbLine
 62
2
  6
CONTINUOUS
 10
13.1965997627
 20
1.699336785
 11
13.206030605
 21
1.7087676273
  0
LINE
  5
422
100
AcDbEntity
  8
0
100
AcDbLine
 62
2
  6
CONTINUOUS
 10
13.27138341
 20
1.7741204323
 11
13.3358162988
 21
1.8385533211
  0
LINE
  5
423
100
AcDbEntity
  8
0
100
AcDbLine
 62
2
  6
CONTINUOUS
 10
13.372792935
 20
1.8755299573
 11
13.3926581777
 21
1.8953952
  0
LINE
  5
424
100
AcDbEntity
  8
0
100
AcDbLine
 62
2
  6
CONTINUOUS
 10
13.1979808307
 20
1.699336785
 11
13.206030605
 21
1.7073865593
  0
LINE
  5
425
100
AcDbEntity
  8
0
100
AcDbLine
 62
2
  6
CONTINUOUS
 10
13.27138341
 20
1.7727393643
 11
13.3359250308
 21
1.8372809852
  0
LINE
  5
426
100
AcDbEntity
  8
0
100
AcDbLine
 62
2
  6
CONTINUOUS
 10
13.372792935
 20
1.8741488893
 11
13.3940392457
 21
1.8953952
  0
LINE
  5
427
100
AcDbEntity
  8
0
100
AcDbLine
 62
2
  6
CONTINUOUS
 10
13.1993618986
 20
1.699336785
 11
13.206030605
 21
1.7060054914
  0
LINE
  5
428
100
AcDbEntity
  8
0
100
AcDbLine
 62
2
  6
CONTINUOUS
 10
13.27138341
 20
1.7713582964
 11
13.3360337628
 21
1.8360086492
  0
LINE
  5
429
100
AcDbEntity
  8
0
100
AcDbLine
 62
2
  6
CONTINUOUS
 10
13.372792935
 20
1.8727678214
 11
13.3954203136
 21
1.8953952
  0
LINE
  5
42A
100
AcDbEntity
  8
0
100
AcDbLine
 62
2
  6
CONTINUOUS
 10
13.2007429665
 20
1.699336785
 11
13.206030605
 21
1.7046244235
  0
LINE
  5
42B
100
AcDbEntity
  8
0
100
AcDbLine
 62
2
  6
CONTINUOUS
 10
13.27138341
 20
1.7699772285
 11
13.3361424948
 21
1.8347363133
  0
LINE
  5
42C
100
AcDbEntity
  8
0
100
AcDbLine
 62
2
  6
CONTINUOUS
 10
13.372792935
 20
1.8713867535
 11
13.3968013815
 21
1.8953952
  0
LINE
  5
42D
100
AcDbEntity
  8
0
100
AcDbLine
 62
2
  6
CONTINUOUS
 10
13.2021240345
 20
1.699336785
 11
13.206030605
 21
1.7032433555
  0
LINE
  5
42E
100
AcDbEntity
  8
0
100
AcDbLine
 62
2
  6
CONTINUOUS
 10
13.27138341
 20
1.7685961605
 11
13.3362512268
 21
1.8334639773
  0
LINE
  5
42F
100
AcDbEntity
  8
0
100
AcDbLine
 62
2
  6
CONTINUOUS
 10
13.372792935
 20
1.8700056855
 11
13.3981824495
 21
1.8953952
  0
LINE
  5
430
100
AcDbEntity
  8
0
100
AcDbLine
 62
2
  6
CONTINUOUS
 10
13.2035051024
 20
1.699336785
 11
13.206030605
 21
1.7018622876
  0
LINE
  5
431
100
AcDbEntity
  8
0
100
AcDbLine
 62
2
  6
CONTINUOUS
 10
13.27138341
 20
1.7672150926
 11
13.3363599588
 21
1.8321916414
  0
LINE
  5
432
100
AcDbEntity
  8
0
100
AcDbLine
 62
2
  6
CONTINUOUS
 10
13.372792935
 20
1.8686246176
 11
13.3995635174
 21
1.8953952
  0
LINE
  5
433
100
AcDbEntity
  8
0
100
AcDbLine
 62
2
  6
CONTINUOUS
 10
13.2048861703
 20
1.699336785
 11
13.206030605
 21
1.7004812197
  0
LINE
  5
434
100
AcDbEntity
  8
0
100
AcDbLine
 62
2
  6
CONTINUOUS
 10
13.27138341
 20
1.7658340247
 11
13.3364686908
 21
1.8309193055
  0
LINE
  5
435
100
AcDbEntity
  8
0
100
AcDbLine
 62
2
  6
CONTINUOUS
 10
13.372792935
 20
1.8672435497
 11
13.4009445853
 21
1.8953952
  0
LINE
  5
436
100
AcDbEntity
  8
0
100
AcDbLine
 62
2
  6
CONTINUOUS
 10
13.27138341
 20
1.7644529567
 11
13.3365774228
 21
1.8296469695
  0
LINE
  5
437
100
AcDbEntity
  8
0
100
AcDbLine
 62
2
  6
CONTINUOUS
 10
13.372792935
 20
1.8658624817
 11
13.4023256533
 21
1.8953952
  0
LINE
  5
438
100
AcDbEntity
  8
0
100
AcDbLine
 62
2
  6
CONTINUOUS
 10
13.27138341
 20
1.7630718888
 11
13.3366861548
 21
1.8283746336
  0
LINE
  5
439
100
AcDbEntity
  8
0
100
AcDbLine
 62
2
  6
CONTINUOUS
 10
13.372792935
 20
1.8644814138
 11
13.4037067212
 21
1.8953952
  0
LINE
  5
43A
100
AcDbEntity
  8
0
100
AcDbLine
 62
2
  6
CONTINUOUS
 10
13.27138341
 20
1.7616908209
 11
13.336736215
 21
1.8270436259
  0
LINE
  5
43B
100
AcDbEntity
  8
0
100
AcDbLine
 62
2
  6
CONTINUOUS
 10
13.372792935
 20
1.8631003459
 11
13.4050877891
 21
1.8953952
  0
LINE
  5
43C
100
AcDbEntity
  8
0
100
AcDbLine
 62
2
  6
CONTINUOUS
 10
13.27138341
 20
1.7603097529
 11
13.336736215
 21
1.8256625579
  0
LINE
  5
43D
100
AcDbEntity
  8
0
100
AcDbLine
 62
2
  6
CONTINUOUS
 10
13.372792935
 20
1.8617192779
 11
13.4064688571
 21
1.8953952
  0
LINE
  5
43E
100
AcDbEntity
  8
0
100
AcDbLine
 62
2
  6
CONTINUOUS
 10
13.27138341
 20
1.758928685
 11
13.336736215
 21
1.82428149
  0
LINE
  5
43F
100
AcDbEntity
  8
0
100
AcDbLine
 62
2
  6
CONTINUOUS
 10
13.372792935
 20
1.86033821
 11
13.407849925
 21
1.8953952
  0
LINE
  5
440
100
AcDbEntity
  8
0
100
AcDbLine
 62
2
  6
CONTINUOUS
 10
13.27138341
 20
1.7575476171
 11
13.336736215
 21
1.8229004221
  0
LINE
  5
441
100
AcDbEntity
  8
0
100
AcDbLine
 62
2
  6
CONTINUOUS
 10
13.372792935
 20
1.8589571421
 11
13.4092309929
 21
1.8953952
  0
LINE
  5
442
100
AcDbEntity
  8
0
100
AcDbLine
 62
2
  6
CONTINUOUS
 10
13.27138341
 20
1.7561665491
 11
13.336736215
 21
1.8215193541
  0
LINE
  5
443
100
AcDbEntity
  8
0
100
AcDbLine
 62
2
  6
CONTINUOUS
 10
13.372792935
 20
1.8575760741
 11
13.4106120609
 21
1.8953952
  0
LINE
  5
444
100
AcDbEntity
  8
0
100
AcDbLine
 62
2
  6
CONTINUOUS
 10
13.27138341
 20
1.7547854812
 11
13.336736215
 21
1.8201382862
  0
LINE
  5
445
100
AcDbEntity
  8
0
100
AcDbLine
 62
2
  6
CONTINUOUS
 10
13.372792935
 20
1.8561950062
 11
13.4119931288
 21
1.8953952
  0
LINE
  5
446
100
AcDbEntity
  8
0
100
AcDbLine
 62
2
  6
CONTINUOUS
 10
13.27138341
 20
1.7534044133
 11
13.336736215
 21
1.8187572183
  0
LINE
  5
447
100
AcDbEntity
  8
0
100
AcDbLine
 62
2
  6
CONTINUOUS
 10
13.372792935
 20
1.8548139383
 11
13.4133741967
 21
1.8953952
  0
LINE
  5
448
100
AcDbEntity
  8
0
100
AcDbLine
 62
2
  6
CONTINUOUS
 10
13.27138341
 20
1.7520233453
 11
13.336736215
 21
1.8173761503
  0
LINE
  5
449
100
AcDbEntity
  8
0
100
AcDbLine
 62
2
  6
CONTINUOUS
 10
13.372792935
 20
1.8534328703
 11
13.4147552647
 21
1.8953952
  0
LINE
  5
44A
100
AcDbEntity
  8
0
100
AcDbLine
 62
2
  6
CONTINUOUS
 10
13.27138341
 20
1.7506422774
 11
13.336736215
 21
1.8159950824
  0
LINE
  5
44B
100
AcDbEntity
  8
0
100
AcDbLine
 62
2
  6
CONTINUOUS
 10
13.372792935
 20
1.8520518024
 11
13.4161363326
 21
1.8953952
  0
LINE
  5
44C
100
AcDbEntity
  8
0
100
AcDbLine
 62
2
  6
CONTINUOUS
 10
13.27138341
 20
1.7492612095
 11
13.336736215
 21
1.8146140145
  0
LINE
  5
44D
100
AcDbEntity
  8
0
100
AcDbLine
 62
2
  6
CONTINUOUS
 10
13.372792935
 20
1.8506707345
 11
13.4175174005
 21
1.8953952
  0
LINE
  5
44E
100
AcDbEntity
  8
0
100
AcDbLine
 62
2
  6
CONTINUOUS
 10
13.27138341
 20
1.7478801415
 11
13.336736215
 21
1.8132329465
  0
LINE
  5
44F
100
AcDbEntity
  8
0
100
AcDbLine
 62
2
  6
CONTINUOUS
 10
13.372792935
 20
1.8492896665
 11
13.4188984685
 21
1.8953952
  0
LINE
  5
450
100
AcDbEntity
  8
0
100
AcDbLine
 62
2
  6
CONTINUOUS
 10
13.27138341
 20
1.7464990736
 11
13.336736215
 21
1.8118518786
  0
LINE
  5
451
100
AcDbEntity
  8
0
100
AcDbLine
 62
2
  6
CONTINUOUS
 10
13.372792935
 20
1.8479085986
 11
13.4202795364
 21
1.8953952
  0
LINE
  5
452
100
AcDbEntity
  8
0
100
AcDbLine
 62
2
  6
CONTINUOUS
 10
13.27138341
 20
1.7451180057
 11
13.336736215
 21
1.8104708107
  0
LINE
  5
453
100
AcDbEntity
  8
0
100
AcDbLine
 62
2
  6
CONTINUOUS
 10
13.372792935
 20
1.8465275307
 11
13.4216606043
 21
1.8953952
  0
LINE
  5
454
100
AcDbEntity
  8
0
100
AcDbLine
 62
2
  6
CONTINUOUS
 10
13.27138341
 20
1.7437369377
 11
13.336736215
 21
1.8090897427
  0
LINE
  5
455
100
AcDbEntity
  8
0
100
AcDbLine
 62
2
  6
CONTINUOUS
 10
13.372792935
 20
1.8451464627
 11
13.4230416723
 21
1.8953952
  0
LINE
  5
456
100
AcDbEntity
  8
0
100
AcDbLine
 62
2
  6
CONTINUOUS
 10
13.27138341
 20
1.7423558698
 11
13.336736215
 21
1.8077086748
  0
LINE
  5
457
100
AcDbEntity
  8
0
100
AcDbLine
 62
2
  6
CONTINUOUS
 10
13.372792935
 20
1.8437653948
 11
13.4244227402
 21
1.8953952
  0
LINE
  5
458
100
AcDbEntity
  8
0
100
AcDbLine
 62
2
  6
CONTINUOUS
 10
13.27138341
 20
1.7409748019
 11
13.336736215
 21
1.8063276069
  0
LINE
  5
459
100
AcDbEntity
  8
0
100
AcDbLine
 62
2
  6
CONTINUOUS
 10
13.372792935
 20
1.8423843269
 11
13.4258038081
 21
1.8953952
  0
LINE
  5
45A
100
AcDbEntity
  8
0
100
AcDbLine
 62
2
  6
CONTINUOUS
 10
13.27138341
 20
1.739593734
 11
13.336736215
 21
1.804946539
  0
LINE
  5
45B
100
AcDbEntity
  8
0
100
AcDbLine
 62
2
  6
CONTINUOUS
 10
13.372792935
 20
1.841003259
 11
13.427184876
 21
1.8953952
  0
LINE
  5
45C
100
AcDbEntity
  8
0
100
AcDbLine
 62
2
  6
CONTINUOUS
 10
13.27138341
 20
1.738212666
 11
13.336736215
 21
1.803565471
  0
LINE
  5
45D
100
AcDbEntity
  8
0
100
AcDbLine
 62
2
  6
CONTINUOUS
 10
13.372792935
 20
1.839622191
 11
13.428565944
 21
1.8953952
  0
LINE
  5
45E
100
AcDbEntity
  8
0
100
AcDbLine
 62
2
  6
CONTINUOUS
 10
13.27138341
 20
1.7368315981
 11
13.336736215
 21
1.8021844031
  0
LINE
  5
45F
100
AcDbEntity
  8
0
100
AcDbLine
 62
2
  6
CONTINUOUS
 10
13.372792935
 20
1.8382411231
 11
13.4299470119
 21
1.8953952
  0
LINE
  5
460
100
AcDbEntity
  8
0
100
AcDbLine
 62
2
  6
CONTINUOUS
 10
13.27138341
 20
1.7354505302
 11
13.336736215
 21
1.8008033352
  0
LINE
  5
461
100
AcDbEntity
  8
0
100
AcDbLine
 62
2
  6
CONTINUOUS
 10
13.372792935
 20
1.8368600552
 11
13.4313280798
 21
1.8953952
  0
LINE
  5
462
100
AcDbEntity
  8
0
100
AcDbLine
 62
2
  6
CONTINUOUS
 10
13.27138341
 20
1.7340694622
 11
13.336736215
 21
1.7994222672
  0
LINE
  5
463
100
AcDbEntity
  8
0
100
AcDbLine
 62
2
  6
CONTINUOUS
 10
13.372792935
 20
1.8354789872
 11
13.4327091478
 21
1.8953952
  0
LINE
  5
464
100
AcDbEntity
  8
0
100
AcDbLine
 62
2
  6
CONTINUOUS
 10
13.27138341
 20
1.7326883943
 11
13.336736215
 21
1.7980411993
  0
LINE
  5
465
100
AcDbEntity
  8
0
100
AcDbLine
 62
2
  6
CONTINUOUS
 10
13.372792935
 20
1.8340979193
 11
13.4340902157
 21
1.8953952
  0
LINE
  5
466
100
AcDbEntity
  8
0
100
AcDbLine
 62
2
  6
CONTINUOUS
 10
13.27138341
 20
1.7313073264
 11
13.336736215
 21
1.7966601314
  0
LINE
  5
467
100
AcDbEntity
  8
0
100
AcDbLine
 62
2
  6
CONTINUOUS
 10
13.372792935
 20
1.8327168514
 11
13.4354712836
 21
1.8953952
  0
LINE
  5
468
100
AcDbEntity
  8
0
100
AcDbLine
 62
2
  6
CONTINUOUS
 10
13.27138341
 20
1.7299262584
 11
13.336736215
 21
1.7952790634
  0
LINE
  5
469
100
AcDbEntity
  8
0
100
AcDbLine
 62
2
  6
CONTINUOUS
 10
13.372792935
 20
1.8313357834
 11
13.4368523516
 21
1.8953952
  0
LINE
  5
46A
100
AcDbEntity
  8
0
100
AcDbLine
 62
2
  6
CONTINUOUS
 10
13.27138341
 20
1.7285451905
 11
13.336736215
 21
1.7938979955
  0
LINE
  5
46B
100
AcDbEntity
  8
0
100
AcDbLine
 62
2
  6
CONTINUOUS
 10
13.372792935
 20
1.8299547155
 11
13.43814574
 21
1.8953075205
  0
LINE
  5
46C
100
AcDbEntity
  8
0
100
AcDbLine
 62
2
  6
CONTINUOUS
 10
13.27138341
 20
1.7271641226
 11
13.336736215
 21
1.7925169276
  0
LINE
  5
46D
100
AcDbEntity
  8
0
100
AcDbLine
 62
2
  6
CONTINUOUS
 10
13.372792935
 20
1.8285736476
 11
13.43814574
 21
1.8939264526
  0
LINE
  5
46E
100
AcDbEntity
  8
0
100
AcDbLine
 62
2
  6
CONTINUOUS
 10
13.27138341
 20
1.7257830546
 11
13.336736215
 21
1.7911358596
  0
LINE
  5
46F
100
AcDbEntity
  8
0
100
AcDbLine
 62
2
  6
CONTINUOUS
 10
13.372792935
 20
1.8271925796
 11
13.43814574
 21
1.8925453846
  0
LINE
  5
470
100
AcDbEntity
  8
0
100
AcDbLine
 62
2
  6
CONTINUOUS
 10
13.27138341
 20
1.7244019867
 11
13.336736215
 21
1.7897547917
  0
LINE
  5
471
100
AcDbEntity
  8
0
100
AcDbLine
 62
2
  6
CONTINUOUS
 10
13.372792935
 20
1.8258115117
 11
13.43814574
 21
1.8911643167
  0
LINE
  5
472
100
AcDbEntity
  8
0
100
AcDbLine
 62
2
  6
CONTINUOUS
 10
13.27138341
 20
1.7230209188
 11
13.336736215
 21
1.7883737238
  0
LINE
  5
473
100
AcDbEntity
  8
0
100
AcDbLine
 62
2
  6
CONTINUOUS
 10
13.372792935
 20
1.8244304438
 11
13.43814574
 21
1.8897832488
  0
LINE
  5
474
100
AcDbEntity
  8
0
100
AcDbLine
 62
2
  6
CONTINUOUS
 10
13.27138341
 20
1.7216398508
 11
13.336736215
 21
1.7869926558
  0
LINE
  5
475
100
AcDbEntity
  8
0
100
AcDbLine
 62
2
  6
CONTINUOUS
 10
13.372792935
 20
1.8230493758
 11
13.43814574
 21
1.8884021808
  0
LINE
  5
476
100
AcDbEntity
  8
0
100
AcDbLine
 62
2
  6
CONTINUOUS
 10
13.27138341
 20
1.7202587829
 11
13.336736215
 21
1.7856115879
  0
LINE
  5
477
100
AcDbEntity
  8
0
100
AcDbLine
 62
2
  6
CONTINUOUS
 10
13.372792935
 20
1.8216683079
 11
13.43814574
 21
1.8870211129
  0
LINE
  5
478
100
AcDbEntity
  8
0
100
AcDbLine
 62
2
  6
CONTINUOUS
 10
13.27138341
 20
1.718877715
 11
13.336736215
 21
1.78423052
  0
LINE
  5
479
100
AcDbEntity
  8
0
100
AcDbLine
 62
2
  6
CONTINUOUS
 10
13.372792935
 20
1.82028724
 11
13.43814574
 21
1.885640045
  0
LINE
  5
47A
100
AcDbEntity
  8
0
100
AcDbLine
 62
2
  6
CONTINUOUS
 10
13.27138341
 20
1.717496647
 11
13.336736215
 21
1.782849452
  0
LINE
  5
47B
100
AcDbEntity
  8
0
100
AcDbLine
 62
2
  6
CONTINUOUS
 10
13.372792935
 20
1.818906172
 11
13.43814574
 21
1.884258977
  0
LINE
  5
47C
100
AcDbEntity
  8
0
100
AcDbLine
 62
2
  6
CONTINUOUS
 10
13.27138341
 20
1.7161155791
 11
13.336736215
 21
1.7814683841
  0
LINE
  5
47D
100
AcDbEntity
  8
0
100
AcDbLine
 62
2
  6
CONTINUOUS
 10
13.372792935
 20
1.8175251041
 11
13.43814574
 21
1.8828779091
  0
LINE
  5
47E
100
AcDbEntity
  8
0
100
AcDbLine
 62
2
  6
CONTINUOUS
 10
13.27138341
 20
1.7147345112
 11
13.336736215
 21
1.7800873162
  0
LINE
  5
47F
100
AcDbEntity
  8
0
100
AcDbLine
 62
2
  6
CONTINUOUS
 10
13.372792935
 20
1.8161440362
 11
13.43814574
 21
1.8814968412
  0
LINE
  5
480
100
AcDbEntity
  8
0
100
AcDbLine
 62
2
  6
CONTINUOUS
 10
13.27138341
 20
1.7133534432
 11
13.336736215
 21
1.7787062482
  0
LINE
  5
481
100
AcDbEntity
  8
0
100
AcDbLine
 62
2
  6
CONTINUOUS
 10
13.372792935
 20
1.8147629682
 11
13.43814574
 21
1.8801157732
  0
LINE
  5
482
100
AcDbEntity
  8
0
100
AcDbLine
 62
2
  6
CONTINUOUS
 10
13.27138341
 20
1.7119723753
 11
13.336736215
 21
1.7773251803
  0
LINE
  5
483
100
AcDbEntity
  8
0
100
AcDbLine
 62
2
  6
CONTINUOUS
 10
13.372792935
 20
1.8133819003
 11
13.43814574
 21
1.8787347053
  0
LINE
  5
484
100
AcDbEntity
  8
0
100
AcDbLine
 62
2
  6
CONTINUOUS
 10
13.27138341
 20
1.7105913074
 11
13.336736215
 21
1.7759441124
  0
LINE
  5
485
100
AcDbEntity
  8
0
100
AcDbLine
 62
2
  6
CONTINUOUS
 10
13.372792935
 20
1.8120008324
 11
13.43814574
 21
1.8773536374
  0
LINE
  5
486
100
AcDbEntity
  8
0
100
AcDbLine
 62
2
  6
CONTINUOUS
 10
13.27138341
 20
1.7092102394
 11
13.336736215
 21
1.7745630444
  0
LINE
  5
487
100
AcDbEntity
  8
0
100
AcDbLine
 62
2
  6
CONTINUOUS
 10
13.372792935
 20
1.8106197644
 11
13.43814574
 21
1.8759725694
  0
LINE
  5
488
100
AcDbEntity
  8
0
100
AcDbLine
 62
2
  6
CONTINUOUS
 10
13.27138341
 20
1.7078291715
 11
13.336736215
 21
1.7731819765
  0
LINE
  5
489
100
AcDbEntity
  8
0
100
AcDbLine
 62
2
  6
CONTINUOUS
 10
13.372792935
 20
1.8092386965
 11
13.43814574
 21
1.8745915015
  0
LINE
  5
48A
100
AcDbEntity
  8
0
100
AcDbLine
 62
2
  6
CONTINUOUS
 10
13.27138341
 20
1.7064481036
 11
13.336736215
 21
1.7718009086
  0
LINE
  5
48B
100
AcDbEntity
  8
0
100
AcDbLine
 62
2
  6
CONTINUOUS
 10
13.372792935
 20
1.8078576286
 11
13.43814574
 21
1.8732104336
  0
LINE
  5
48C
100
AcDbEntity
  8
0
100
AcDbLine
 62
2
  6
CONTINUOUS
 10
13.27138341
 20
1.7050670357
 11
13.336736215
 21
1.7704198407
  0
LINE
  5
48D
100
AcDbEntity
  8
0
100
AcDbLine
 62
2
  6
CONTINUOUS
 10
13.372792935
 20
1.8064765607
 11
13.43814574
 21
1.8718293657
  0
LINE
  5
48E
100
AcDbEntity
  8
0
100
AcDbLine
 62
2
  6
CONTINUOUS
 10
13.27138341
 20
1.7036859677
 11
13.336736215
 21
1.7690387727
  0
LINE
  5
48F
100
AcDbEntity
  8
0
100
AcDbLine
 62
2
  6
CONTINUOUS
 10
13.372792935
 20
1.8050954927
 11
13.43814574
 21
1.8704482977
  0
LINE
  5
490
100
AcDbEntity
  8
0
100
AcDbLine
 62
2
  6
CONTINUOUS
 10
13.27138341
 20
1.7023048998
 11
13.336736215
 21
1.7676577048
  0
LINE
  5
491
100
AcDbEntity
  8
0
100
AcDbLine
 62
2
  6
CONTINUOUS
 10
13.372792935
 20
1.8037144248
 11
13.43814574
 21
1.8690672298
  0
LINE
  5
492
100
AcDbEntity
  8
0
100
AcDbLine
 62
2
  6
CONTINUOUS
 10
13.27138341
 20
1.7009238319
 11
13.336736215
 21
1.7662766369
  0
LINE
  5
493
100
AcDbEntity
  8
0
100
AcDbLine
 62
2
  6
CONTINUOUS
 10
13.372792935
 20
1.8023333569
 11
13.43814574
 21
1.8676861619
  0
LINE
  5
494
100
AcDbEntity
  8
0
100
AcDbLine
 62
2
  6
CONTINUOUS
 10
13.27138341
 20
1.6995427639
 11
13.336736215
 21
1.7648955689
  0
LINE
  5
495
100
AcDbEntity
  8
0
100
AcDbLine
 62
2
  6
CONTINUOUS
 10
13.372792935
 20
1.8009522889
 11
13.43814574
 21
1.8663050939
  0
LINE
  5
496
100
AcDbEntity
  8
0
100
AcDbLine
 62
2
  6
CONTINUOUS
 10
13.272558499
 20
1.699336785
 11
13.336736215
 21
1.763514501
  0
LINE
  5
497
100
AcDbEntity
  8
0
100
AcDbLine
 62
2
  6
CONTINUOUS
 10
13.372792935
 20
1.799571221
 11
13.43814574
 21
1.864924026
  0
LINE
  5
498
100
AcDbEntity
  8
0
100
AcDbLine
 62
2
  6
CONTINUOUS
 10
13.2739395669
 20
1.699336785
 11
13.336736215
 21
1.7621334331
  0
LINE
  5
499
100
AcDbEntity
  8
0
100
AcDbLine
 62
2
  6
CONTINUOUS
 10
13.372792935
 20
1.7981901531
 11
13.43814574
 21
1.8635429581
  0
LINE
  5
49A
100
AcDbEntity
  8
0
100
AcDbLine
 62
2
  6
CONTINUOUS
 10
13.2753206349
 20
1.699336785
 11
13.336736215
 21
1.7607523651
  0
LINE
  5
49B
100
AcDbEntity
  8
0
100
AcDbLine
 62
2
  6
CONTINUOUS
 10
13.372792935
 20
1.7968090851
 11
13.43814574
 21
1.8621618901
  0
LINE
  5
49C
100
AcDbEntity
  8
0
100
AcDbLine
 62
2
  6
CONTINUOUS
 10
13.2767017028
 20
1.699336785
 11
13.336736215
 21
1.7593712972
  0
LINE
  5
49D
100
AcDbEntity
  8
0
100
AcDbLine
 62
2
  6
CONTINUOUS
 10
13.372792935
 20
1.7954280172
 11
13.43814574
 21
1.8607808222
  0
LINE
  5
49E
100
AcDbEntity
  8
0
100
AcDbLine
 62
2
  6
CONTINUOUS
 10
13.2780827707
 20
1.699336785
 11
13.336736215
 21
1.7579902293
  0
LINE
  5
49F
100
AcDbEntity
  8
0
100
AcDbLine
 62
2
  6
CONTINUOUS
 10
13.372792935
 20
1.7940469493
 11
13.43814574
 21
1.8593997543
  0
LINE
  5
4A0
100
AcDbEntity
  8
0
100
AcDbLine
 62
2
  6
CONTINUOUS
 10
13.2794638387
 20
1.699336785
 11
13.336736215
 21
1.7566091613
  0
LINE
  5
4A1
100
AcDbEntity
  8
0
100
AcDbLine
 62
2
  6
CONTINUOUS
 10
13.372792935
 20
1.7926658813
 11
13.43814574
 21
1.8580186863
  0
LINE
  5
4A2
100
AcDbEntity
  8
0
100
AcDbLine
 62
2
  6
CONTINUOUS
 10
13.2808449066
 20
1.699336785
 11
13.336736215
 21
1.7552280934
  0
LINE
  5
4A3
100
AcDbEntity
  8
0
100
AcDbLine
 62
2
  6
CONTINUOUS
 10
13.372792935
 20
1.7912848134
 11
13.43814574
 21
1.8566376184
  0
LINE
  5
4A4
100
AcDbEntity
  8
0
100
AcDbLine
 62
2
  6
CONTINUOUS
 10
13.2822259745
 20
1.699336785
 11
13.336736215
 21
1.7538470255
  0
LINE
  5
4A5
100
AcDbEntity
  8
0
100
AcDbLine
 62
2
  6
CONTINUOUS
 10
13.372792935
 20
1.7899037455
 11
13.43814574
 21
1.8552565505
  0
LINE
  5
4A6
100
AcDbEntity
  8
0
100
AcDbLine
 62
2
  6
CONTINUOUS
 10
13.2836070425
 20
1.699336785
 11
13.336736215
 21
1.7524659575
  0
LINE
  5
4A7
100
AcDbEntity
  8
0
100
AcDbLine
 62
2
  6
CONTINUOUS
 10
13.372792935
 20
1.7885226775
 11
13.43814574
 21
1.8538754825
  0
LINE
  5
4A8
100
AcDbEntity
  8
0
100
AcDbLine
 62
2
  6
CONTINUOUS
 10
13.2849881104
 20
1.699336785
 11
13.336736215
 21
1.7510848896
  0
LINE
  5
4A9
100
AcDbEntity
  8
0
100
AcDbLine
 62
2
  6
CONTINUOUS
 10
13.372792935
 20
1.7871416096
 11
13.43814574
 21
1.8524944146
  0
LINE
  5
4AA
100
AcDbEntity
  8
0
100
AcDbLine
 62
2
  6
CONTINUOUS
 10
13.2863691783
 20
1.699336785
 11
13.336736215
 21
1.7497038217
  0
LINE
  5
4AB
100
AcDbEntity
  8
0
100
AcDbLine
 62
2
  6
CONTINUOUS
 10
13.372792935
 20
1.7857605417
 11
13.43814574
 21
1.8511133467
  0
LINE
  5
4AC
100
AcDbEntity
  8
0
100
AcDbLine
 62
2
  6
CONTINUOUS
 10
13.2877502463
 20
1.699336785
 11
13.336736215
 21
1.7483227537
  0
LINE
  5
4AD
100
AcDbEntity
  8
0
100
AcDbLine
 62
2
  6
CONTINUOUS
 10
13.372792935
 20
1.7843794737
 11
13.43814574
 21
1.8497322787
  0
LINE
  5
4AE
100
AcDbEntity
  8
0
100
AcDbLine
 62
2
  6
CONTINUOUS
 10
13.2891313142
 20
1.699336785
 11
13.336736215
 21
1.7469416858
  0
LINE
  5
4AF
100
AcDbEntity
  8
0
100
AcDbLine
 62
2
  6
CONTINUOUS
 10
13.372792935
 20
1.7829984058
 11
13.43814574
 21
1.8483512108
  0
LINE
  5
4B0
100
AcDbEntity
  8
0
100
AcDbLine
 62
2
  6
CONTINUOUS
 10
13.2905123821
 20
1.699336785
 11
13.336736215
 21
1.7455606179
  0
LINE
  5
4B1
100
AcDbEntity
  8
0
100
AcDbLine
 62
2
  6
CONTINUOUS
 10
13.372792935
 20
1.7816173379
 11
13.43814574
 21
1.8469701429
  0
LINE
  5
4B2
100
AcDbEntity
  8
0
100
AcDbLine
 62
2
  6
CONTINUOUS
 10
13.2918934501
 20
1.699336785
 11
13.336736215
 21
1.7441795499
  0
LINE
  5
4B3
100
AcDbEntity
  8
0
100
AcDbLine
 62
2
  6
CONTINUOUS
 10
13.372792935
 20
1.7802362699
 11
13.43814574
 21
1.8455890749
  0
LINE
  5
4B4
100
AcDbEntity
  8
0
100
AcDbLine
 62
2
  6
CONTINUOUS
 10
13.293274518
 20
1.699336785
 11
13.336736215
 21
1.742798482
  0
LINE
  5
4B5
100
AcDbEntity
  8
0
100
AcDbLine
 62
2
  6
CONTINUOUS
 10
13.372792935
 20
1.778855202
 11
13.43814574
 21
1.844208007
  0
LINE
  5
4B6
100
AcDbEntity
  8
0
100
AcDbLine
 62
2
  6
CONTINUOUS
 10
13.2946555859
 20
1.699336785
 11
13.336736215
 21
1.7414174141
  0
LINE
  5
4B7
100
AcDbEntity
  8
0
100
AcDbLine
 62
2
  6
CONTINUOUS
 10
13.372792935
 20
1.7774741341
 11
13.43814574
 21
1.8428269391
  0
LINE
  5
4B8
100
AcDbEntity
  8
0
100
AcDbLine
 62
2
  6
CONTINUOUS
 10
13.2960366539
 20
1.699336785
 11
13.336736215
 21
1.7400363461
  0
LINE
  5
4B9
100
AcDbEntity
  8
0
100
AcDbLine
 62
2
  6
CONTINUOUS
 10
13.372792935
 20
1.7760930661
 11
13.43814574
 21
1.8414458711
  0
LINE
  5
4BA
100
AcDbEntity
  8
0
100
AcDbLine
 62
2
  6
CONTINUOUS
 10
13.2974177218
 20
1.699336785
 11
13.336736215
 21
1.7386552782
  0
LINE
  5
4BB
100
AcDbEntity
  8
0
100
AcDbLine
 62
2
  6
CONTINUOUS
 10
13.372792935
 20
1.7747119982
 11
13.43814574
 21
1.8400648032
  0
LINE
  5
4BC
100
AcDbEntity
  8
0
100
AcDbLine
 62
2
  6
CONTINUOUS
 10
13.2987987897
 20
1.699336785
 11
13.336736215
 21
1.7372742103
  0
LINE
  5
4BD
100
AcDbEntity
  8
0
100
AcDbLine
 62
2
  6
CONTINUOUS
 10
13.372792935
 20
1.7733309303
 11
13.43814574
 21
1.8386837353
  0
LINE
  5
4BE
100
AcDbEntity
  8
0
100
AcDbLine
 62
2
  6
CONTINUOUS
 10
13.3001798576
 20
1.699336785
 11
13.336736215
 21
1.7358931424
  0
LINE
  5
4BF
100
AcDbEntity
  8
0
100
AcDbLine
 62
2
  6
CONTINUOUS
 10
13.372792935
 20
1.7719498624
 11
13.43814574
 21
1.8373026674
  0
LINE
  5
4C0
100
AcDbEntity
  8
0
100
AcDbLine
 62
2
  6
CONTINUOUS
 10
13.3015609256
 20
1.699336785
 11
13.336736215
 21
1.7345120744
  0
LINE
  5
4C1
100
AcDbEntity
  8
0
100
AcDbLine
 62
2
  6
CONTINUOUS
 10
13.372792935
 20
1.7705687944
 11
13.43814574
 21
1.8359215994
  0
LINE
  5
4C2
100
AcDbEntity
  8
0
100
AcDbLine
 62
2
  6
CONTINUOUS
 10
13.3029419935
 20
1.699336785
 11
13.336736215
 21
1.7331310065
  0
LINE
  5
4C3
100
AcDbEntity
  8
0
100
AcDbLine
 62
2
  6
CONTINUOUS
 10
13.372792935
 20
1.7691877265
 11
13.43814574
 21
1.8345405315
  0
LINE
  5
4C4
100
AcDbEntity
  8
0
100
AcDbLine
 62
2
  6
CONTINUOUS
 10
13.3043230614
 20
1.699336785
 11
13.336736215
 21
1.7317499386
  0
LINE
  5
4C5
100
AcDbEntity
  8
0
100
AcDbLine
 62
2
  6
CONTINUOUS
 10
13.372792935
 20
1.7678066586
 11
13.43814574
 21
1.8331594636
  0
LINE
  5
4C6
100
AcDbEntity
  8
0
100
AcDbLine
 62
2
  6
CONTINUOUS
 10
13.3057041294
 20
1.699336785
 11
13.336736215
 21
1.7303688706
  0
LINE
  5
4C7
100
AcDbEntity
  8
0
100
AcDbLine
 62
2
  6
CONTINUOUS
 10
13.372792935
 20
1.7664255906
 11
13.43814574
 21
1.8317783956
  0
LINE
  5
4C8
100
AcDbEntity
  8
0
100
AcDbLine
 62
2
  6
CONTINUOUS
 10
13.3070851973
 20
1.699336785
 11
13.336736215
 21
1.7289878027
  0
LINE
  5
4C9
100
AcDbEntity
  8
0
100
AcDbLine
 62
2
  6
CONTINUOUS
 10
13.372792935
 20
1.7650445227
 11
13.43814574
 21
1.8303973277
  0
LINE
  5
4CA
100
AcDbEntity
  8
0
100
AcDbLine
 62
2
  6
CONTINUOUS
 10
13.3084662652
 20
1.699336785
 11
13.336736215
 21
1.7276067348
  0
LINE
  5
4CB
100
AcDbEntity
  8
0
100
AcDbLine
 62
2
  6
CONTINUOUS
 10
13.3728735638
 20
1.7637440836
 11
13.43814574
 21
1.8290162598
  0
LINE
  5
4CC
100
AcDbEntity
  8
0
100
AcDbLine
 62
2
  6
CONTINUOUS
 10
13.3098473332
 20
1.699336785
 11
13.336736215
 21
1.7262256668
  0
LINE
  5
4CD
100
AcDbEntity
  8
0
100
AcDbLine
 62
2
  6
CONTINUOUS
 10
13.3729820816
 20
1.7624715334
 11
13.43814574
 21
1.8276351918
  0
LINE
  5
4CE
100
AcDbEntity
  8
0
100
AcDbLine
 62
2
  6
CONTINUOUS
 10
13.3112284011
 20
1.699336785
 11
13.336736215
 21
1.7248445989
  0
LINE
  5
4CF
100
AcDbEntity
  8
0
100
AcDbLine
 62
2
  6
CONTINUOUS
 10
13.3730905994
 20
1.7611989833
 11
13.43814574
 21
1.8262541239
  0
LINE
  5
4D0
100
AcDbEntity
  8
0
100
AcDbLine
 62
2
  6
CONTINUOUS
 10
13.312609469
 20
1.699336785
 11
13.336736215
 21
1.723463531
  0
LINE
  5
4D1
100
AcDbEntity
  8
0
100
AcDbLine
 62
2
  6
CONTINUOUS
 10
13.3731991171
 20
1.7599264331
 11
13.43814574
 21
1.824873056
  0
LINE
  5
4D2
100
AcDbEntity
  8
0
100
AcDbLine
 62
2
  6
CONTINUOUS
 10
13.313990537
 20
1.699336785
 11
13.336736215
 21
1.722082463
  0
LINE
  5
4D3
100
AcDbEntity
  8
0
100
AcDbLine
 62
2
  6
CONTINUOUS
 10
13.3733076349
 20
1.7586538829
 11
13.43814574
 21
1.823491988
  0
LINE
  5
4D4
100
AcDbEntity
  8
0
100
AcDbLine
 62
2
  6
CONTINUOUS
 10
13.3153716049
 20
1.699336785
 11
13.336736215
 21
1.7207013951
  0
LINE
  5
4D5
100
AcDbEntity
  8
0
100
AcDbLine
 62
2
  6
CONTINUOUS
 10
13.3734161527
 20
1.7573813328
 11
13.43814574
 21
1.8221109201
  0
LINE
  5
4D6
100
AcDbEntity
  8
0
100
AcDbLine
 62
2
  6
CONTINUOUS
 10
13.3167526728
 20
1.699336785
 11
13.336736215
 21
1.7193203272
  0
LINE
  5
4D7
100
AcDbEntity
  8
0
100
AcDbLine
 62
2
  6
CONTINUOUS
 10
13.3735246705
 20
1.7561087826
 11
13.43814574
 21
1.8207298522
  0
LINE
  5
4D8
100
AcDbEntity
  8
0
100
AcDbLine
 62
2
  6
CONTINUOUS
 10
13.3181337408
 20
1.699336785
 11
13.336736215
 21
1.7179392592
  0
LINE
  5
4D9
100
AcDbEntity
  8
0
100
AcDbLine
 62
2
  6
CONTINUOUS
 10
13.3736331882
 20
1.7548362325
 11
13.43814574
 21
1.8193487842
  0
LINE
  5
4DA
100
AcDbEntity
  8
0
100
AcDbLine
 62
2
  6
CONTINUOUS
 10
13.3195148087
 20
1.699336785
 11
13.336736215
 21
1.7165581913
  0
LINE
  5
4DB
100
AcDbEntity
  8
0
100
AcDbLine
 62
2
  6
CONTINUOUS
 10
13.3737616217
 20
1.753583598
 11
13.43814574
 21
1.8179677163
  0
LINE
  5
4DC
100
AcDbEntity
  8
0
100
AcDbLine
 62
2
  6
CONTINUOUS
 10
13.3208958766
 20
1.699336785
 11
13.336736215
 21
1.7151771234
  0
LINE
  5
4DD
100
AcDbEntity
  8
0
100
AcDbLine
 62
2
  6
CONTINUOUS
 10
13.374047781
 20
1.7524886894
 11
13.43814574
 21
1.8165866484
  0
LINE
  5
4DE
100
AcDbEntity
  8
0
100
AcDbLine
 62
2
  6
CONTINUOUS
 10
13.3222769446
 20
1.699336785
 11
13.336736215
 21
1.7137960554
  0
LINE
  5
4DF
100
AcDbEntity
  8
0
100
AcDbLine
 62
2
  6
CONTINUOUS
 10
13.3743339403
 20
1.7513937807
 11
13.43814574
 21
1.8152055804
  0
LINE
  5
4E0
100
AcDbEntity
  8
0
100
AcDbLine
 62
2
  6
CONTINUOUS
 10
13.3236580125
 20
1.699336785
 11
13.336736215
 21
1.7124149875
  0
LINE
  5
4E1
100
AcDbEntity
  8
0
100
AcDbLine
 62
2
  6
CONTINUOUS
 10
13.3746200996
 20
1.7502988721
 11
13.43814574
 21
1.8138245125
  0
LINE
  5
4E2
100
AcDbEntity
  8
0
100
AcDbLine
 62
2
  6
CONTINUOUS
 10
13.3250390804
 20
1.699336785
 11
13.336736215
 21
1.7110339196
  0
LINE
  5
4E3
100
AcDbEntity
  8
0
100
AcDbLine
 62
2
  6
CONTINUOUS
 10
13.3749062588
 20
1.7492039634
 11
13.43814574
 21
1.8124434446
  0
LINE
  5
4E4
100
AcDbEntity
  8
0
100
AcDbLine
 62
2
  6
CONTINUOUS
 10
13.3264201484
 20
1.699336785
 11
13.336736215
 21
1.7096528516
  0
LINE
  5
4E5
100
AcDbEntity
  8
0
100
AcDbLine
 62
2
  6
CONTINUOUS
 10
13.3751924181
 20
1.7481090548
 11
13.43814574
 21
1.8110623766
  0
LINE
  5
4E6
100
AcDbEntity
  8
0
100
AcDbLine
 62
2
  6
CONTINUOUS
 10
13.3278012163
 20
1.699336785
 11
13.336736215
 21
1.7082717837
  0
LINE
  5
4E7
100
AcDbEntity
  8
0
100
AcDbLine
 62
2
  6
CONTINUOUS
 10
13.3754785774
 20
1.7470141461
 11
13.43814574
 21
1.8096813087
  0
LINE
  5
4E8
100
AcDbEntity
  8
0
100
AcDbLine
 62
2
  6
CONTINUOUS
 10
13.3291822842
 20
1.699336785
 11
13.336736215
 21
1.7068907158
  0
LINE
  5
4E9
100
AcDbEntity
  8
0
100
AcDbLine
 62
2
  6
CONTINUOUS
 10
13.3757647367
 20
1.7459192374
 11
13.43814574
 21
1.8083002408
  0
LINE
  5
4EA
100
AcDbEntity
  8
0
100
AcDbLine
 62
2
  6
CONTINUOUS
 10
13.3305633522
 20
1.699336785
 11
13.336736215
 21
1.7055096478
  0
LINE
  5
4EB
100
AcDbEntity
  8
0
100
AcDbLine
 62
2
  6
CONTINUOUS
 10
13.3760508959
 20
1.7448243288
 11
13.43814574
 21
1.8069191728
  0
LINE
  5
4EC
100
AcDbEntity
  8
0
100
AcDbLine
 62
2
  6
CONTINUOUS
 10
13.3319444201
 20
1.699336785
 11
13.336736215
 21
1.7041285799
  0
LINE
  5
4ED
100
AcDbEntity
  8
0
100
AcDbLine
 62
2
  6
CONTINUOUS
 10
13.3763370552
 20
1.7437294201
 11
13.43814574
 21
1.8055381049
  0
LINE
  5
4EE
100
AcDbEntity
  8
0
100
AcDbLine
 62
2
  6
CONTINUOUS
 10
13.333325488
 20
1.699336785
 11
13.336736215
 21
1.702747512
  0
LINE
  5
4EF
100
AcDbEntity
  8
0
100
AcDbLine
 62
2
  6
CONTINUOUS
 10
13.3766748886
 20
1.7426861856
 11
13.43814574
 21
1.804157037
  0
LINE
  5
4F0
100
AcDbEntity
  8
0
100
AcDbLine
 62
2
  6
CONTINUOUS
 10
13.3347065559
 20
1.699336785
 11
13.336736215
 21
1.7013664441
  0
LINE
  5
4F1
100
AcDbEntity
  8
0
100
AcDbLine
 62
2
  6
CONTINUOUS
 10
13.3771058523
 20
1.7417360813
 11
13.43814574
 21
1.8027759691
  0
LINE
  5
4F2
100
AcDbEntity
  8
0
100
AcDbLine
 62
2
  6
CONTINUOUS
 10
13.3360876239
 20
1.699336785
 11
13.336736215
 21
1.6999853761
  0
LINE
  5
4F3
100
AcDbEntity
  8
0
100
AcDbLine
 62
2
  6
CONTINUOUS
 10
13.377536816
 20
1.7407859771
 11
13.43814574
 21
1.8013949011
  0
LINE
  5
4F4
100
AcDbEntity
  8
0
100
AcDbLine
 62
2
  6
CONTINUOUS
 10
13.3779677797
 20
1.7398358729
 11
13.43814574
 21
1.8000138332
  0
LINE
  5
4F5
100
AcDbEntity
  8
0
100
AcDbLine
 62
2
  6
CONTINUOUS
 10
13.3783987435
 20
1.7388857687
 11
13.43814574
 21
1.7986327653
  0
LINE
  5
4F6
100
AcDbEntity
  8
0
100
AcDbLine
 62
2
  6
CONTINUOUS
 10
13.3788297072
 20
1.7379356645
 11
13.43814574
 21
1.7972516973
  0
LINE
  5
4F7
100
AcDbEntity
  8
0
100
AcDbLine
 62
2
  6
CONTINUOUS
 10
13.3792606709
 20
1.7369855603
 11
13.43814574
 21
1.7958706294
  0
LINE
  5
4F8
100
AcDbEntity
  8
0
100
AcDbLine
 62
2
  6
CONTINUOUS
 10
13.3796916346
 20
1.7360354561
 11
13.43814574
 21
1.7944895615
  0
LINE
  5
4F9
100
AcDbEntity
  8
0
100
AcDbLine
 62
2
  6
CONTINUOUS
 10
13.3801225984
 20
1.7350853519
 11
13.43814574
 21
1.7931084935
  0
LINE
  5
4FA
100
AcDbEntity
  8
0
100
AcDbLine
 62
2
  6
CONTINUOUS
 10
13.3805535621
 20
1.7341352477
 11
13.43814574
 21
1.7917274256
  0
LINE
  5
4FB
100
AcDbEntity
  8
0
100
AcDbLine
 62
2
  6
CONTINUOUS
 10
13.3809845258
 20
1.7331851435
 11
13.43814574
 21
1.7903463577
  0
LINE
  5
4FC
100
AcDbEntity
  8
0
100
AcDbLine
 62
2
  6
CONTINUOUS
 10
13.3815034575
 20
1.7323230072
 11
13.43814574
 21
1.7889652897
  0
LINE
  5
4FD
100
AcDbEntity
  8
0
100
AcDbLine
 62
2
  6
CONTINUOUS
 10
13.3820613765
 20
1.7314998583
 11
13.43814574
 21
1.7875842218
  0
LINE
  5
4FE
100
AcDbEntity
  8
0
100
AcDbLine
 62
2
  6
CONTINUOUS
 10
13.3826192954
 20
1.7306767093
 11
13.43814574
 21
1.7862031539
  0
LINE
  5
4FF
100
AcDbEntity
  8
0
100
AcDbLine
 62
2
  6
CONTINUOUS
 10
13.3831772144
 20
1.7298535603
 11
13.43814574
 21
1.7848220859
  0
LINE
  5
500
100
AcDbEntity
  8
0
100
AcDbLine
 62
2
  6
CONTINUOUS
 10
13.3837351333
 20
1.7290304113
 11
13.43814574
 21
1.783441018
  0
LINE
  5
501
100
AcDbEntity
  8
0
100
AcDbLine
 62
2
  6
CONTINUOUS
 10
13.3842930523
 20
1.7282072624
 11
13.43814574
 21
1.7820599501
  0
LINE
  5
502
100
AcDbEntity
  8
0
100
AcDbLine
 62
2
  6
CONTINUOUS
 10
13.3848509713
 20
1.7273841134
 11
13.43814574
 21
1.7806788821
  0
LINE
  5
503
100
AcDbEntity
  8
0
100
AcDbLine
 62
2
  6
CONTINUOUS
 10
13.3854088902
 20
1.7265609644
 11
13.43814574
 21
1.7792978142
  0
LINE
  5
504
100
AcDbEntity
  8
0
100
AcDbLine
 62
2
  6
CONTINUOUS
 10
13.3859668092
 20
1.7257378155
 11
13.43814574
 21
1.7779167463
  0
LINE
  5
505
100
AcDbEntity
  8
0
100
AcDbLine
 62
2
  6
CONTINUOUS
 10
13.3865247281
 20
1.7249146665
 11
13.43814574
 21
1.7765356783
  0
LINE
  5
506
100
AcDbEntity
  8
0
100
AcDbLine
 62
2
  6
CONTINUOUS
 10
13.3870826471
 20
1.7240915175
 11
13.43814574
 21
1.7751546104
  0
LINE
  5
507
100
AcDbEntity
  8
0
100
AcDbLine
 62
2
  6
CONTINUOUS
 10
13.3876708318
 20
1.7232986343
 11
13.43814574
 21
1.7737735425
  0
LINE
  5
508
100
AcDbEntity
  8
0
100
AcDbLine
 62
2
  6
CONTINUOUS
 10
13.3883025113
 20
1.7225492459
 11
13.43814574
 21
1.7723924745
  0
LINE
  5
509
100
AcDbEntity
  8
0
100
AcDbLine
 62
2
  6
CONTINUOUS
 10
13.3889341908
 20
1.7217998574
 11
13.43814574
 21
1.7710114066
  0
LINE
  5
50A
100
AcDbEntity
  8
0
100
AcDbLine
 62
2
  6
CONTINUOUS
 10
13.3896185123
 20
1.721103111
 11
13.43814574
 21
1.7696303387
  0
LINE
  5
50B
100
AcDbEntity
  8
0
100
AcDbLine
 62
2
  6
CONTINUOUS
 10
13.3903226496
 20
1.7204261804
 11
13.43814574
 21
1.7682492708
  0
LINE
  5
50C
100
AcDbEntity
  8
0
100
AcDbLine
 62
2
  6
CONTINUOUS
 10
13.3910267869
 20
1.7197492497
 11
13.43814574
 21
1.7668682028
  0
LINE
  5
50D
100
AcDbEntity
  8
0
100
AcDbLine
 62
2
  6
CONTINUOUS
 10
13.3917309242
 20
1.7190723191
 11
13.43814574
 21
1.7654871349
  0
LINE
  5
50E
100
AcDbEntity
  8
0
100
AcDbLine
 62
2
  6
CONTINUOUS
 10
13.3924350615
 20
1.7183953885
 11
13.43814574
 21
1.764106067
  0
LINE
  5
50F
100
AcDbEntity
  8
0
100
AcDbLine
 62
2
  6
CONTINUOUS
 10
13.3931391988
 20
1.7177184578
 11
13.43814574
 21
1.762724999
  0
LINE
  5
510
100
AcDbEntity
  8
0
100
AcDbLine
 62
2
  6
CONTINUOUS
 10
13.3938433361
 20
1.7170415272
 11
13.43814574
 21
1.7613439311
  0
LINE
  5
511
100
AcDbEntity
  8
0
100
AcDbLine
 62
2
  6
CONTINUOUS
 10
13.3945474734
 20
1.7163645966
 11
13.43814574
 21
1.7599628632
  0
LINE
  5
512
100
AcDbEntity
  8
0
100
AcDbLine
 62
2
  6
CONTINUOUS
 10
13.3952516107
 20
1.715687666
 11
13.43814574
 21
1.7585817952
  0
LINE
  5
513
100
AcDbEntity
  8
0
100
AcDbLine
 62
2
  6
CONTINUOUS
 10
13.395955748
 20
1.7150107353
 11
13.43814574
 21
1.7572007273
  0
LINE
  5
514
100
AcDbEntity
  8
0
100
AcDbLine
 62
2
  6
CONTINUOUS
 10
13.3966598853
 20
1.7143338047
 11
13.43814574
 21
1.7558196594
  0
LINE
  5
515
100
AcDbEntity
  8
0
100
AcDbLine
 62
2
  6
CONTINUOUS
 10
13.3973932725
 20
1.7136861239
 11
13.43814574
 21
1.7544385914
  0
LINE
  5
516
100
AcDbEntity
  8
0
100
AcDbLine
 62
2
  6
CONTINUOUS
 10
13.398216347
 20
1.7131281305
 11
13.43814574
 21
1.7530575235
  0
LINE
  5
517
100
AcDbEntity
  8
0
100
AcDbLine
 62
2
  6
CONTINUOUS
 10
13.3990394215
 20
1.712570137
 11
13.43814574
 21
1.7516764556
  0
LINE
  5
518
100
AcDbEntity
  8
0
100
AcDbLine
 62
2
  6
CONTINUOUS
 10
13.3998624959
 20
1.7120121436
 11
13.43814574
 21
1.7502953876
  0
LINE
  5
519
100
AcDbEntity
  8
0
100
AcDbLine
 62
2
  6
CONTINUOUS
 10
13.4006855704
 20
1.7114541501
 11
13.43814574
 21
1.7489143197
  0
LINE
  5
51A
100
AcDbEntity
  8
0
100
AcDbLine
 62
2
  6
CONTINUOUS
 10
13.4015086449
 20
1.7108961567
 11
13.43814574
 21
1.7475332518
  0
LINE
  5
51B
100
AcDbEntity
  8
0
100
AcDbLine
 62
2
  6
CONTINUOUS
 10
13.4023317194
 20
1.7103381632
 11
13.43814574
 21
1.7461521838
  0
LINE
  5
51C
100
AcDbEntity
  8
0
100
AcDbLine
 62
2
  6
CONTINUOUS
 10
13.4031547939
 20
1.7097801698
 11
13.43814574
 21
1.7447711159
  0
LINE
  5
51D
100
AcDbEntity
  8
0
100
AcDbLine
 62
2
  6
CONTINUOUS
 10
13.4039778684
 20
1.7092221764
 11
13.43814574
 21
1.743390048
  0
LINE
  5
51E
100
AcDbEntity
  8
0
100
AcDbLine
 62
2
  6
CONTINUOUS
 10
13.4048009429
 20
1.7086641829
 11
13.43814574
 21
1.74200898
  0
LINE
  5
51F
100
AcDbEntity
  8
0
100
AcDbLine
 62
2
  6
CONTINUOUS
 10
13.4056240173
 20
1.7081061895
 11
13.43814574
 21
1.7406279121
  0
LINE
  5
520
100
AcDbEntity
  8
0
100
AcDbLine
 62
2
  6
CONTINUOUS
 10
13.406456084
 20
1.7075571882
 11
13.43814574
 21
1.7392468442
  0
LINE
  5
521
100
AcDbEntity
  8
0
100
AcDbLine
 62
2
  6
CONTINUOUS
 10
13.4074065834
 20
1.7071266197
 11
13.43814574
 21
1.7378657762
  0
LINE
  5
522
100
AcDbEntity
  8
0
100
AcDbLine
 62
2
  6
CONTINUOUS
 10
13.4083570829
 20
1.7066960512
 11
13.43814574
 21
1.7364847083
  0
LINE
  5
523
100
AcDbEntity
  8
0
100
AcDbLine
 62
2
  6
CONTINUOUS
 10
13.4093075823
 20
1.7062654826
 11
13.43814574
 21
1.7351036404
  0
LINE
  5
524
100
AcDbEntity
  8
0
100
AcDbLine
 62
2
  6
CONTINUOUS
 10
13.4102580817
 20
1.7058349141
 11
13.43814574
 21
1.7337225725
  0
LINE
  5
525
100
AcDbEntity
  8
0
100
AcDbLine
 62
2
  6
CONTINUOUS
 10
13.4112085811
 20
1.7054043456
 11
13.43814574
 21
1.7323415045
  0
LINE
  5
526
100
AcDbEntity
  8
0
100
AcDbLine
 62
2
  6
CONTINUOUS
 10
13.4121590805
 20
1.7049737771
 11
13.43814574
 21
1.7309604366
  0
LINE
  5
527
100
AcDbEntity
  8
0
100
AcDbLine
 62
2
  6
CONTINUOUS
 10
13.4131095799
 20
1.7045432085
 11
13.43814574
 21
1.7295793687
  0
LINE
  5
528
100
AcDbEntity
  8
0
100
AcDbLine
 62
2
  6
CONTINUOUS
 10
13.4140600793
 20
1.70411264
 11
13.43814574
 21
1.7281983007
  0
LINE
  5
529
100
AcDbEntity
  8
0
100
AcDbLine
 62
2
  6
CONTINUOUS
 10
13.4150105787
 20
1.7036820715
 11
13.43814574
 21
1.7268172328
  0
LINE
  5
52A
100
AcDbEntity
  8
0
100
AcDbLine
 62
2
  6
CONTINUOUS
 10
13.4159610781
 20
1.703251503
 11
13.43814574
 21
1.7254361649
  0
LINE
  5
52B
100
AcDbEntity
  8
0
100
AcDbLine
 62
2
  6
CONTINUOUS
 10
13.4169855444
 20
1.7028949013
 11
13.43814574
 21
1.7240550969
  0
LINE
  5
52C
100
AcDbEntity
  8
0
100
AcDbLine
 62
2
  6
CONTINUOUS
 10
13.4180815407
 20
1.7026098297
 11
13.43814574
 21
1.722674029
  0
LINE
  5
52D
100
AcDbEntity
  8
0
100
AcDbLine
 62
2
  6
CONTINUOUS
 10
13.4191775371
 20
1.7023247581
 11
13.43814574
 21
1.7212929611
  0
LINE
  5
52E
100
AcDbEntity
  8
0
100
AcDbLine
 62
2
  6
CONTINUOUS
 10
13.4202735334
 20
1.7020396866
 11
13.43814574
 21
1.7199118931
  0
LINE
  5
52F
100
AcDbEntity
  8
0
100
AcDbLine
 62
2
  6
CONTINUOUS
 10
13.4213695298
 20
1.701754615
 11
13.43814574
 21
1.7185308252
  0
LINE
  5
530
100
AcDbEntity
  8
0
100
AcDbLine
 62
2
  6
CONTINUOUS
 10
13.4224655261
 20
1.7014695434
 11
13.43814574
 21
1.7171497573
  0
LINE
  5
531
100
AcDbEntity
  8
0
100
AcDbLine
 62
2
  6
CONTINUOUS
 10
13.4235615225
 20
1.7011844718
 11
13.43814574
 21
1.7157686893
  0
LINE
  5
532
100
AcDbEntity
  8
0
100
AcDbLine
 62
2
  6
CONTINUOUS
 10
13.4246575188
 20
1.7008994002
 11
13.43814574
 21
1.7143876214
  0
LINE
  5
533
100
AcDbEntity
  8
0
100
AcDbLine
 62
2
  6
CONTINUOUS
 10
13.4257535152
 20
1.7006143286
 11
13.43814574
 21
1.7130065535
  0
LINE
  5
534
100
AcDbEntity
  8
0
100
AcDbLine
 62
2
  6
CONTINUOUS
 10
13.4268495115
 20
1.700329257
 11
13.43814574
 21
1.7116254855
  0
LINE
  5
535
100
AcDbEntity
  8
0
100
AcDbLine
 62
2
  6
CONTINUOUS
 10
13.4280866488
 20
1.7001853264
 11
13.43814574
 21
1.7102444176
  0
LINE
  5
536
100
AcDbEntity
  8
0
100
AcDbLine
 62
2
  6
CONTINUOUS
 10
13.4293602788
 20
1.7000778885
 11
13.43814574
 21
1.7088633497
  0
LINE
  5
537
100
AcDbEntity
  8
0
100
AcDbLine
 62
2
  6
CONTINUOUS
 10
13.4306339088
 20
1.6999704506
 11
13.43814574
 21
1.7074822817
  0
LINE
  5
538
100
AcDbEntity
  8
0
100
AcDbLine
 62
2
  6
CONTINUOUS
 10
13.4319075388
 20
1.6998630126
 11
13.43814574
 21
1.7061012138
  0
LINE
  5
539
100
AcDbEntity
  8
0
100
AcDbLine
 62
2
  6
CONTINUOUS
 10
13.4331811689
 20
1.6997555747
 11
13.43814574
 21
1.7047201459
  0
LINE
  5
53A
100
AcDbEntity
  8
0
100
AcDbLine
 62
2
  6
CONTINUOUS
 10
13.4344547989
 20
1.6996481368
 11
13.43814574
 21
1.7033390779
  0
LINE
  5
53B
100
AcDbEntity
  8
0
100
AcDbLine
 62
2
  6
CONTINUOUS
 10
13.4357284289
 20
1.6995406989
 11
13.43814574
 21
1.70195801
  0
LINE
  5
53C
100
AcDbEntity
  8
0
100
AcDbLine
 62
2
  6
CONTINUOUS
 10
13.4370020589
 20
1.699433261
 11
13.43814574
 21
1.7005769421
  0
LWPOLYLINE
  5
53D
100
AcDbEntity
  8
0
100
AcDbPolyline
 62
7
  6
CONTINUOUS
 90
2
 70
0
 43
0.0200000008
 10
16.75
 20
0.258589
 10
16.75
 20
10.758589
  0
LINE
  5
53E
100
AcDbEntity
  8
0
100
AcDbLine
 62
7
  6
CONTINUOUS
 10
3.0336426396
 20
3.5056988381
 11
3.1756426396
 21
3.5056988381
  0
LINE
  5
53F
100
AcDbEntity
  8
0
100
AcDbLine
 62
7
  6
CONTINUOUS
 10
3.6796426396
 20
3.5056988381
 11
3.8216426396
 21
3.5056988381
  0
LINE
  5
540
100
AcDbEntity
  8
0
100
AcDbLine
 62
7
  6
CONTINUOUS
 10
3.0336426396
 20
3.5236249329
 11
3.1756426396
 21
3.5236249329
  0
LINE
  5
541
100
AcDbEntity
  8
0
100
AcDbLine
 62
7
  6
CONTINUOUS
 10
3.6796426396
 20
3.5236249329
 11
3.8216426396
 21
3.5236249329
  0
LINE
  5
542
100
AcDbEntity
  8
0
100
AcDbLine
 62
7
  6
CONTINUOUS
 10
3.1816426396
 20
3.5786988381
 11
3.6796426396
 21
3.5786988381
  0
LINE
  5
543
100
AcDbEntity
  8
0
100
AcDbLine
 62
7
  6
CONTINUOUS
 10
3.0336426396
 20
3.5964680688
 11
3.1756426396
 21
3.5964680688
  0
LINE
  5
544
100
AcDbEntity
  8
0
100
AcDbLine
 62
7
  6
CONTINUOUS
 10
3.6796426396
 20
3.5964680688
 11
3.8216426396
 21
3.5964680688
  0
LINE
  5
545
100
AcDbEntity
  8
0
100
AcDbLine
 62
7
  6
CONTINUOUS
 10
3.0336426396
 20
3.6156988381
 11
3.1756426396
 21
3.6156988381
  0
LINE
  5
546
100
AcDbEntity
  8
0
100
AcDbLine
 62
7
  6
CONTINUOUS
 10
3.6796426396
 20
3.6156988381
 11
3.8216426396
 21
3.6156988381
  0
LINE
  5
547
100
AcDbEntity
  8
0
100
AcDbLine
 62
7
  6
CONTINUOUS
 10
3.3414221671
 20
3.6436122239
 11
3.313863112
 21
3.6436122239
  0
LINE
  5
548
100
AcDbEntity
  8
0
100
AcDbLine
 62
7
  6
CONTINUOUS
 10
3.2791190175
 20
3.6889862396
 11
3.3761662616
 21
3.7124114365
  0
LINE
  5
549
100
AcDbEntity
  8
0
100
AcDbLine
 62
7
  6
CONTINUOUS
 10
3.2329953641
 20
3.6869193105
 11
3.3159300411
 21
3.6869193105
  0
LINE
  5
54A
100
AcDbEntity
  8
0
100
AcDbLine
 62
7
  6
CONTINUOUS
 10
3.339355238
 20
3.6869193105
 11
3.4222899151
 21
3.6869193105
  0
LINE
  5
54B
100
AcDbEntity
  8
0
100
AcDbLine
 62
7
  6
CONTINUOUS
 10
3.2791190175
 20
3.6889862396
 11
3.3159300411
 21
3.6889862396
  0
LINE
  5
54C
100
AcDbEntity
  8
0
100
AcDbLine
 62
7
  6
CONTINUOUS
 10
3.339355238
 20
3.6889862396
 11
3.3761662616
 21
3.6889862396
  0
LINE
  5
54D
100
AcDbEntity
  8
DEFAULT_1
100
AcDbLine
 62
7
  6
CENTER
 10
3.3276426396
 20
3.7006988381
 11
3.1536426396
 21
3.7006988381
  0
LINE
  5
54E
100
AcDbEntity
  8
DEFAULT_1
100
AcDbLine
 62
7
  6
CENTER
 10
3.3276426396
 20
3.7006988381
 11
3.5016426396
 21
3.7006988381
  0
LINE
  5
54F
100
AcDbEntity
  8
0
100
AcDbLine
 62
7
  6
CONTINUOUS
 10
3.3761662616
 20
3.7124114365
 11
3.339355238
 21
3.7124114365
  0
LINE
  5
550
100
AcDbEntity
  8
0
100
AcDbLine
 62
7
  6
CONTINUOUS
 10
3.3159300411
 20
3.7124114365
 11
3.2791190175
 21
3.7124114365
  0
LINE
  5
551
100
AcDbEntity
  8
0
100
AcDbLine
 62
7
  6
CONTINUOUS
 10
3.2329953641
 20
3.7144783656
 11
3.3159300411
 21
3.7144783656
  0
LINE
  5
552
100
AcDbEntity
  8
0
100
AcDbLine
 62
7
  6
CONTINUOUS
 10
3.339355238
 20
3.7144783656
 11
3.4222899151
 21
3.7144783656
  0
LINE
  5
553
100
AcDbEntity
  8
0
100
AcDbLine
 62
7
  6
CONTINUOUS
 10
3.1816426396
 20
3.7386988381
 11
3.2254810029
 21
3.7386988381
  0
LINE
  5
554
100
AcDbEntity
  8
0
100
AcDbLine
 62
7
  6
CONTINUOUS
 10
3.5286426396
 20
3.7386988381
 11
3.6796426396
 21
3.7386988381
  0
LINE
  5
555
100
AcDbEntity
  8
0
100
AcDbLine
 62
7
  6
CONTINUOUS
 10
3.313863112
 20
3.7577854522
 11
3.3414221671
 21
3.7577854522
  0
LINE
  5
556
100
AcDbEntity
  8
0
100
AcDbLine
 62
7
  6
CONTINUOUS
 10
3.0336426396
 20
3.8326988381
 11
3.1756426396
 21
3.8326988381
  0
LINE
  5
557
100
AcDbEntity
  8
0
100
AcDbLine
 62
7
  6
CONTINUOUS
 10
3.6796426396
 20
3.8326988381
 11
3.8216426396
 21
3.8326988381
  0
LINE
  5
558
100
AcDbEntity
  8
0
100
AcDbLine
 62
7
  6
CONTINUOUS
 10
3.2791190175
 20
3.7124114365
 11
3.3761662616
 21
3.6889862396
  0
LINE
  5
559
100
AcDbEntity
  8
0
100
AcDbLine
 62
7
  6
CONTINUOUS
 10
3.1756426396
 20
3.8479787882
 11
3.6796426396
 21
3.8479787882
  0
LINE
  5
55A
100
AcDbEntity
  8
0
100
AcDbLine
 62
7
  6
CONTINUOUS
 10
3.0336426396
 20
3.9524075926
 11
3.8216426396
 21
3.9524075926
  0
LINE
  5
55B
100
AcDbEntity
  8
0
100
AcDbLine
 62
7
  6
CONTINUOUS
 10
3.0336426396
 20
4.1281688381
 11
3.8216426396
 21
4.1281688381
  0
LINE
  5
55C
100
AcDbEntity
  8
0
100
AcDbLine
 62
7
  6
CONTINUOUS
 10
3.0336426396
 20
4.1476988381
 11
3.8216426396
 21
4.1476988381
  0
LINE
  5
55D
100
AcDbEntity
  8
0
100
AcDbLine
 62
7
  6
CONTINUOUS
 10
3.3159300411
 20
8.5136962396
 11
3.339355238
 21
8.5371214365
  0
LINE
  5
55E
100
AcDbEntity
  8
0
100
AcDbLine
 62
7
  6
CONTINUOUS
 10
3.0336426396
 20
4.2676988381
 11
3.8216426396
 21
4.2676988381
  0
LINE
  5
55F
100
AcDbEntity
  8
0
100
AcDbLine
 62
7
  6
CONTINUOUS
 10
3.339355238
 20
3.6889862396
 11
3.3159300411
 21
3.7124114365
  0
LINE
  5
560
100
AcDbEntity
  8
0
100
AcDbLine
 62
7
  6
CONTINUOUS
 10
3.8216426396
 20
4.4076988381
 11
3.0336426396
 21
4.4076988381
  0
LINE
  5
561
100
AcDbEntity
  8
0
100
AcDbLine
 62
7
  6
CONTINUOUS
 10
3.3176426396
 20
4.4476988381
 11
3.5376426396
 21
4.4476988381
  0
LINE
  5
562
100
AcDbEntity
  8
0
100
AcDbLine
 62
7
  6
CONTINUOUS
 10
3.3176426396
 20
4.4546988381
 11
3.5376426396
 21
4.4546988381
  0
LINE
  5
563
100
AcDbEntity
  8
0
100
AcDbLine
 62
7
  6
CONTINUOUS
 10
3.0336426396
 20
4.4646988381
 11
3.8216426396
 21
4.4646988381
  0
LINE
  5
564
100
AcDbEntity
  8
0
100
AcDbLine
 62
7
  6
CONTINUOUS
 10
3.0336426396
 20
4.5076988381
 11
3.8216426396
 21
4.5076988381
  0
LINE
  5
565
100
AcDbEntity
  8
0
100
AcDbLine
 62
7
  6
CONTINUOUS
 10
3.0636426396
 20
4.5234088381
 11
3.7916426396
 21
4.5234088381
  0
LINE
  5
566
100
AcDbEntity
  8
0
100
AcDbLine
 62
7
  6
CONTINUOUS
 10
3.4899135649
 20
4.8789588381
 11
3.3813717143
 21
4.8789588381
  0
LINE
  5
567
100
AcDbEntity
  8
DEFAULT_1
100
AcDbLine
 62
7
  6
CENTER
 10
3.4356426396
 20
4.9729588381
 11
3.2546426396
 21
4.9729588381
  0
LINE
  5
568
100
AcDbEntity
  8
DEFAULT_1
100
AcDbLine
 62
7
  6
CENTER
 10
3.4356426396
 20
4.9729588381
 11
3.6166426396
 21
4.9729588381
  0
LINE
  5
569
100
AcDbEntity
  8
0
100
AcDbLine
 62
7
  6
CONTINUOUS
 10
3.3813717143
 20
5.0669588381
 11
3.4899135649
 21
5.0669588381
  0
LINE
  5
56A
100
AcDbEntity
  8
0
100
AcDbLine
 62
7
  6
CONTINUOUS
 10
3.0267922459
 20
5.1838407278
 11
3.0336426396
 21
5.1838407278
  0
LINE
  5
56B
100
AcDbEntity
  8
0
100
AcDbLine
 62
7
  6
CONTINUOUS
 10
3.3144366174
 20
5.1138969381
 11
3.5134366174
 21
5.0788078689
  0
LINE
  5
56C
100
AcDbEntity
  8
0
100
AcDbLine
 62
7
  6
CONTINUOUS
 10
3.3001909755
 20
5.1571804116
 11
3.5505846763
 21
5.1130292464
  0
LINE
  5
56D
100
AcDbEntity
  8
0
100
AcDbLine
 62
7
  6
CONTINUOUS
 10
3.3036092468
 20
5.176566391
 11
3.5540029475
 21
5.1324152257
  0
LINE
  5
56E
100
AcDbEntity
  8
0
100
AcDbLine
 62
7
  6
CONTINUOUS
 10
3.327100789
 20
7.5038171058
 11
3.3813717143
 21
7.5978171058
  0
LINE
  5
56F
100
AcDbEntity
  8
0
100
AcDbLine
 62
7
  6
CONTINUOUS
 10
3.0267922459
 20
5.3038407278
 11
3.0336426396
 21
5.3038407278
  0
LINE
  5
570
100
AcDbEntity
  8
0
100
AcDbLine
 62
7
  6
CONTINUOUS
 10
3.313863112
 20
8.4683222239
 11
3.3414221671
 21
8.5824954522
  0
LINE
  5
571
100
AcDbEntity
  8
0
100
AcDbLine
 62
7
  6
CONTINUOUS
 10
3.5441844902
 20
7.5038171058
 11
3.4899135649
 21
7.4098171058
  0
LINE
  5
572
100
AcDbEntity
  8
DEFAULT_1
100
AcDbLine
 62
7
  6
CENTER
 10
3.4915481514
 20
5.4648879719
 11
3.4588602236
 21
5.4648879719
  0
LINE
  5
573
100
AcDbEntity
  8
DEFAULT_1
100
AcDbLine
 62
7
  6
CENTER
 10
3.4915481514
 20
5.4648879719
 11
3.5242360792
 21
5.4648879719
  0
LINE
  5
574
100
AcDbEntity
  8
0
100
AcDbLine
 62
7
  6
CONTINUOUS
 10
3.3813717143
 20
4.8789588381
 11
3.327100789
 21
4.9729588381
  0
LINE
  5
575
100
AcDbEntity
  8
0
100
AcDbLine
 62
7
  6
CONTINUOUS
 10
3.3414221671
 20
3.6436122239
 11
3.313863112
 21
3.7577854522
  0
LINE
  5
576
100
AcDbEntity
  8
0
100
AcDbLine
 62
7
  6
CONTINUOUS
 10
3.0267922459
 20
5.1838407278
 11
3.0267922459
 21
5.3038407278
  0
LINE
  5
577
100
AcDbEntity
  8
0
100
AcDbLine
 62
7
  6
CONTINUOUS
 10
3.0336426396
 20
3.5056988381
 11
3.0336426396
 21
8.6434088381
  0
LINE
  5
578
100
AcDbEntity
  8
0
100
AcDbLine
 62
7
  6
CONTINUOUS
 10
3.0436426396
 20
8.6134088381
 11
3.0436426396
 21
4.5434088381
  0
LINE
  5
579
100
AcDbEntity
  8
0
100
AcDbLine
 62
7
  6
CONTINUOUS
 10
3.4899135649
 20
5.0669588381
 11
3.5441844902
 21
4.9729588381
  0
LINE
  5
57A
100
AcDbEntity
  8
0
100
AcDbLine
 62
7
  6
CONTINUOUS
 10
3.1756426396
 20
3.5056988381
 11
3.1756426396
 21
3.8479787882
  0
LINE
  5
57B
100
AcDbEntity
  8
0
100
AcDbLine
 62
7
  6
CONTINUOUS
 10
3.1816426396
 20
3.8479787882
 11
3.1816426396
 21
3.5786988381
  0
LINE
  5
57C
100
AcDbEntity
  8
0
100
AcDbLine
 62
7
  6
CONTINUOUS
 10
3.209835553
 20
7.2903051632
 11
3.209835553
 21
6.7533051632
  0
LINE
  5
57D
100
AcDbEntity
  8
0
100
AcDbLine
 62
7
  6
CONTINUOUS
 10
3.209835553
 20
5.7436558581
 11
3.209835553
 21
5.2066558581
  0
LINE
  5
57E
100
AcDbEntity
  8
0
100
AcDbLine
 62
7
  6
CONTINUOUS
 10
3.2111426396
 20
7.2694690741
 11
3.2111426396
 21
6.7836472124
  0
LINE
  5
57F
100
AcDbEntity
  8
0
100
AcDbLine
 62
7
  6
CONTINUOUS
 10
3.2111426396
 20
5.7228197689
 11
3.2111426396
 21
5.2369979072
  0
LINE
  5
580
100
AcDbEntity
  8
0
100
AcDbLine
 62
7
  6
CONTINUOUS
 10
3.2513906711
 20
7.2614375941
 11
3.2513906711
 21
6.7623383498
  0
LINE
  5
581
100
AcDbEntity
  8
0
100
AcDbLine
 62
7
  6
CONTINUOUS
 10
3.2513906711
 20
5.7144375941
 11
3.2513906711
 21
5.2153383498
  0
LINE
  5
582
100
AcDbEntity
  8
0
100
AcDbLine
 62
7
  6
CONTINUOUS
 10
3.2710757104
 20
7.2614375941
 11
3.2710757104
 21
6.7623383498
  0
LINE
  5
583
100
AcDbEntity
  8
0
100
AcDbLine
 62
7
  6
CONTINUOUS
 10
3.2710757104
 20
5.7144375941
 11
3.2710757104
 21
5.2153383498
  0
LINE
  5
584
100
AcDbEntity
  8
0
100
AcDbLine
 62
7
  6
CONTINUOUS
 10
3.327100789
 20
6.5199588381
 11
3.3813717143
 21
6.6139588381
  0
LINE
  5
585
100
AcDbEntity
  8
0
100
AcDbLine
 62
7
  6
CONTINUOUS
 10
3.5540029475
 20
5.7973607181
 11
3.3036092468
 21
5.7532095529
  0
LINE
  5
586
100
AcDbEntity
  8
0
100
AcDbLine
 62
7
  6
CONTINUOUS
 10
3.5505846763
 20
5.8167466975
 11
3.3001909755
 21
5.7725955322
  0
LINE
  5
587
100
AcDbEntity
  8
0
100
AcDbLine
 62
7
  6
CONTINUOUS
 10
3.5134366174
 20
5.8810098072
 11
3.5057685626
 21
5.8796577222
  0
LINE
  5
588
100
AcDbEntity
  8
0
100
AcDbLine
 62
7
  6
CONTINUOUS
 10
3.3960490242
 20
5.8603112073
 11
3.3144366174
 21
5.845920738
  0
LINE
  5
589
100
AcDbEntity
  8
0
100
AcDbLine
 62
7
  6
CONTINUOUS
 10
3.4899135649
 20
5.8628171058
 11
3.3813717143
 21
5.8628171058
  0
LINE
  5
58A
100
AcDbEntity
  8
0
100
AcDbLine
 62
7
  6
CONTINUOUS
 10
3.2786426396
 20
3.8479787882
 11
3.2786426396
 21
3.7980641296
  0
LINE
  5
58B
100
AcDbEntity
  8
0
100
AcDbLine
 62
7
  6
CONTINUOUS
 10
3.2791190175
 20
3.6889862396
 11
3.2791190175
 21
3.7124114365
  0
LINE
  5
58C
100
AcDbEntity
  8
0
100
AcDbLine
 62
7
  6
CONTINUOUS
 10
3.2791190175
 20
8.5136962396
 11
3.2791190175
 21
8.5371214365
  0
LINE
  5
58D
100
AcDbEntity
  8
0
100
AcDbLine
 62
7
  6
CONTINUOUS
 10
3.313863112
 20
3.6436122239
 11
3.313863112
 21
3.6869193105
  0
LINE
  5
58E
100
AcDbEntity
  8
0
100
AcDbLine
 62
7
  6
CONTINUOUS
 10
3.313863112
 20
3.7144783656
 11
3.313863112
 21
3.7577854522
  0
LINE
  5
58F
100
AcDbEntity
  8
0
100
AcDbLine
 62
7
  6
CONTINUOUS
 10
3.313863112
 20
8.4683222239
 11
3.313863112
 21
8.5116293105
  0
LINE
  5
590
100
AcDbEntity
  8
0
100
AcDbLine
 62
7
  6
CONTINUOUS
 10
3.313863112
 20
8.5391883656
 11
3.313863112
 21
8.5824954522
  0
LINE
  5
591
100
AcDbEntity
  8
0
100
AcDbLine
 62
7
  6
CONTINUOUS
 10
3.3159300411
 20
8.5391883656
 11
3.3159300411
 21
8.5371214365
  0
LINE
  5
592
100
AcDbEntity
  8
0
100
AcDbLine
 62
7
  6
CONTINUOUS
 10
3.3159300411
 20
3.7144783656
 11
3.3159300411
 21
3.7124114365
  0
LINE
  5
593
100
AcDbEntity
  8
0
100
AcDbLine
 62
7
  6
CONTINUOUS
 10
3.3159300411
 20
3.6869193105
 11
3.3159300411
 21
3.6889862396
  0
LINE
  5
594
100
AcDbEntity
  8
0
100
AcDbLine
 62
7
  6
CONTINUOUS
 10
3.3159300411
 20
8.5116293105
 11
3.3159300411
 21
8.5136962396
  0
LINE
  5
595
100
AcDbEntity
  8
0
100
AcDbLine
 62
7
  6
CONTINUOUS
 10
3.3176426396
 20
4.4076988381
 11
3.3176426396
 21
4.4546988381
  0
LINE
  5
596
100
AcDbEntity
  8
0
100
AcDbLine
 62
7
  6
CONTINUOUS
 10
3.320335553
 20
7.5110108991
 11
3.320335553
 21
7.4350108991
  0
LINE
  5
597
100
AcDbEntity
  8
0
100
AcDbLine
 62
7
  6
CONTINUOUS
 10
3.320335553
 20
6.6085994273
 11
3.320335553
 21
6.5271526314
  0
LINE
  5
598
100
AcDbEntity
  8
0
100
AcDbLine
 62
7
  6
CONTINUOUS
 10
3.320335553
 20
5.964361594
 11
3.320335553
 21
5.888361594
  0
LINE
  5
599
100
AcDbEntity
  8
0
100
AcDbLine
 62
7
  6
CONTINUOUS
 10
3.320335553
 20
5.0619501222
 11
3.320335553
 21
4.9805033263
  0
LINE
  5
59A
100
AcDbEntity
  8
DEFAULT_1
100
AcDbLine
 62
7
  6
CENTER
 10
3.3276426396
 20
8.5254088381
 11
3.3276426396
 21
8.2819088381
  0
LINE
  5
59B
100
AcDbEntity
  8
DEFAULT_1
100
AcDbLine
 62
7
  6
CENTER
 10
3.3276426396
 20
3.7006988381
 11
3.3276426396
 21
3.5266988381
  0
LINE
  5
59C
100
AcDbEntity
  8
DEFAULT_1
100
AcDbLine
 62
7
  6
CENTER
 10
3.3276426396
 20
3.7006988381
 11
3.3276426396
 21
3.8746988381
  0
LINE
  5
59D
100
AcDbEntity
  8
DEFAULT_1
100
AcDbLine
 62
7
  6
CENTER
 10
3.3276426396
 20
8.5254088381
 11
3.3276426396
 21
8.7689088381
  0
LINE
  5
59E
100
AcDbEntity
  8
0
100
AcDbLine
 62
7
  6
CONTINUOUS
 10
3.339355238
 20
8.5391883656
 11
3.339355238
 21
8.5371214365
  0
LINE
  5
59F
100
AcDbEntity
  8
0
100
AcDbLine
 62
7
  6
CONTINUOUS
 10
3.339355238
 20
3.7144783656
 11
3.339355238
 21
3.7124114365
  0
LINE
  5
5A0
100
AcDbEntity
  8
0
100
AcDbLine
 62
7
  6
CONTINUOUS
 10
3.339355238
 20
3.6869193105
 11
3.339355238
 21
3.6889862396
  0
LINE
  5
5A1
100
AcDbEntity
  8
0
100
AcDbLine
 62
7
  6
CONTINUOUS
 10
3.339355238
 20
8.5116293105
 11
3.339355238
 21
8.5136962396
  0
LINE
  5
5A2
100
AcDbEntity
  8
0
100
AcDbLine
 62
7
  6
CONTINUOUS
 10
3.3414221671
 20
8.5824954522
 11
3.3414221671
 21
8.5391883656
  0
LINE
  5
5A3
100
AcDbEntity
  8
0
100
AcDbLine
 62
7
  6
CONTINUOUS
 10
3.3414221671
 20
8.5116293105
 11
3.3414221671
 21
8.4683222239
  0
LINE
  5
5A4
100
AcDbEntity
  8
0
100
AcDbLine
 62
7
  6
CONTINUOUS
 10
3.3414221671
 20
3.7577854522
 11
3.3414221671
 21
3.7144783656
  0
LINE
  5
5A5
100
AcDbEntity
  8
0
100
AcDbLine
 62
7
  6
CONTINUOUS
 10
3.3414221671
 20
3.6869193105
 11
3.3414221671
 21
3.6436122239
  0
LINE
  5
5A6
100
AcDbEntity
  8
0
100
AcDbLine
 62
7
  6
CONTINUOUS
 10
3.3761662616
 20
3.6889862396
 11
3.3761662616
 21
3.7124114365
  0
LINE
  5
5A7
100
AcDbEntity
  8
0
100
AcDbLine
 62
7
  6
CONTINUOUS
 10
3.3761662616
 20
8.5136962396
 11
3.3761662616
 21
8.5371214365
  0
LINE
  5
5A8
100
AcDbEntity
  8
0
100
AcDbLine
 62
7
  6
CONTINUOUS
 10
3.4278926396
 20
7.6080293292
 11
3.4278926396
 21
7.5978171058
  0
LINE
  5
5A9
100
AcDbEntity
  8
0
100
AcDbLine
 62
7
  6
CONTINUOUS
 10
3.4278926396
 20
6.6241710614
 11
3.4278926396
 21
6.6139588381
  0
LINE
  5
5AA
100
AcDbEntity
  8
0
100
AcDbLine
 62
7
  6
CONTINUOUS
 10
3.4278926396
 20
6.0610293292
 11
3.4278926396
 21
6.0508171058
  0
LINE
  5
5AB
100
AcDbEntity
  8
0
100
AcDbLine
 62
7
  6
CONTINUOUS
 10
3.4278926396
 20
5.0771710614
 11
3.4278926396
 21
5.0669588381
  0
LINE
  5
5AC
100
AcDbEntity
  8
DEFAULT_1
100
AcDbLine
 62
7
  6
CENTER
 10
3.4356426396
 20
7.5038171058
 11
3.4356426396
 21
7.3228171058
  0
LINE
  5
5AD
100
AcDbEntity
  8
DEFAULT_1
100
AcDbLine
 62
7
  6
CENTER
 10
3.4356426396
 20
6.5199588381
 11
3.4356426396
 21
6.3389588381
  0
LINE
  5
5AE
100
AcDbEntity
  8
DEFAULT_1
100
AcDbLine
 62
7
  6
CENTER
 10
3.4356426396
 20
5.9568171058
 11
3.4356426396
 21
5.7758171058
  0
LINE
  5
5AF
100
AcDbEntity
  8
DEFAULT_1
100
AcDbLine
 62
7
  6
CENTER
 10
3.4356426396
 20
4.9729588381
 11
3.4356426396
 21
4.7919588381
  0
LINE
  5
5B0
100
AcDbEntity
  8
DEFAULT_1
100
AcDbLine
 62
7
  6
CENTER
 10
3.4356426396
 20
4.9729588381
 11
3.4356426396
 21
5.7758171058
  0
LINE
  5
5B1
100
AcDbEntity
  8
DEFAULT_1
100
AcDbLine
 62
7
  6
CENTER
 10
3.4356426396
 20
5.9568171058
 11
3.4356426396
 21
6.3389588381
  0
LINE
  5
5B2
100
AcDbEntity
  8
DEFAULT_1
100
AcDbLine
 62
7
  6
CENTER
 10
3.4356426396
 20
6.5199588381
 11
3.4356426396
 21
7.3228171058
  0
LINE
  5
5B3
100
AcDbEntity
  8
DEFAULT_1
100
AcDbLine
 62
7
  6
CENTER
 10
3.4356426396
 20
7.5038171058
 11
3.4356426396
 21
7.6848171058
  0
LINE
  5
5B4
100
AcDbEntity
  8
0
100
AcDbLine
 62
7
  6
CONTINUOUS
 10
3.4433926396
 20
5.0669588381
 11
3.4433926396
 21
5.0771710614
  0
LINE
  5
5B5
100
AcDbEntity
  8
0
100
AcDbLine
 62
7
  6
CONTINUOUS
 10
3.4433926396
 20
6.0508171058
 11
3.4433926396
 21
6.0610293292
  0
LINE
  5
5B6
100
AcDbEntity
  8
0
100
AcDbLine
 62
7
  6
CONTINUOUS
 10
3.4433926396
 20
6.6139588381
 11
3.4433926396
 21
6.6241710614
  0
LINE
  5
5B7
100
AcDbEntity
  8
0
100
AcDbLine
 62
7
  6
CONTINUOUS
 10
3.4433926396
 20
7.5978171058
 11
3.4433926396
 21
7.6080293292
  0
LINE
  5
5B8
100
AcDbEntity
  8
0
100
AcDbLine
 62
7
  6
CONTINUOUS
 10
3.5441844902
 20
6.5199588381
 11
3.4899135649
 21
6.4259588381
  0
LINE
  5
5B9
100
AcDbEntity
  8
0
100
AcDbLine
 62
7
  6
CONTINUOUS
 10
3.327100789
 20
5.9568171058
 11
3.3813717143
 21
6.0508171058
  0
LINE
  5
5BA
100
AcDbEntity
  8
DEFAULT_1
100
AcDbLine
 62
7
  6
CENTER
 10
3.4356426396
 20
5.9568171058
 11
3.2546426396
 21
5.9568171058
  0
LINE
  5
5BB
100
AcDbEntity
  8
DEFAULT_1
100
AcDbLine
 62
7
  6
CENTER
 10
3.4356426396
 20
5.9568171058
 11
3.6166426396
 21
5.9568171058
  0
LINE
  5
5BC
100
AcDbEntity
  8
0
100
AcDbLine
 62
7
  6
CONTINUOUS
 10
3.3813717143
 20
6.0508171058
 11
3.4899135649
 21
6.0508171058
  0
LINE
  5
5BD
100
AcDbEntity
  8
0
100
AcDbLine
 62
7
  6
CONTINUOUS
 10
3.3813717143
 20
5.8628171058
 11
3.327100789
 21
5.9568171058
  0
LINE
  5
5BE
100
AcDbEntity
  8
DEFAULT_1
100
AcDbLine
 62
7
  6
CENTER
 10
3.4915481514
 20
7.0118879719
 11
3.4915481514
 21
6.9743806014
  0
LINE
  5
5BF
100
AcDbEntity
  8
DEFAULT_1
100
AcDbLine
 62
7
  6
CENTER
 10
3.4915481514
 20
5.4648879719
 11
3.4915481514
 21
5.4322000441
  0
LINE
  5
5C0
100
AcDbEntity
  8
DEFAULT_1
100
AcDbLine
 62
7
  6
CENTER
 10
3.4915481514
 20
5.4648879719
 11
3.4915481514
 21
5.4975758997
  0
LINE
  5
5C1
100
AcDbEntity
  8
DEFAULT_1
100
AcDbLine
 62
7
  6
CENTER
 10
3.4915481514
 20
7.0118879719
 11
3.4915481514
 21
7.0493953425
  0
LINE
  5
5C2
100
AcDbEntity
  8
0
100
AcDbLine
 62
7
  6
CONTINUOUS
 10
3.5286426396
 20
3.8479787882
 11
3.5286426396
 21
3.7386988381
  0
LINE
  5
5C3
100
AcDbEntity
  8
0
100
AcDbLine
 62
7
  6
CONTINUOUS
 10
3.5376426396
 20
4.4076988381
 11
3.5376426396
 21
4.4546988381
  0
LINE
  5
5C4
100
AcDbEntity
  8
0
100
AcDbLine
 62
7
  6
CONTINUOUS
 10
3.570335553
 20
4.9805033263
 11
3.570335553
 21
5.0619501222
  0
LINE
  5
5C5
100
AcDbEntity
  8
0
100
AcDbLine
 62
7
  6
CONTINUOUS
 10
3.570335553
 20
5.888361594
 11
3.570335553
 21
5.964361594
  0
LINE
  5
5C6
100
AcDbEntity
  8
0
100
AcDbLine
 62
7
  6
CONTINUOUS
 10
3.570335553
 20
6.5271526314
 11
3.570335553
 21
6.6085994273
  0
LINE
  5
5C7
100
AcDbEntity
  8
0
100
AcDbLine
 62
7
  6
CONTINUOUS
 10
3.570335553
 20
7.4350108991
 11
3.570335553
 21
7.5110108991
  0
LINE
  5
5C8
100
AcDbEntity
  8
0
100
AcDbLine
 62
7
  6
CONTINUOUS
 10
3.6002095687
 20
5.1711871845
 11
3.6002095687
 21
5.7585887593
  0
LINE
  5
5C9
100
AcDbEntity
  8
0
100
AcDbLine
 62
7
  6
CONTINUOUS
 10
3.6002095687
 20
6.7181871845
 11
3.6002095687
 21
7.3055887593
  0
LINE
  5
5CA
100
AcDbEntity
  8
0
100
AcDbLine
 62
7
  6
CONTINUOUS
 10
3.6198946081
 20
5.1711871845
 11
3.6198946081
 21
5.7585887593
  0
LINE
  5
5CB
100
AcDbEntity
  8
0
100
AcDbLine
 62
7
  6
CONTINUOUS
 10
3.6198946081
 20
6.7181871845
 11
3.6198946081
 21
7.3055887593
  0
LINE
  5
5CC
100
AcDbEntity
  8
0
100
AcDbLine
 62
7
  6
CONTINUOUS
 10
3.5441844902
 20
5.9568171058
 11
3.4899135649
 21
5.8628171058
  0
LINE
  5
5CD
100
AcDbEntity
  8
0
100
AcDbLine
 62
7
  6
CONTINUOUS
 10
3.4899135649
 20
6.0508171058
 11
3.5441844902
 21
5.9568171058
  0
LINE
  5
5CE
100
AcDbEntity
  8
0
100
AcDbLine
 62
7
  6
CONTINUOUS
 10
3.3813717143
 20
6.4259588381
 11
3.327100789
 21
6.5199588381
  0
LINE
  5
5CF
100
AcDbEntity
  8
0
100
AcDbLine
 62
7
  6
CONTINUOUS
 10
3.6601426396
 20
5.2019088381
 11
3.6601426396
 21
5.7579088381
  0
LINE
  5
5D0
100
AcDbEntity
  8
0
100
AcDbLine
 62
7
  6
CONTINUOUS
 10
3.6601426396
 20
6.7485581432
 11
3.6601426396
 21
7.3045581432
  0
LINE
  5
5D1
100
AcDbEntity
  8
0
100
AcDbLine
 62
7
  6
CONTINUOUS
 10
3.6796426396
 20
3.5056988381
 11
3.6796426396
 21
3.8479787882
  0
LINE
  5
5D2
100
AcDbEntity
  8
0
100
AcDbLine
 62
7
  6
CONTINUOUS
 10
3.680835553
 20
5.2066558581
 11
3.680835553
 21
5.7436558581
  0
LINE
  5
5D3
100
AcDbEntity
  8
0
100
AcDbLine
 62
7
  6
CONTINUOUS
 10
3.680835553
 20
6.7533051632
 11
3.680835553
 21
7.2903051632
  0
LINE
  5
5D4
100
AcDbEntity
  8
0
100
AcDbLine
 62
7
  6
CONTINUOUS
 10
3.4899135649
 20
6.4259588381
 11
3.3813717143
 21
6.4259588381
  0
LINE
  5
5D5
100
AcDbEntity
  8
0
100
AcDbLine
 62
7
  6
CONTINUOUS
 10
3.4899135649
 20
6.6139588381
 11
3.5441844902
 21
6.5199588381
  0
LINE
  5
5D6
100
AcDbEntity
  8
0
100
AcDbLine
 62
7
  6
CONTINUOUS
 10
3.8116426396
 20
4.5434088381
 11
3.8116426396
 21
8.6134088381
  0
LINE
  5
5D7
100
AcDbEntity
  8
0
100
AcDbLine
 62
7
  6
CONTINUOUS
 10
3.8216426396
 20
3.5056988381
 11
3.8216426396
 21
8.6434088381
  0
LINE
  5
5D8
100
AcDbEntity
  8
0
100
AcDbLine
 62
7
  6
CONTINUOUS
 10
3.313863112
 20
3.6436122239
 11
3.3414221671
 21
3.7577854522
  0
LINE
  5
5D9
100
AcDbEntity
  8
0
100
AcDbLine
 62
7
  6
CONTINUOUS
 10
3.327100789
 20
4.9729588381
 11
3.3813717143
 21
5.0669588381
  0
LINE
  5
5DA
100
AcDbEntity
  8
DEFAULT_1
100
AcDbLine
 62
7
  6
CENTER
 10
3.4356426396
 20
6.5199588381
 11
3.2546426396
 21
6.5199588381
  0
LINE
  5
5DB
100
AcDbEntity
  8
DEFAULT_1
100
AcDbLine
 62
7
  6
CENTER
 10
3.4356426396
 20
6.5199588381
 11
3.6166426396
 21
6.5199588381
  0
LINE
  5
5DC
100
AcDbEntity
  8
0
100
AcDbLine
 62
7
  6
CONTINUOUS
 10
3.3813717143
 20
6.6139588381
 11
3.4899135649
 21
6.6139588381
  0
LINE
  5
5DD
100
AcDbEntity
  8
0
100
AcDbLine
 62
7
  6
CONTINUOUS
 10
3.3414221671
 20
8.4683222239
 11
3.313863112
 21
8.5824954522
  0
LINE
  5
5DE
100
AcDbEntity
  8
0
100
AcDbLine
 62
7
  6
CONTINUOUS
 10
3.5441844902
 20
4.9729588381
 11
3.4899135649
 21
4.8789588381
  0
LINE
  5
5DF
100
AcDbEntity
  8
0
100
AcDbLine
 62
7
  6
CONTINUOUS
 10
3.3144366174
 20
6.6605462432
 11
3.5134366174
 21
6.6254571741
  0
LINE
  5
5E0
100
AcDbEntity
  8
0
100
AcDbLine
 62
7
  6
CONTINUOUS
 10
3.3001909755
 20
6.7041804116
 11
3.5505846763
 21
6.6600292464
  0
LINE
  5
5E1
100
AcDbEntity
  8
0
100
AcDbLine
 62
7
  6
CONTINUOUS
 10
3.3036092468
 20
6.723566391
 11
3.5540029475
 21
6.6794152257
  0
LINE
  5
5E2
100
AcDbEntity
  8
0
100
AcDbLine
 62
7
  6
CONTINUOUS
 10
3.3813717143
 20
7.4098171058
 11
3.327100789
 21
7.5038171058
  0
LINE
  5
5E3
100
AcDbEntity
  8
0
100
AcDbLine
 62
7
  6
CONTINUOUS
 10
3.4899135649
 20
7.5978171058
 11
3.5441844902
 21
7.5038171058
  0
LINE
  5
5E4
100
AcDbEntity
  8
DEFAULT_1
100
AcDbLine
 62
7
  6
CENTER
 10
3.4915481514
 20
7.0118879719
 11
3.4540407809
 21
7.0118879719
  0
LINE
  5
5E5
100
AcDbEntity
  8
DEFAULT_1
100
AcDbLine
 62
7
  6
CENTER
 10
3.4915481514
 20
7.0118879719
 11
3.5290555219
 21
7.0118879719
  0
LINE
  5
5E6
100
AcDbEntity
  8
0
100
AcDbLine
 62
7
  6
CONTINUOUS
 10
3.5540029475
 20
7.3443607181
 11
3.3036092468
 21
7.3002095529
  0
LINE
  5
5E7
100
AcDbEntity
  8
0
100
AcDbLine
 62
7
  6
CONTINUOUS
 10
3.5505846763
 20
7.3637466975
 11
3.3001909755
 21
7.3195955322
  0
LINE
  5
5E8
100
AcDbEntity
  8
0
100
AcDbLine
 62
7
  6
CONTINUOUS
 10
3.5134366174
 20
7.4276591123
 11
3.5052595906
 21
7.4262172819
  0
LINE
  5
5E9
100
AcDbEntity
  8
0
100
AcDbLine
 62
7
  6
CONTINUOUS
 10
3.3966034524
 20
7.4070582731
 11
3.3144366174
 21
7.3925700432
  0
LINE
  5
5EA
100
AcDbEntity
  8
0
100
AcDbLine
 62
7
  6
CONTINUOUS
 10
3.4899135649
 20
7.4098171058
 11
3.3813717143
 21
7.4098171058
  0
LINE
  5
5EB
100
AcDbEntity
  8
DEFAULT_1
100
AcDbLine
 62
7
  6
CENTER
 10
3.4356426396
 20
7.5038171058
 11
3.2546426396
 21
7.5038171058
  0
LINE
  5
5EC
100
AcDbEntity
  8
DEFAULT_1
100
AcDbLine
 62
7
  6
CENTER
 10
3.4356426396
 20
7.5038171058
 11
3.6166426396
 21
7.5038171058
  0
LINE
  5
5ED
100
AcDbEntity
  8
0
100
AcDbLine
 62
7
  6
CONTINUOUS
 10
3.3813717143
 20
7.5978171058
 11
3.4899135649
 21
7.5978171058
  0
LINE
  5
5EE
100
AcDbEntity
  8
0
100
AcDbLine
 62
7
  6
CONTINUOUS
 10
3.3159300411
 20
3.6889862396
 11
3.339355238
 21
3.7124114365
  0
LINE
  5
5EF
100
AcDbEntity
  8
0
100
AcDbLine
 62
7
  6
CONTINUOUS
 10
3.339355238
 20
8.5136962396
 11
3.3159300411
 21
8.5371214365
  0
LINE
  5
5F0
100
AcDbEntity
  8
0
100
AcDbLine
 62
7
  6
CONTINUOUS
 10
3.2791190175
 20
8.5136962396
 11
3.3761662616
 21
8.5371214365
  0
LINE
  5
5F1
100
AcDbEntity
  8
0
100
AcDbLine
 62
7
  6
CONTINUOUS
 10
3.4413791772
 20
8.3924088381
 11
3.2139061019
 21
8.3924088381
  0
LINE
  5
5F2
100
AcDbEntity
  8
0
100
AcDbLine
 62
7
  6
CONTINUOUS
 10
3.4313923384
 20
8.4069088381
 11
3.2238929408
 21
8.4069088381
  0
LINE
  5
5F3
100
AcDbEntity
  8
0
100
AcDbLine
 62
7
  6
CONTINUOUS
 10
3.3414221671
 20
8.4683222239
 11
3.313863112
 21
8.4683222239
  0
LINE
  5
5F4
100
AcDbEntity
  8
0
100
AcDbLine
 62
7
  6
CONTINUOUS
 10
3.2329953641
 20
8.5116293105
 11
3.3159300411
 21
8.5116293105
  0
LINE
  5
5F5
100
AcDbEntity
  8
0
100
AcDbLine
 62
7
  6
CONTINUOUS
 10
3.339355238
 20
8.5116293105
 11
3.4222899151
 21
8.5116293105
  0
LINE
  5
5F6
100
AcDbEntity
  8
0
100
AcDbLine
 62
7
  6
CONTINUOUS
 10
3.2791190175
 20
8.5136962396
 11
3.3159300411
 21
8.5136962396
  0
LINE
  5
5F7
100
AcDbEntity
  8
0
100
AcDbLine
 62
7
  6
CONTINUOUS
 10
3.339355238
 20
8.5136962396
 11
3.3761662616
 21
8.5136962396
  0
LINE
  5
5F8
100
AcDbEntity
  8
DEFAULT_1
100
AcDbLine
 62
7
  6
CENTER
 10
3.3276426396
 20
8.5254088381
 11
3.0841426396
 21
8.5254088381
  0
LINE
  5
5F9
100
AcDbEntity
  8
DEFAULT_1
100
AcDbLine
 62
7
  6
CENTER
 10
3.3276426396
 20
8.5254088381
 11
3.5711426396
 21
8.5254088381
  0
LINE
  5
5FA
100
AcDbEntity
  8
0
100
AcDbLine
 62
7
  6
CONTINUOUS
 10
3.3761662616
 20
8.5371214365
 11
3.339355238
 21
8.5371214365
  0
LINE
  5
5FB
100
AcDbEntity
  8
0
100
AcDbLine
 62
7
  6
CONTINUOUS
 10
3.3159300411
 20
8.5371214365
 11
3.2791190175
 21
8.5371214365
  0
LINE
  5
5FC
100
AcDbEntity
  8
0
100
AcDbLine
 62
7
  6
CONTINUOUS
 10
3.2329953641
 20
8.5391883656
 11
3.3159300411
 21
8.5391883656
  0
LINE
  5
5FD
100
AcDbEntity
  8
0
100
AcDbLine
 62
7
  6
CONTINUOUS
 10
3.339355238
 20
8.5391883656
 11
3.4222899151
 21
8.5391883656
  0
LINE
  5
5FE
100
AcDbEntity
  8
0
100
AcDbLine
 62
7
  6
CONTINUOUS
 10
3.313863112
 20
8.5824954522
 11
3.3414221671
 21
8.5824954522
  0
LINE
  5
5FF
100
AcDbEntity
  8
0
100
AcDbLine
 62
7
  6
CONTINUOUS
 10
3.7916426396
 20
8.6334088381
 11
3.4653415866
 21
8.6334088381
  0
LINE
  5
600
100
AcDbEntity
  8
0
100
AcDbLine
 62
7
  6
CONTINUOUS
 10
3.1899436926
 20
8.6334088381
 11
3.0636426396
 21
8.6334088381
  0
LINE
  5
601
100
AcDbEntity
  8
0
100
AcDbLine
 62
7
  6
CONTINUOUS
 10
3.8216426396
 20
8.6434088381
 11
3.4313923384
 21
8.6434088381
  0
LINE
  5
602
100
AcDbEntity
  8
0
100
AcDbLine
 62
7
  6
CONTINUOUS
 10
3.2238929408
 20
8.6434088381
 11
3.0336426396
 21
8.6434088381
  0
LINE
  5
603
100
AcDbEntity
  8
0
100
AcDbLine
 62
7
  6
CONTINUOUS
 10
3.2238929408
 20
8.6439088381
 11
3.4313923384
 21
8.6439088381
  0
LINE
  5
604
100
AcDbEntity
  8
0
100
AcDbLine
 62
7
  6
CONTINUOUS
 10
3.2791190175
 20
8.5371214365
 11
3.3761662616
 21
8.5136962396
  0
LINE
  5
605
100
AcDbEntity
  8
0
100
AcDbLine
 62
7
  6
CONTINUOUS
 10
5.3869824164
 20
4.2676988381
 11
5.3869824164
 21
4.1476988381
  0
LINE
  5
606
100
AcDbEntity
  8
0
100
AcDbLine
 62
7
  6
CONTINUOUS
 10
6.660943197
 20
3.5964680688
 11
6.4769824164
 21
3.6964680688
  0
LINE
  5
607
100
AcDbEntity
  8
0
100
AcDbLine
 62
7
  6
CONTINUOUS
 10
6.3869824164
 20
3.8326988381
 11
6.4069824164
 21
3.6156988381
  0
LINE
  5
608
100
AcDbEntity
  8
0
100
AcDbLine
 62
7
  6
CONTINUOUS
 10
6.2165378314
 20
4.3501441988
 11
6.2158843714
 21
4.3601228255
  0
LINE
  5
609
100
AcDbEntity
  8
0
100
AcDbLine
 62
7
  6
CONTINUOUS
 10
6.2175533667
 20
4.3652428308
 11
6.2185335567
 21
4.3502748908
  0
LINE
  5
60A
100
AcDbEntity
  8
0
100
AcDbLine
 62
7
  6
CONTINUOUS
 10
7.2950532826
 20
8.5254088381
 11
7.2537590094
 21
8.4761962396
  0
LINE
  5
60B
100
AcDbEntity
  8
0
100
AcDbLine
 62
7
  6
CONTINUOUS
 10
6.4069824164
 20
3.6156988381
 11
6.4569824164
 21
3.5964680688
  0
LINE
  5
60C
100
AcDbEntity
  8
0
100
AcDbLine
 62
7
  6
CONTINUOUS
 10
6.6463745698
 20
3.5236249329
 11
6.6929824164
 21
3.5056988381
  0
LINE
  5
60D
100
AcDbEntity
  8
0
100
AcDbLine
 62
7
  6
CONTINUOUS
 10
6.894215871
 20
3.7451804771
 11
6.9019824164
 21
3.7386988381
  0
LINE
  5
60E
100
AcDbEntity
  8
0
100
AcDbLine
 62
7
  6
CONTINUOUS
 10
6.5719824164
 20
4.4646988381
 11
6.6319824164
 21
4.3946988381
  0
LINE
  5
60F
100
AcDbEntity
  8
0
100
AcDbLine
 62
7
  6
CONTINUOUS
 10
7.3350532826
 20
3.7006988381
 11
7.2937590094
 21
3.7499114365
  0
LINE
  5
610
100
AcDbEntity
  8
0
100
AcDbLine
 62
7
  6
CONTINUOUS
 10
6.5917518664
 20
4.3897475813
 11
6.5927320565
 21
4.3747796413
  0
LINE
  5
611
100
AcDbEntity
  8
0
100
AcDbLine
 62
7
  6
CONTINUOUS
 10
6.6057042711
 20
4.3756291394
 11
6.6050508111
 21
4.385607766
  0
LINE
  5
612
100
AcDbEntity
  8
0
100
AcDbLine
 62
7
  6
CONTINUOUS
 10
6.6369824164
 20
4.4022366217
 11
6.6369824164
 21
4.3876988381
  0
LINE
  5
613
100
AcDbEntity
  8
0
100
AcDbLine
 62
7
  6
CONTINUOUS
 10
6.6829824164
 20
7.5978171058
 11
6.6829824164
 21
7.4098171058
  0
LINE
  5
614
100
AcDbEntity
  8
0
100
AcDbLine
 62
7
  6
CONTINUOUS
 10
6.6829824164
 20
6.6139588381
 11
6.6829824164
 21
6.4259588381
  0
LINE
  5
615
100
AcDbEntity
  8
0
100
AcDbLine
 62
7
  6
CONTINUOUS
 10
6.6829824164
 20
6.0508171058
 11
6.6829824164
 21
5.8628171058
  0
LINE
  5
616
100
AcDbEntity
  8
0
100
AcDbLine
 62
7
  6
CONTINUOUS
 10
6.6829824164
 20
5.0669588381
 11
6.6829824164
 21
4.8789588381
  0
LINE
  5
617
100
AcDbEntity
  8
0
100
AcDbLine
 62
7
  6
CONTINUOUS
 10
6.6969592668
 20
5.1121344184
 11
6.6969592668
 21
5.8176415255
  0
LINE
  5
618
100
AcDbEntity
  8
0
100
AcDbLine
 62
7
  6
CONTINUOUS
 10
6.6969592668
 20
6.6591344184
 11
6.6969592668
 21
7.3646415255
  0
LINE
  5
619
100
AcDbEntity
  8
0
100
AcDbLine
 62
7
  6
CONTINUOUS
 10
5.3869824164
 20
4.1476988381
 11
5.4489824164
 21
4.1281688381
  0
LINE
  5
61A
100
AcDbEntity
  8
0
100
AcDbLine
 62
7
  6
CONTINUOUS
 10
6.0069546241
 20
3.9524075926
 11
6.3869824164
 21
3.8326988381
  0
LINE
  5
61B
100
AcDbEntity
  8
0
100
AcDbLine
 62
7
  6
CONTINUOUS
 10
7.1879824164
 20
3.9286988381
 11
6.8069824164
 21
4.2693162587
  0
LINE
  5
61C
100
AcDbEntity
  8
0
100
AcDbLine
 62
7
  6
CONTINUOUS
 10
6.7819824164
 20
8.4069088381
 11
6.7819824164
 21
8.6439088381
  0
LINE
  5
61D
100
AcDbEntity
  8
0
100
AcDbLine
 62
7
  6
CONTINUOUS
 10
6.7869824164
 20
4.1726988381
 11
6.7869824164
 21
4.2826988381
  0
LINE
  5
61E
100
AcDbEntity
  8
0
100
AcDbLine
 62
7
  6
CONTINUOUS
 10
6.7869824164
 20
4.3626988381
 11
6.7869824164
 21
4.3976988381
  0
LINE
  5
61F
100
AcDbEntity
  8
0
100
AcDbLine
 62
7
  6
CONTINUOUS
 10
6.8069824164
 20
4.1976988381
 11
6.8069824164
 21
4.4076988381
  0
LINE
  5
620
100
AcDbEntity
  8
0
100
AcDbLine
 62
7
  6
CONTINUOUS
 10
6.8709824164
 20
7.6080293292
 11
6.8709824164
 21
7.3993181188
  0
LINE
  5
621
100
AcDbEntity
  8
0
100
AcDbLine
 62
7
  6
CONTINUOUS
 10
6.8709824164
 20
6.6241710614
 11
6.8709824164
 21
6.415459851
  0
LINE
  5
622
100
AcDbEntity
  8
0
100
AcDbLine
 62
7
  6
CONTINUOUS
 10
6.8709824164
 20
6.0610293292
 11
6.8709824164
 21
5.8523181188
  0
LINE
  5
623
100
AcDbEntity
  8
0
100
AcDbLine
 62
7
  6
CONTINUOUS
 10
6.8709824164
 20
5.0771710614
 11
6.8709824164
 21
4.868459851
  0
LINE
  5
624
100
AcDbEntity
  8
0
100
AcDbLine
 62
7
  6
CONTINUOUS
 10
6.8869824164
 20
4.5234088381
 11
6.8869824164
 21
8.6334088381
  0
LINE
  5
625
100
AcDbEntity
  8
0
100
AcDbLine
 62
7
  6
CONTINUOUS
 10
6.8969824164
 20
4.1976988381
 11
6.8969824164
 21
4.5076988381
  0
LINE
  5
626
100
AcDbEntity
  8
0
100
AcDbLine
 62
7
  6
CONTINUOUS
 10
6.9019824164
 20
3.7386988381
 11
6.9019824164
 21
3.5786988381
  0
LINE
  5
627
100
AcDbEntity
  8
0
100
AcDbLine
 62
7
  6
CONTINUOUS
 10
6.9019824164
 20
4.2004088381
 11
6.9019824164
 21
8.6434088381
  0
LINE
  5
628
100
AcDbEntity
  8
0
100
AcDbLine
 62
7
  6
CONTINUOUS
 10
6.9219824164
 20
3.8976924605
 11
6.9219824164
 21
3.9984145875
  0
LINE
  5
629
100
AcDbEntity
  8
0
100
AcDbLine
 62
7
  6
CONTINUOUS
 10
6.9999824164
 20
3.5786988381
 11
6.9999824164
 21
3.9286988381
  0
LINE
  5
62A
100
AcDbEntity
  8
0
100
AcDbLine
 62
7
  6
CONTINUOUS
 10
7.0019824164
 20
4.1976988381
 11
7.0019824164
 21
8.6434088381
  0
LINE
  5
62B
100
AcDbEntity
  8
0
100
AcDbLine
 62
7
  6
CONTINUOUS
 10
7.0219824164
 20
4.5519588381
 11
7.0219824164
 21
4.8583879719
  0
LINE
  5
62C
100
AcDbEntity
  8
0
100
AcDbLine
 62
7
  6
CONTINUOUS
 10
7.0219824164
 20
6.0713879719
 11
7.0219824164
 21
6.4053879719
  0
LINE
  5
62D
100
AcDbEntity
  8
0
100
AcDbLine
 62
7
  6
CONTINUOUS
 10
7.0219824164
 20
7.6183879719
 11
7.0219824164
 21
8.0789588381
  0
LINE
  5
62E
100
AcDbEntity
  8
0
100
AcDbLine
 62
7
  6
CONTINUOUS
 10
6.4769824164
 20
3.6964680688
 11
6.4569824164
 21
3.5964680688
  0
LINE
  5
62F
100
AcDbEntity
  8
0
100
AcDbLine
 62
7
  6
CONTINUOUS
 10
6.9019824164
 20
3.602667342
 11
6.844838831
 21
3.605966152
  0
LINE
  5
630
100
AcDbEntity
  8
0
100
AcDbLine
 62
7
  6
CONTINUOUS
 10
6.7251486643
 20
4.4446988381
 11
6.8069824164
 21
4.4076988381
  0
LINE
  5
631
100
AcDbEntity
  8
0
100
AcDbLine
 62
7
  6
CONTINUOUS
 10
6.6929824164
 20
4.4446988381
 11
6.7869824164
 21
4.3976988381
  0
LINE
  5
632
100
AcDbEntity
  8
0
100
AcDbLine
 62
7
  6
CONTINUOUS
 10
7.8879824164
 20
4.0324988381
 11
7.8379824164
 21
4.0824988381
  0
LINE
  5
633
100
AcDbEntity
  8
0
100
AcDbLine
 62
7
  6
CONTINUOUS
 10
7.0717230463
 20
7.6183879719
 11
7.0717230463
 21
6.4053879719
  0
LINE
  5
634
100
AcDbEntity
  8
0
100
AcDbLine
 62
7
  6
CONTINUOUS
 10
7.0717230463
 20
6.0713879719
 11
7.0717230463
 21
4.8583879719
  0
LINE
  5
635
100
AcDbEntity
  8
0
100
AcDbLine
 62
7
  6
CONTINUOUS
 10
7.1056832038
 20
8.5746214365
 11
7.1056832038
 21
8.4761962396
  0
LINE
  5
636
100
AcDbEntity
  8
0
100
AcDbLine
 62
7
  6
CONTINUOUS
 10
7.1117230463
 20
7.6113136624
 11
7.1117230463
 21
7.3963206164
  0
LINE
  5
637
100
AcDbEntity
  8
0
100
AcDbLine
 62
7
  6
CONTINUOUS
 10
7.1117230463
 20
6.6274553947
 11
7.1117230463
 21
6.4124623487
  0
LINE
  5
638
100
AcDbEntity
  8
0
100
AcDbLine
 62
7
  6
CONTINUOUS
 10
7.1117230463
 20
6.0643136624
 11
7.1117230463
 21
5.8493206164
  0
LINE
  5
639
100
AcDbEntity
  8
0
100
AcDbLine
 62
7
  6
CONTINUOUS
 10
7.1117230463
 20
5.0804553947
 11
7.1117230463
 21
4.8654623487
  0
LINE
  5
63A
100
AcDbEntity
  8
0
100
AcDbLine
 62
7
  6
CONTINUOUS
 10
7.1456832038
 20
3.7499114365
 11
7.1456832038
 21
3.6514862396
  0
LINE
  5
63B
100
AcDbEntity
  8
0
100
AcDbLine
 62
7
  6
CONTINUOUS
 10
7.1829824164
 20
7.5598171058
 11
7.1829824164
 21
7.4478171058
  0
LINE
  5
63C
100
AcDbEntity
  8
0
100
AcDbLine
 62
7
  6
CONTINUOUS
 10
7.1829824164
 20
6.5759588381
 11
7.1829824164
 21
6.4639588381
  0
LINE
  5
63D
100
AcDbEntity
  8
0
100
AcDbLine
 62
7
  6
CONTINUOUS
 10
7.1829824164
 20
6.0128171058
 11
7.1829824164
 21
5.9008171058
  0
LINE
  5
63E
100
AcDbEntity
  8
0
100
AcDbLine
 62
7
  6
CONTINUOUS
 10
7.1829824164
 20
5.0289588381
 11
7.1829824164
 21
4.9169588381
  0
LINE
  5
63F
100
AcDbEntity
  8
0
100
AcDbLine
 62
7
  6
CONTINUOUS
 10
7.1879824164
 20
3.9286988381
 11
7.1879824164
 21
4.5076988381
  0
LINE
  5
640
100
AcDbEntity
  8
0
100
AcDbLine
 62
7
  6
CONTINUOUS
 10
7.2537590094
 20
8.5746214365
 11
7.2537590094
 21
8.4761962396
  0
LINE
  5
641
100
AcDbEntity
  8
0
100
AcDbLine
 62
7
  6
CONTINUOUS
 10
7.2937590094
 20
3.7499114365
 11
7.2937590094
 21
3.6514862396
  0
LINE
  5
642
100
AcDbEntity
  8
0
100
AcDbLine
 62
7
  6
CONTINUOUS
 10
6.6463745698
 20
3.5236249329
 11
6.660943197
 21
3.5964680688
  0
LINE
  5
643
100
AcDbEntity
  8
0
100
AcDbLine
 62
7
  6
CONTINUOUS
 10
6.9019824164
 20
3.5786988381
 11
6.9999824164
 21
3.5786988381
  0
LINE
  5
644
100
AcDbEntity
  8
0
100
AcDbLine
 62
7
  6
CONTINUOUS
 10
7.2937590094
 20
3.6514862396
 11
7.1456832038
 21
3.6514862396
  0
LINE
  5
645
100
AcDbEntity
  8
0
100
AcDbLine
 62
7
  6
CONTINUOUS
 10
7.1456832038
 20
3.665659468
 11
6.9999824164
 21
3.665659468
  0
LINE
  5
646
100
AcDbEntity
  8
0
100
AcDbLine
 62
7
  6
CONTINUOUS
 10
7.1456832038
 20
3.7357382081
 11
6.9999824164
 21
3.7357382081
  0
LINE
  5
647
100
AcDbEntity
  8
0
100
AcDbLine
 62
7
  6
CONTINUOUS
 10
7.2937590094
 20
3.7499114365
 11
7.1456832038
 21
3.7499114365
  0
LINE
  5
648
100
AcDbEntity
  8
0
100
AcDbLine
 62
7
  6
CONTINUOUS
 10
7.3719824164
 20
4.2446988381
 11
7.3719824164
 21
4.5076988381
  0
LINE
  5
649
100
AcDbEntity
  8
0
100
AcDbLine
 62
7
  6
CONTINUOUS
 10
7.4297624164
 20
6.5807856097
 11
7.4297624164
 21
6.4591320664
  0
LINE
  5
64A
100
AcDbEntity
  8
0
100
AcDbLine
 62
7
  6
CONTINUOUS
 10
7.4297624164
 20
5.0337856097
 11
7.4297624164
 21
4.9121320664
  0
LINE
  5
64B
100
AcDbEntity
  8
0
100
AcDbLine
 62
7
  6
CONTINUOUS
 10
7.4297624164
 20
5.8959903341
 11
7.4297624164
 21
6.0176438774
  0
LINE
  5
64C
100
AcDbEntity
  8
0
100
AcDbLine
 62
7
  6
CONTINUOUS
 10
7.4297624164
 20
7.4429903341
 11
7.4297624164
 21
7.5646438774
  0
LINE
  5
64D
100
AcDbEntity
  8
0
100
AcDbLine
 62
7
  6
CONTINUOUS
 10
7.4299592668
 20
7.6183879719
 11
7.4299592668
 21
7.5646438774
  0
LINE
  5
64E
100
AcDbEntity
  8
0
100
AcDbLine
 62
7
  6
CONTINUOUS
 10
7.4299592668
 20
6.4591320664
 11
7.4299592668
 21
6.4053879719
  0
LINE
  5
64F
100
AcDbEntity
  8
0
100
AcDbLine
 62
7
  6
CONTINUOUS
 10
7.4299592668
 20
6.0713879719
 11
7.4299592668
 21
6.0176438774
  0
LINE
  5
650
100
AcDbEntity
  8
0
100
AcDbLine
 62
7
  6
CONTINUOUS
 10
7.4299592668
 20
4.9121320664
 11
7.4299592668
 21
4.8583879719
  0
LINE
  5
651
100
AcDbEntity
  8
0
100
AcDbLine
 62
7
  6
CONTINUOUS
 10
7.4299592668
 20
5.0337856097
 11
7.4299592668
 21
5.8959903341
  0
LINE
  5
652
100
AcDbEntity
  8
0
100
AcDbLine
 62
7
  6
CONTINUOUS
 10
7.4299592668
 20
6.5807856097
 11
7.4299592668
 21
7.4429903341
  0
LINE
  5
653
100
AcDbEntity
  8
0
100
AcDbLine
 62
7
  6
CONTINUOUS
 10
5.3869824164
 20
4.2676988381
 11
5.5069824164
 21
4.4076988381
  0
LINE
  5
654
100
AcDbEntity
  8
0
100
AcDbLine
 62
7
  6
CONTINUOUS
 10
6.9999824164
 20
3.9286988381
 11
7.1879824164
 21
3.9286988381
  0
LINE
  5
655
100
AcDbEntity
  8
0
100
AcDbLine
 62
7
  6
CONTINUOUS
 10
7.1879824164
 20
3.9674988381
 11
7.8379824164
 21
3.9674988381
  0
LINE
  5
656
100
AcDbEntity
  8
0
100
AcDbLine
 62
7
  6
CONTINUOUS
 10
7.1879824164
 20
4.0824988381
 11
7.8379824164
 21
4.0824988381
  0
LINE
  5
657
100
AcDbEntity
  8
0
100
AcDbLine
 62
7
  6
CONTINUOUS
 10
7.8379824164
 20
4.0824988381
 11
7.8379824164
 21
3.9674988381
  0
LINE
  5
658
100
AcDbEntity
  8
0
100
AcDbLine
 62
7
  6
CONTINUOUS
 10
7.8879824164
 20
4.0324988381
 11
7.8879824164
 21
4.0174988381
  0
LINE
  5
659
100
AcDbEntity
  8
0
100
AcDbLine
 62
7
  6
CONTINUOUS
 10
7.1879824164
 20
4.1419588381
 11
13.3229824164
 21
4.1419588381
  0
LINE
  5
65A
100
AcDbEntity
  8
0
100
AcDbLine
 62
7
  6
CONTINUOUS
 10
7.1879824164
 20
4.1976988381
 11
6.8969824164
 21
4.1976988381
  0
LINE
  5
65B
100
AcDbEntity
  8
0
100
AcDbLine
 62
7
  6
CONTINUOUS
 10
6.8069824164
 20
4.1976988381
 11
6.7869824164
 21
4.1976988381
  0
LINE
  5
65C
100
AcDbEntity
  8
0
100
AcDbLine
 62
7
  6
CONTINUOUS
 10
7.0019824164
 20
4.2004088381
 11
6.9019824164
 21
4.2004088381
  0
LINE
  5
65D
100
AcDbEntity
  8
0
100
AcDbLine
 62
7
  6
CONTINUOUS
 10
6.1219824164
 20
4.2126988381
 11
6.5469824164
 21
4.2126988381
  0
LINE
  5
65E
100
AcDbEntity
  8
0
100
AcDbLine
 62
7
  6
CONTINUOUS
 10
7.1879824164
 20
4.2446988381
 11
7.3719824164
 21
4.2446988381
  0
LINE
  5
65F
100
AcDbEntity
  8
0
100
AcDbLine
 62
7
  6
CONTINUOUS
 10
12.9551871408
 20
4.2635257672
 11
13.7681792668
 21
4.2635257672
  0
LINE
  5
660
100
AcDbEntity
  8
0
100
AcDbLine
 62
7
  6
CONTINUOUS
 10
12.9473131251
 20
4.2792737987
 11
13.7248721802
 21
4.2792737987
  0
LINE
  5
661
100
AcDbEntity
  8
0
100
AcDbLine
 62
7
  6
CONTINUOUS
 10
6.6651486643
 20
4.4446988381
 11
6.7251486643
 21
4.4446988381
  0
LINE
  5
662
100
AcDbEntity
  8
0
100
AcDbLine
 62
7
  6
CONTINUOUS
 10
6.6319824164
 20
4.3946988381
 11
6.6651486643
 21
4.4446988381
  0
LINE
  5
663
100
AcDbEntity
  8
0
100
AcDbLine
 62
7
  6
CONTINUOUS
 10
6.7869824164
 20
4.3626988381
 11
6.1179708825
 21
4.2724294216
  0
LINE
  5
664
100
AcDbEntity
  8
0
100
AcDbLine
 62
7
  6
CONTINUOUS
 10
6.2165378314
 20
4.3501441988
 11
6.6057042711
 21
4.3756291394
  0
LINE
  5
665
100
AcDbEntity
  8
0
100
AcDbLine
 62
7
  6
CONTINUOUS
 10
5.7305469974
 20
4.3283400383
 11
6.2158843714
 21
4.3601228255
  0
LINE
  5
666
100
AcDbEntity
  8
0
100
AcDbLine
 62
7
  6
CONTINUOUS
 10
6.6050508111
 20
4.385607766
 11
6.6369824164
 21
4.3876988381
  0
LINE
  5
667
100
AcDbEntity
  8
0
100
AcDbLine
 62
7
  6
CONTINUOUS
 10
6.2175533667
 20
4.3652428308
 11
6.5917518664
 21
4.3897475813
  0
LINE
  5
668
100
AcDbEntity
  8
0
100
AcDbLine
 62
7
  6
CONTINUOUS
 10
6.8969824164
 20
4.5076988381
 11
6.6669824164
 21
4.5076988381
  0
LINE
  5
669
100
AcDbEntity
  8
0
100
AcDbLine
 62
7
  6
CONTINUOUS
 10
7.0019824164
 20
4.5076988381
 11
7.3719824164
 21
4.5076988381
  0
LINE
  5
66A
100
AcDbEntity
  8
0
100
AcDbLine
 62
7
  6
CONTINUOUS
 10
6.9019824164
 20
4.5234088381
 11
6.8869824164
 21
4.5234088381
  0
LINE
  5
66B
100
AcDbEntity
  8
0
100
AcDbLine
 62
7
  6
CONTINUOUS
 10
7.0551074164
 20
4.5519588381
 11
7.0219824164
 21
4.5519588381
  0
LINE
  5
66C
100
AcDbEntity
  8
0
100
AcDbLine
 62
7
  6
CONTINUOUS
 10
7.4299592668
 20
4.8583879719
 11
7.0019824164
 21
4.8583879719
  0
LINE
  5
66D
100
AcDbEntity
  8
0
100
AcDbLine
 62
7
  6
CONTINUOUS
 10
7.0717230463
 20
4.8654588381
 11
7.1117230463
 21
4.8654588381
  0
LINE
  5
66E
100
AcDbEntity
  8
0
100
AcDbLine
 62
7
  6
CONTINUOUS
 10
6.8709824164
 20
4.8684588381
 11
6.8869824164
 21
4.8684588381
  0
LINE
  5
66F
100
AcDbEntity
  8
0
100
AcDbLine
 62
7
  6
CONTINUOUS
 10
6.6829824164
 20
4.8789588381
 11
6.8709824164
 21
4.8789588381
  0
LINE
  5
670
100
AcDbEntity
  8
0
100
AcDbLine
 62
7
  6
CONTINUOUS
 10
7.4299592668
 20
4.9121320664
 11
7.3861356099
 21
4.9121320664
  0
LINE
  5
671
100
AcDbEntity
  8
0
100
AcDbLine
 62
7
  6
CONTINUOUS
 10
7.1117230463
 20
4.9169588381
 11
7.1829824164
 21
4.9169588381
  0
LINE
  5
672
100
AcDbEntity
  8
0
100
AcDbLine
 62
7
  6
CONTINUOUS
 10
6.6829824164
 20
4.9729588381
 11
6.8709824164
 21
4.9729588381
  0
LINE
  5
673
100
AcDbEntity
  8
0
100
AcDbLine
 62
7
  6
CONTINUOUS
 10
7.1117230463
 20
5.0289588381
 11
7.1829824164
 21
5.0289588381
  0
LINE
  5
674
100
AcDbEntity
  8
0
100
AcDbLine
 62
7
  6
CONTINUOUS
 10
7.4299592668
 20
5.0337856097
 11
7.3861356099
 21
5.0337856097
  0
LINE
  5
675
100
AcDbEntity
  8
0
100
AcDbLine
 62
7
  6
CONTINUOUS
 10
6.6829824164
 20
5.0669588381
 11
6.8709824164
 21
5.0669588381
  0
LINE
  5
676
100
AcDbEntity
  8
0
100
AcDbLine
 62
7
  6
CONTINUOUS
 10
6.8709824164
 20
5.0771710614
 11
6.8869824164
 21
5.0771710614
  0
LINE
  5
677
100
AcDbEntity
  8
0
100
AcDbLine
 62
7
  6
CONTINUOUS
 10
7.0717230463
 20
5.0804588381
 11
7.1117230463
 21
5.0804588381
  0
LINE
  5
678
100
AcDbEntity
  8
0
100
AcDbLine
 62
7
  6
CONTINUOUS
 10
6.8869824164
 20
5.1121320664
 11
6.6969592668
 21
5.1121320664
  0
LINE
  5
679
100
AcDbEntity
  8
0
100
AcDbLine
 62
7
  6
CONTINUOUS
 10
13.4217225739
 20
5.1238407278
 11
13.7681792668
 21
5.1238407278
  0
LINE
  5
67A
100
AcDbEntity
  8
0
100
AcDbLine
 62
7
  6
CONTINUOUS
 10
7.0717230463
 20
5.1479588381
 11
7.4299592668
 21
5.1479588381
  0
LINE
  5
67B
100
AcDbEntity
  8
0
100
AcDbLine
 62
7
  6
CONTINUOUS
 10
13.4217225739
 20
5.1838407278
 11
13.8429824164
 21
5.1838407278
  0
LINE
  5
67C
100
AcDbEntity
  8
0
100
AcDbLine
 62
7
  6
CONTINUOUS
 10
13.4217225739
 20
5.3038407278
 11
13.8429824164
 21
5.3038407278
  0
LINE
  5
67D
100
AcDbEntity
  8
0
100
AcDbLine
 62
7
  6
CONTINUOUS
 10
13.4217225739
 20
5.3638407278
 11
13.7681792668
 21
5.3638407278
  0
LINE
  5
67E
100
AcDbEntity
  8
0
100
AcDbLine
 62
7
  6
CONTINUOUS
 10
7.4299592668
 20
5.7818171058
 11
7.0717230463
 21
5.7818171058
  0
LINE
  5
67F
100
AcDbEntity
  8
0
100
AcDbLine
 62
7
  6
CONTINUOUS
 10
7.3350532826
 20
3.7006988381
 11
7.2937590094
 21
3.6514862396
  0
LINE
  5
680
100
AcDbEntity
  8
0
100
AcDbLine
 62
7
  6
CONTINUOUS
 10
6.8869824164
 20
5.8176438774
 11
6.6969592668
 21
5.8176438774
  0
LINE
  5
681
100
AcDbEntity
  8
0
100
AcDbLine
 62
7
  6
CONTINUOUS
 10
7.0717230463
 20
5.8493171058
 11
7.1117230463
 21
5.8493171058
  0
LINE
  5
682
100
AcDbEntity
  8
0
100
AcDbLine
 62
7
  6
CONTINUOUS
 10
6.8709824164
 20
5.8523171058
 11
6.8869824164
 21
5.8523171058
  0
LINE
  5
683
100
AcDbEntity
  8
0
100
AcDbLine
 62
7
  6
CONTINUOUS
 10
6.6829824164
 20
5.8628171058
 11
6.8709824164
 21
5.8628171058
  0
LINE
  5
684
100
AcDbEntity
  8
0
100
AcDbLine
 62
7
  6
CONTINUOUS
 10
7.4299592668
 20
5.8959903341
 11
7.3861356099
 21
5.8959903341
  0
LINE
  5
685
100
AcDbEntity
  8
0
100
AcDbLine
 62
7
  6
CONTINUOUS
 10
7.1117230463
 20
5.9008171058
 11
7.1829824164
 21
5.9008171058
  0
LINE
  5
686
100
AcDbEntity
  8
0
100
AcDbLine
 62
7
  6
CONTINUOUS
 10
6.6829824164
 20
5.9568171058
 11
6.8709824164
 21
5.9568171058
  0
LINE
  5
687
100
AcDbEntity
  8
0
100
AcDbLine
 62
7
  6
CONTINUOUS
 10
7.1117230463
 20
6.0128171058
 11
7.1829824164
 21
6.0128171058
  0
LINE
  5
688
100
AcDbEntity
  8
0
100
AcDbLine
 62
7
  6
CONTINUOUS
 10
7.4299592668
 20
6.0176438774
 11
7.3861356099
 21
6.0176438774
  0
LINE
  5
689
100
AcDbEntity
  8
0
100
AcDbLine
 62
7
  6
CONTINUOUS
 10
6.6829824164
 20
6.0508171058
 11
6.8709824164
 21
6.0508171058
  0
LINE
  5
68A
100
AcDbEntity
  8
0
100
AcDbLine
 62
7
  6
CONTINUOUS
 10
6.8709824164
 20
6.0610293292
 11
6.8869824164
 21
6.0610293292
  0
LINE
  5
68B
100
AcDbEntity
  8
0
100
AcDbLine
 62
7
  6
CONTINUOUS
 10
7.0717230463
 20
6.0643171058
 11
7.1117230463
 21
6.0643171058
  0
LINE
  5
68C
100
AcDbEntity
  8
0
100
AcDbLine
 62
7
  6
CONTINUOUS
 10
7.4299592668
 20
6.0713879719
 11
7.0019824164
 21
6.0713879719
  0
LINE
  5
68D
100
AcDbEntity
  8
0
100
AcDbLine
 62
7
  6
CONTINUOUS
 10
7.2950532826
 20
8.5254088381
 11
7.2537590094
 21
8.5746214365
  0
LINE
  5
68E
100
AcDbEntity
  8
0
100
AcDbLine
 62
7
  6
CONTINUOUS
 10
7.8879824164
 20
4.0174988381
 11
7.8379824164
 21
3.9674988381
  0
LINE
  5
68F
100
AcDbEntity
  8
0
100
AcDbLine
 62
7
  6
CONTINUOUS
 10
6.6669824164
 20
4.5076988381
 11
6.5719824164
 21
4.4646988381
  0
LINE
  5
690
100
AcDbEntity
  8
0
100
AcDbLine
 62
7
  6
CONTINUOUS
 10
12.9473131251
 20
6.208407657
 11
13.7248721802
 21
6.208407657
  0
LINE
  5
691
100
AcDbEntity
  8
0
100
AcDbLine
 62
7
  6
CONTINUOUS
 10
12.9551871408
 20
6.2241556885
 11
13.7681792668
 21
6.2241556885
  0
LINE
  5
692
100
AcDbEntity
  8
0
100
AcDbLine
 62
7
  6
CONTINUOUS
 10
7.4299592668
 20
6.4053879719
 11
7.0019824164
 21
6.4053879719
  0
LINE
  5
693
100
AcDbEntity
  8
0
100
AcDbLine
 62
7
  6
CONTINUOUS
 10
7.0717230463
 20
6.4124588381
 11
7.1117230463
 21
6.4124588381
  0
LINE
  5
694
100
AcDbEntity
  8
0
100
AcDbLine
 62
7
  6
CONTINUOUS
 10
6.8709824164
 20
6.4154588381
 11
6.8869824164
 21
6.4154588381
  0
LINE
  5
695
100
AcDbEntity
  8
0
100
AcDbLine
 62
7
  6
CONTINUOUS
 10
6.6829824164
 20
6.4259588381
 11
6.8709824164
 21
6.4259588381
  0
LINE
  5
696
100
AcDbEntity
  8
0
100
AcDbLine
 62
7
  6
CONTINUOUS
 10
7.4299592668
 20
6.4591320664
 11
7.3861356099
 21
6.4591320664
  0
LINE
  5
697
100
AcDbEntity
  8
0
100
AcDbLine
 62
7
  6
CONTINUOUS
 10
7.1117230463
 20
6.4639588381
 11
7.1829824164
 21
6.4639588381
  0
LINE
  5
698
100
AcDbEntity
  8
0
100
AcDbLine
 62
7
  6
CONTINUOUS
 10
6.6829824164
 20
6.5199588381
 11
6.8709824164
 21
6.5199588381
  0
LINE
  5
699
100
AcDbEntity
  8
0
100
AcDbLine
 62
7
  6
CONTINUOUS
 10
7.1117230463
 20
6.5759588381
 11
7.1829824164
 21
6.5759588381
  0
LINE
  5
69A
100
AcDbEntity
  8
0
100
AcDbLine
 62
7
  6
CONTINUOUS
 10
7.4299592668
 20
6.5807856097
 11
7.3861356099
 21
6.5807856097
  0
LINE
  5
69B
100
AcDbEntity
  8
0
100
AcDbLine
 62
7
  6
CONTINUOUS
 10
6.6829824164
 20
6.6139588381
 11
6.8709824164
 21
6.6139588381
  0
LINE
  5
69C
100
AcDbEntity
  8
0
100
AcDbLine
 62
7
  6
CONTINUOUS
 10
6.8709824164
 20
6.6241710614
 11
6.8869824164
 21
6.6241710614
  0
LINE
  5
69D
100
AcDbEntity
  8
0
100
AcDbLine
 62
7
  6
CONTINUOUS
 10
7.0717230463
 20
6.6274588381
 11
7.1117230463
 21
6.6274588381
  0
LINE
  5
69E
100
AcDbEntity
  8
0
100
AcDbLine
 62
7
  6
CONTINUOUS
 10
6.8869824164
 20
6.6591320664
 11
6.6969592668
 21
6.6591320664
  0
LINE
  5
69F
100
AcDbEntity
  8
0
100
AcDbLine
 62
7
  6
CONTINUOUS
 10
7.0717230463
 20
6.6949588381
 11
7.4299592668
 21
6.6949588381
  0
LINE
  5
6A0
100
AcDbEntity
  8
0
100
AcDbLine
 62
7
  6
CONTINUOUS
 10
6.5469824164
 20
4.2126988381
 11
6.7869824164
 21
4.2826988381
  0
LINE
  5
6A1
100
AcDbEntity
  8
0
100
AcDbLine
 62
7
  6
CONTINUOUS
 10
7.4299592668
 20
7.3288171058
 11
7.0717230463
 21
7.3288171058
  0
LINE
  5
6A2
100
AcDbEntity
  8
0
100
AcDbLine
 62
7
  6
CONTINUOUS
 10
6.8869824164
 20
7.3646438774
 11
6.6969592668
 21
7.3646438774
  0
LINE
  5
6A3
100
AcDbEntity
  8
0
100
AcDbLine
 62
7
  6
CONTINUOUS
 10
7.0717230463
 20
7.3963171058
 11
7.1117230463
 21
7.3963171058
  0
LINE
  5
6A4
100
AcDbEntity
  8
0
100
AcDbLine
 62
7
  6
CONTINUOUS
 10
6.8709824164
 20
7.3993171058
 11
6.8869824164
 21
7.3993171058
  0
LINE
  5
6A5
100
AcDbEntity
  8
0
100
AcDbLine
 62
7
  6
CONTINUOUS
 10
6.6829824164
 20
7.4098171058
 11
6.8709824164
 21
7.4098171058
  0
LINE
  5
6A6
100
AcDbEntity
  8
0
100
AcDbLine
 62
7
  6
CONTINUOUS
 10
7.4299592668
 20
7.4429903341
 11
7.3861356099
 21
7.4429903341
  0
LINE
  5
6A7
100
AcDbEntity
  8
0
100
AcDbLine
 62
7
  6
CONTINUOUS
 10
7.1117230463
 20
7.4478171058
 11
7.1829824164
 21
7.4478171058
  0
LINE
  5
6A8
100
AcDbEntity
  8
0
100
AcDbLine
 62
7
  6
CONTINUOUS
 10
6.6829824164
 20
7.5038171058
 11
6.8709824164
 21
7.5038171058
  0
LINE
  5
6A9
100
AcDbEntity
  8
0
100
AcDbLine
 62
7
  6
CONTINUOUS
 10
7.1117230463
 20
7.5598171058
 11
7.1829824164
 21
7.5598171058
  0
LINE
  5
6AA
100
AcDbEntity
  8
0
100
AcDbLine
 62
7
  6
CONTINUOUS
 10
7.4299592668
 20
7.5646438774
 11
7.3861356099
 21
7.5646438774
  0
LINE
  5
6AB
100
AcDbEntity
  8
0
100
AcDbLine
 62
7
  6
CONTINUOUS
 10
6.6829824164
 20
7.5978171058
 11
6.8709824164
 21
7.5978171058
  0
LINE
  5
6AC
100
AcDbEntity
  8
0
100
AcDbLine
 62
7
  6
CONTINUOUS
 10
6.8709824164
 20
7.6080293292
 11
6.8869824164
 21
7.6080293292
  0
LINE
  5
6AD
100
AcDbEntity
  8
0
100
AcDbLine
 62
7
  6
CONTINUOUS
 10
7.0717230463
 20
7.6113171058
 11
7.1117230463
 21
7.6113171058
  0
LINE
  5
6AE
100
AcDbEntity
  8
0
100
AcDbLine
 62
7
  6
CONTINUOUS
 10
7.4299592668
 20
7.6183879719
 11
7.0019824164
 21
7.6183879719
  0
LINE
  5
6AF
100
AcDbEntity
  8
0
100
AcDbLine
 62
7
  6
CONTINUOUS
 10
13.3229824164
 20
8.0789588381
 11
7.0219824164
 21
8.0789588381
  0
LINE
  5
6B0
100
AcDbEntity
  8
0
100
AcDbLine
 62
7
  6
CONTINUOUS
 10
13.8941635188
 20
5.2635257672
 11
13.8429824164
 21
5.3038407278
  0
LINE
  5
6B1
100
AcDbEntity
  8
0
100
AcDbLine
 62
7
  6
CONTINUOUS
 10
6.8869824164
 20
8.4069088381
 11
6.7819824164
 21
8.4069088381
  0
LINE
  5
6B2
100
AcDbEntity
  8
0
100
AcDbLine
 62
7
  6
CONTINUOUS
 10
7.2537590094
 20
8.4761962396
 11
7.1056832038
 21
8.4761962396
  0
LINE
  5
6B3
100
AcDbEntity
  8
0
100
AcDbLine
 62
7
  6
CONTINUOUS
 10
7.1056832038
 20
8.490369468
 11
7.0019824164
 21
8.490369468
  0
LINE
  5
6B4
100
AcDbEntity
  8
0
100
AcDbLine
 62
7
  6
CONTINUOUS
 10
6.7799124764
 20
8.5116293105
 11
6.7819824164
 21
8.5116293105
  0
LINE
  5
6B5
100
AcDbEntity
  8
0
100
AcDbLine
 62
7
  6
CONTINUOUS
 10
6.7819824164
 20
8.5391883656
 11
6.7799124764
 21
8.5391883656
  0
LINE
  5
6B6
100
AcDbEntity
  8
0
100
AcDbLine
 62
7
  6
CONTINUOUS
 10
7.1056832038
 20
8.5604482081
 11
7.0019824164
 21
8.5604482081
  0
LINE
  5
6B7
100
AcDbEntity
  8
0
100
AcDbLine
 62
7
  6
CONTINUOUS
 10
7.2537590094
 20
8.5746214365
 11
7.1056832038
 21
8.5746214365
  0
LINE
  5
6B8
100
AcDbEntity
  8
0
100
AcDbLine
 62
7
  6
CONTINUOUS
 10
6.9019824164
 20
8.6334088381
 11
6.8869824164
 21
8.6334088381
  0
LINE
  5
6B9
100
AcDbEntity
  8
0
100
AcDbLine
 62
7
  6
CONTINUOUS
 10
7.0019824164
 20
8.6434088381
 11
6.9019824164
 21
8.6434088381
  0
LINE
  5
6BA
100
AcDbEntity
  8
0
100
AcDbLine
 62
7
  6
CONTINUOUS
 10
6.9019824164
 20
8.6439088381
 11
6.7819824164
 21
8.6439088381
  0
LINE
  5
6BB
100
AcDbEntity
  8
0
100
AcDbLine
 62
7
  6
CONTINUOUS
 10
12.9473131251
 20
4.2792737987
 11
12.9473131251
 21
6.208407657
  0
LINE
  5
6BC
100
AcDbEntity
  8
0
100
AcDbLine
 62
7
  6
CONTINUOUS
 10
12.9551871408
 20
4.2635257672
 11
12.9551871408
 21
4.2792737987
  0
LINE
  5
6BD
100
AcDbEntity
  8
0
100
AcDbLine
 62
7
  6
CONTINUOUS
 10
12.9551871408
 20
6.208407657
 11
12.9551871408
 21
6.2241556885
  0
LINE
  5
6BE
100
AcDbEntity
  8
0
100
AcDbLine
 62
7
  6
CONTINUOUS
 10
13.8941635188
 20
5.2241556885
 11
13.8429824164
 21
5.1838407278
  0
LINE
  5
6BF
100
AcDbEntity
  8
0
100
AcDbLine
 62
7
  6
CONTINUOUS
 10
13.4019824164
 20
4.2209588381
 11
13.4019824164
 21
4.2635257672
  0
LINE
  5
6C0
100
AcDbEntity
  8
0
100
AcDbLine
 62
7
  6
CONTINUOUS
 10
13.4019824164
 20
6.2241556885
 11
13.4019824164
 21
7.9999588381
  0
LINE
  5
6C1
100
AcDbEntity
  8
0
100
AcDbLine
 62
7
  6
CONTINUOUS
 10
13.4217225739
 20
5.1238407278
 11
13.4217225739
 21
5.3638407278
  0
LINE
  5
6C2
100
AcDbEntity
  8
0
100
AcDbLine
 62
7
  6
CONTINUOUS
 10
13.4019824164
 20
4.2209588381
 11
13.3229824164
 21
4.1419588381
  0
LINE
  5
6C3
100
AcDbEntity
  8
0
100
AcDbLine
 62
7
  6
CONTINUOUS
 10
13.6717225739
 20
5.1838407278
 11
13.6717225739
 21
5.3038407278
  0
LINE
  5
6C4
100
AcDbEntity
  8
0
100
AcDbLine
 62
7
  6
CONTINUOUS
 10
13.6887225739
 20
5.1838407278
 11
13.6887225739
 21
5.3038407278
  0
LINE
  5
6C5
100
AcDbEntity
  8
0
100
AcDbLine
 62
7
  6
CONTINUOUS
 10
13.7248721802
 20
4.2792737987
 11
13.7248721802
 21
5.1238407278
  0
LINE
  5
6C6
100
AcDbEntity
  8
0
100
AcDbLine
 62
7
  6
CONTINUOUS
 10
13.7248721802
 20
5.3638407278
 11
13.7248721802
 21
6.208407657
  0
LINE
  5
6C7
100
AcDbEntity
  8
0
100
AcDbLine
 62
7
  6
CONTINUOUS
 10
13.7327461959
 20
4.2635257672
 11
13.7327461959
 21
5.1238407278
  0
LINE
  5
6C8
100
AcDbEntity
  8
0
100
AcDbLine
 62
7
  6
CONTINUOUS
 10
13.7327461959
 20
5.3638407278
 11
13.7327461959
 21
6.2241556885
  0
LINE
  5
6C9
100
AcDbEntity
  8
0
100
AcDbLine
 62
7
  6
CONTINUOUS
 10
13.7481792668
 20
4.2635257672
 11
13.7481792668
 21
5.1238407278
  0
LINE
  5
6CA
100
AcDbEntity
  8
0
100
AcDbLine
 62
7
  6
CONTINUOUS
 10
13.7481792668
 20
5.3638407278
 11
13.7481792668
 21
6.2241556885
  0
LINE
  5
6CB
100
AcDbEntity
  8
0
100
AcDbLine
 62
7
  6
CONTINUOUS
 10
13.7681792668
 20
4.2635257672
 11
13.7681792668
 21
5.1838407278
  0
LINE
  5
6CC
100
AcDbEntity
  8
0
100
AcDbLine
 62
7
  6
CONTINUOUS
 10
13.7681792668
 20
5.3038407278
 11
13.7681792668
 21
6.2241556885
  0
LINE
  5
6CD
100
AcDbEntity
  8
0
100
AcDbLine
 62
7
  6
CONTINUOUS
 10
13.7971635188
 20
5.1838407278
 11
13.7971635188
 21
5.3038407278
  0
LINE
  5
6CE
100
AcDbEntity
  8
0
100
AcDbLine
 62
7
  6
CONTINUOUS
 10
13.8941635188
 20
5.2241556885
 11
13.8941635188
 21
5.2635257672
  0
LINE
  5
6CF
100
AcDbEntity
  8
0
100
AcDbLine
 62
7
  6
CONTINUOUS
 10
13.3229824164
 20
8.0789588381
 11
13.4019824164
 21
7.9999588381
  0
CIRCLE
  5
6D0
100
AcDbEntity
  8
0
100
AcDbCircle
 62
7
  6
CONTINUOUS
 10
11.8647879778
 20
0.6418595933
 40
0.2171153234
  0
CIRCLE
  5
6D1
100
AcDbEntity
  8
0
100
AcDbCircle
 62
7
  6
CONTINUOUS
 10
11.8642255163
 20
0.6411685692
 40
0.1050049063
  0
CIRCLE
  5
6D2
100
AcDbEntity
  8
0
100
AcDbCircle
 62
2
  6
CONTINUOUS
 10
0.9659258599
 20
10.6561893149
 40
0.040272
  0
ARC
  5
6D3
100
AcDbEntity
  8
0
100
AcDbCircle
 62
7
  6
CONTINUOUS
 10
3.359835553
 20
5.2066558581
 40
0.15
100
AcDbArc
 50
180.0
 51
254.7320573143
  0
ARC
  5
6D4
100
AcDbEntity
  8
0
100
AcDbCircle
 62
7
  6
CONTINUOUS
 10
3.359835553
 20
5.7436558581
 40
0.15
100
AcDbArc
 50
105.2679426857
 51
180.0
  0
ARC
  5
6D5
100
AcDbEntity
  8
0
100
AcDbCircle
 62
7
  6
CONTINUOUS
 10
3.3361426396
 20
5.2369979072
 40
0.125
100
AcDbArc
 50
180.0
 51
260.0
  0
ARC
  5
6D6
100
AcDbEntity
  8
0
100
AcDbCircle
 62
7
  6
CONTINUOUS
 10
3.3361426396
 20
5.7228197689
 40
0.125
100
AcDbArc
 50
100.0
 51
180.0
  0
ARC
  5
6D7
100
AcDbEntity
  8
0
100
AcDbCircle
 62
7
  6
CONTINUOUS
 10
3.3276426396
 20
3.7006988381
 40
0.109
100
AcDbArc
 50
116.7142570434
 51
159.5968330883
  0
CIRCLE
  5
6D8
100
AcDbEntity
  8
0
100
AcDbCircle
 62
7
  6
CONTINUOUS
 10
3.3276426396
 20
3.7006988381
 40
0.0980314961
  0
ARC
  5
6D9
100
AcDbEntity
  8
0
100
AcDbCircle
 62
7
  6
CONTINUOUS
 10
3.3276426396
 20
3.7006988381
 40
0.0956450842
100
AcDbArc
 50
171.7166074907
 51
188.2833925093
  0
ARC
  5
6DA
100
AcDbEntity
  8
0
100
AcDbCircle
 62
7
  6
CONTINUOUS
 10
3.3276426396
 20
3.7006988381
 40
0.0956450842
100
AcDbArc
 50
351.7166074907
 51
8.2833925093
  0
ARC
  5
6DB
100
AcDbEntity
  8
0
100
AcDbCircle
 62
7
  6
CONTINUOUS
 10
3.3104457892
 20
5.2153383498
 40
0.0590551181
100
AcDbArc
 50
180.0
 51
260.0
  0
ARC
  5
6DC
100
AcDbEntity
  8
0
100
AcDbCircle
 62
7
  6
CONTINUOUS
 10
3.3104457892
 20
5.7144375941
 40
0.0590551181
100
AcDbArc
 50
100.0
 51
180.0
  0
ARC
  5
6DD
100
AcDbEntity
  8
0
100
AcDbCircle
 62
7
  6
CONTINUOUS
 10
3.3104457892
 20
5.7144375941
 40
0.0393700787
100
AcDbArc
 50
100.0
 51
180.0
  0
ARC
  5
6DE
100
AcDbEntity
  8
0
100
AcDbCircle
 62
7
  6
CONTINUOUS
 10
3.3104457892
 20
5.2153383498
 40
0.0393700787
100
AcDbArc
 50
180.0
 51
260.0
  0
CIRCLE
  5
6DF
100
AcDbEntity
  8
0
100
AcDbCircle
 62
7
  6
CONTINUOUS
 10
3.3797371278
 20
5.6266989955
 40
0.0204724409
  0
CIRCLE
  5
6E0
100
AcDbEntity
  8
0
100
AcDbCircle
 62
7
  6
CONTINUOUS
 10
3.3797371278
 20
5.5188249798
 40
0.0204724409
  0
CIRCLE
  5
6E1
100
AcDbEntity
  8
0
100
AcDbCircle
 62
7
  6
CONTINUOUS
 10
3.3797371278
 20
5.4109509641
 40
0.0204724409
  0
CIRCLE
  5
6E2
100
AcDbEntity
  8
0
100
AcDbCircle
 62
7
  6
CONTINUOUS
 10
3.3797371278
 20
5.3030769483
 40
0.0204724409
  0
ARC
  5
6E3
100
AcDbEntity
  8
0
100
AcDbCircle
 62
7
  6
CONTINUOUS
 10
3.0636426396
 20
4.5434088381
 40
0.02
100
AcDbArc
 50
180.0
 51
270.0
  0
ARC
  5
6E4
100
AcDbEntity
  8
0
100
AcDbCircle
 62
7
  6
CONTINUOUS
 10
3.3276426396
 20
8.5254088381
 40
0.175
100
AcDbArc
 50
310.5358021113
 51
38.1077896444
  0
ARC
  5
6E5
100
AcDbEntity
  8
0
100
AcDbCircle
 62
7
  6
CONTINUOUS
 10
3.3276426396
 20
8.5254088381
 40
0.175
100
AcDbArc
 50
141.8922103556
 51
229.4641978887
  0
ARC
  5
6E6
100
AcDbEntity
  8
0
100
AcDbCircle
 62
7
  6
CONTINUOUS
 10
3.3276426396
 20
8.5254088381
 40
0.1575
100
AcDbArc
 50
131.2029536038
 51
228.7970463962
  0
ARC
  5
6E7
100
AcDbEntity
  8
0
100
AcDbCircle
 62
7
  6
CONTINUOUS
 10
3.3276426396
 20
8.5254088381
 40
0.1575
100
AcDbArc
 50
311.2029536038
 51
48.7970463962
  0
ARC
  5
6E8
100
AcDbEntity
  8
0
100
AcDbCircle
 62
7
  6
CONTINUOUS
 10
3.359835553
 20
6.7533051632
 40
0.15
100
AcDbArc
 50
180.0
 51
254.7320573143
  0
ARC
  5
6E9
100
AcDbEntity
  8
0
100
AcDbCircle
 62
7
  6
CONTINUOUS
 10
3.359835553
 20
7.2903051632
 40
0.15
100
AcDbArc
 50
105.2679426857
 51
180.0
  0
ARC
  5
6EA
100
AcDbEntity
  8
0
100
AcDbCircle
 62
7
  6
CONTINUOUS
 10
3.3361426396
 20
7.2694690741
 40
0.125
100
AcDbArc
 50
100.0
 51
180.0
  0
ARC
  5
6EB
100
AcDbEntity
  8
0
100
AcDbCircle
 62
7
  6
CONTINUOUS
 10
3.3361426396
 20
6.7836472124
 40
0.125
100
AcDbArc
 50
180.0
 51
260.0
  0
CIRCLE
  5
6EC
100
AcDbEntity
  8
0
100
AcDbCircle
 62
7
  6
CONTINUOUS
 10
3.3276426396
 20
8.5254088381
 40
0.1025
  0
CIRCLE
  5
6ED
100
AcDbEntity
  8
0
100
AcDbCircle
 62
7
  6
CONTINUOUS
 10
3.3276426396
 20
8.5254088381
 40
0.0980314961
  0
ARC
  5
6EE
100
AcDbEntity
  8
0
100
AcDbCircle
 62
7
  6
CONTINUOUS
 10
3.3276426396
 20
8.5254088381
 40
0.0956450842
100
AcDbArc
 50
171.7166074907
 51
188.2833925093
  0
ARC
  5
6EF
100
AcDbEntity
  8
0
100
AcDbCircle
 62
7
  6
CONTINUOUS
 10
3.3276426396
 20
8.5254088381
 40
0.0956450842
100
AcDbArc
 50
351.7166074907
 51
8.2833925093
  0
ARC
  5
6F0
100
AcDbEntity
  8
0
100
AcDbCircle
 62
7
  6
CONTINUOUS
 10
3.3104457892
 20
6.7623383498
 40
0.0590551181
100
AcDbArc
 50
180.0
 51
260.0
  0
ARC
  5
6F1
100
AcDbEntity
  8
0
100
AcDbCircle
 62
7
  6
CONTINUOUS
 10
3.3104457892
 20
7.2614375941
 40
0.0590551181
100
AcDbArc
 50
100.0
 51
180.0
  0
ARC
  5
6F2
100
AcDbEntity
  8
0
100
AcDbCircle
 62
7
  6
CONTINUOUS
 10
3.3104457892
 20
7.2614375941
 40
0.0393700787
100
AcDbArc
 50
100.0
 51
180.0
  0
ARC
  5
6F3
100
AcDbEntity
  8
0
100
AcDbCircle
 62
7
  6
CONTINUOUS
 10
3.3104457892
 20
6.7623383498
 40
0.0393700787
100
AcDbArc
 50
180.0
 51
260.0
  0
CIRCLE
  5
6F4
100
AcDbEntity
  8
0
100
AcDbCircle
 62
7
  6
CONTINUOUS
 10
3.3797371278
 20
7.1736989955
 40
0.0204724409
  0
CIRCLE
  5
6F5
100
AcDbEntity
  8
0
100
AcDbCircle
 62
7
  6
CONTINUOUS
 10
3.3797371278
 20
7.0658249798
 40
0.0204724409
  0
CIRCLE
  5
6F6
100
AcDbEntity
  8
0
100
AcDbCircle
 62
7
  6
CONTINUOUS
 10
3.3797371278
 20
6.9579509641
 40
0.0204724409
  0
CIRCLE
  5
6F7
100
AcDbEntity
  8
0
100
AcDbCircle
 62
7
  6
CONTINUOUS
 10
3.3797371278
 20
6.8500769483
 40
0.0204724409
  0
ARC
  5
6F8
100
AcDbEntity
  8
0
100
AcDbCircle
 62
7
  6
CONTINUOUS
 10
3.0636426396
 20
8.6134088381
 40
0.02
100
AcDbArc
 50
90.0
 51
180.0
  0
ARC
  5
6F9
100
AcDbEntity
  8
0
100
AcDbCircle
 62
7
  6
CONTINUOUS
 10
3.530835553
 20
5.2066558581
 40
0.15
100
AcDbArc
 50
285.2679426857
 51
360.0
  0
ARC
  5
6FA
100
AcDbEntity
  8
0
100
AcDbCircle
 62
7
  6
CONTINUOUS
 10
3.445335553
 20
4.9805033263
 40
0.125
100
AcDbArc
 50
180.0
 51
360.0
  0
ARC
  5
6FB
100
AcDbEntity
  8
0
100
AcDbCircle
 62
7
  6
CONTINUOUS
 10
3.5351426396
 20
5.2019088381
 40
0.125
100
AcDbArc
 50
260.0
 51
360.0
  0
ARC
  5
6FC
100
AcDbEntity
  8
0
100
AcDbCircle
 62
7
  6
CONTINUOUS
 10
3.4356426396
 20
4.9729588381
 40
0.1045
100
AcDbArc
 50
64.3819573739
 51
85.7468866183
  0
ARC
  5
6FD
100
AcDbEntity
  8
0
100
AcDbCircle
 62
7
  6
CONTINUOUS
 10
3.4356426396
 20
4.9729588381
 40
0.1045
100
AcDbArc
 50
4.1107261739
 51
55.64293846
  0
ARC
  5
6FE
100
AcDbEntity
  8
0
100
AcDbCircle
 62
7
  6
CONTINUOUS
 10
3.4356426396
 20
4.9729588381
 40
0.1045
100
AcDbArc
 50
304.3480850177
 51
355.895216017
  0
ARC
  5
6FF
100
AcDbEntity
  8
0
100
AcDbCircle
 62
7
  6
CONTINUOUS
 10
3.4356426396
 20
4.9729588381
 40
0.1045
100
AcDbArc
 50
244.3755877685
 51
295.6244122315
  0
ARC
  5
700
100
AcDbEntity
  8
0
100
AcDbCircle
 62
7
  6
CONTINUOUS
 10
3.4356426396
 20
4.9729588381
 40
0.1045
100
AcDbArc
 50
184.104783983
 51
235.6519149823
  0
ARC
  5
701
100
AcDbEntity
  8
0
100
AcDbCircle
 62
7
  6
CONTINUOUS
 10
3.4356426396
 20
4.9729588381
 40
0.1045
100
AcDbArc
 50
124.35706154
 51
175.8892738261
  0
ARC
  5
702
100
AcDbEntity
  8
0
100
AcDbCircle
 62
7
  6
CONTINUOUS
 10
3.4356426396
 20
4.9729588381
 40
0.1045
100
AcDbArc
 50
94.2531133817
 51
115.6180426261
  0
ARC
  5
703
100
AcDbEntity
  8
0
100
AcDbCircle
 62
7
  6
CONTINUOUS
 10
3.56083949
 20
5.1711871845
 40
0.0590551181
100
AcDbArc
 50
260.0
 51
360.0
  0
CIRCLE
  5
704
100
AcDbEntity
  8
0
100
AcDbCircle
 62
7
  6
CONTINUOUS
 10
3.4356426396
 20
4.9729588381
 40
0.056
  0
ARC
  5
705
100
AcDbEntity
  8
0
100
AcDbCircle
 62
7
  6
CONTINUOUS
 10
3.56083949
 20
5.1711871845
 40
0.0393700787
100
AcDbArc
 50
260.0
 51
360.0
  0
CIRCLE
  5
706
100
AcDbEntity
  8
0
100
AcDbCircle
 62
7
  6
CONTINUOUS
 10
3.4915481514
 20
5.2491399404
 40
0.0204724409
  0
ARC
  5
707
100
AcDbEntity
  8
0
100
AcDbCircle
 62
7
  6
CONTINUOUS
 10
3.530835553
 20
5.7436558581
 40
0.15
100
AcDbArc
 50
0.0
 51
74.7320573143
  0
ARC
  5
708
100
AcDbEntity
  8
0
100
AcDbCircle
 62
7
  6
CONTINUOUS
 10
3.445335553
 20
5.964361594
 40
0.125
100
AcDbArc
 50
0.0
 51
180.0
  0
ARC
  5
709
100
AcDbEntity
  8
0
100
AcDbCircle
 62
7
  6
CONTINUOUS
 10
3.5351426396
 20
5.7579088381
 40
0.125
100
AcDbArc
 50
0.0
 51
100.0
  0
ARC
  5
70A
100
AcDbEntity
  8
0
100
AcDbCircle
 62
7
  6
CONTINUOUS
 10
3.4356426396
 20
5.9568171058
 40
0.1045
100
AcDbArc
 50
64.3819573739
 51
85.7468866183
  0
ARC
  5
70B
100
AcDbEntity
  8
0
100
AcDbCircle
 62
7
  6
CONTINUOUS
 10
3.4356426396
 20
5.9568171058
 40
0.1045
100
AcDbArc
 50
4.1107261739
 51
55.64293846
  0
ARC
  5
70C
100
AcDbEntity
  8
0
100
AcDbCircle
 62
7
  6
CONTINUOUS
 10
3.4356426396
 20
5.9568171058
 40
0.1045
100
AcDbArc
 50
304.3480850177
 51
355.895216017
  0
ARC
  5
70D
100
AcDbEntity
  8
0
100
AcDbCircle
 62
7
  6
CONTINUOUS
 10
3.4356426396
 20
5.9568171058
 40
0.1045
100
AcDbArc
 50
244.3755877685
 51
295.6244122315
  0
ARC
  5
70E
100
AcDbEntity
  8
0
100
AcDbCircle
 62
7
  6
CONTINUOUS
 10
3.4356426396
 20
5.9568171058
 40
0.1045
100
AcDbArc
 50
184.104783983
 51
235.6519149823
  0
ARC
  5
70F
100
AcDbEntity
  8
0
100
AcDbCircle
 62
7
  6
CONTINUOUS
 10
3.4356426396
 20
5.9568171058
 40
0.1045
100
AcDbArc
 50
124.35706154
 51
175.8892738261
  0
ARC
  5
710
100
AcDbEntity
  8
0
100
AcDbCircle
 62
7
  6
CONTINUOUS
 10
3.4356426396
 20
5.9568171058
 40
0.1045
100
AcDbArc
 50
94.2531133817
 51
115.6180426261
  0
ARC
  5
711
100
AcDbEntity
  8
0
100
AcDbCircle
 62
7
  6
CONTINUOUS
 10
3.56083949
 20
5.7585887593
 40
0.0590551181
100
AcDbArc
 50
0.0
 51
100.0
  0
CIRCLE
  5
712
100
AcDbEntity
  8
0
100
AcDbCircle
 62
7
  6
CONTINUOUS
 10
3.4356426396
 20
5.9568171058
 40
0.056
  0
ARC
  5
713
100
AcDbEntity
  8
0
100
AcDbCircle
 62
7
  6
CONTINUOUS
 10
3.56083949
 20
5.7585887593
 40
0.0393700787
100
AcDbArc
 50
0.0
 51
100.0
  0
CIRCLE
  5
714
100
AcDbEntity
  8
0
100
AcDbCircle
 62
7
  6
CONTINUOUS
 10
3.4915481514
 20
5.6806360034
 40
0.0204724409
  0
CIRCLE
  5
715
100
AcDbEntity
  8
0
100
AcDbCircle
 62
7
  6
CONTINUOUS
 10
3.4915481514
 20
5.5727619877
 40
0.0204724409
  0
CIRCLE
  5
716
100
AcDbEntity
  8
0
100
AcDbCircle
 62
7
  6
CONTINUOUS
 10
3.4915481514
 20
5.3570139562
 40
0.0204724409
  0
CIRCLE
  5
717
100
AcDbEntity
  8
0
100
AcDbCircle
 62
7
  6
CONTINUOUS
 10
3.4915481514
 20
5.4648879719
 40
0.0204724409
  0
ARC
  5
718
100
AcDbEntity
  8
0
100
AcDbCircle
 62
7
  6
CONTINUOUS
 10
3.7916426396
 20
4.5434088381
 40
0.02
100
AcDbArc
 50
270.0
 51
360.0
  0
ARC
  5
719
100
AcDbEntity
  8
0
100
AcDbCircle
 62
7
  6
CONTINUOUS
 10
3.445335553
 20
6.5271526314
 40
0.125
100
AcDbArc
 50
180.0
 51
360.0
  0
ARC
  5
71A
100
AcDbEntity
  8
0
100
AcDbCircle
 62
7
  6
CONTINUOUS
 10
3.4356426396
 20
6.5199588381
 40
0.1045
100
AcDbArc
 50
64.3819573739
 51
85.7468866183
  0
ARC
  5
71B
100
AcDbEntity
  8
0
100
AcDbCircle
 62
7
  6
CONTINUOUS
 10
3.4356426396
 20
6.5199588381
 40
0.1045
100
AcDbArc
 50
4.1107261739
 51
55.64293846
  0
ARC
  5
71C
100
AcDbEntity
  8
0
100
AcDbCircle
 62
7
  6
CONTINUOUS
 10
3.4356426396
 20
6.5199588381
 40
0.1045
100
AcDbArc
 50
304.3480850177
 51
355.895216017
  0
ARC
  5
71D
100
AcDbEntity
  8
0
100
AcDbCircle
 62
7
  6
CONTINUOUS
 10
3.4356426396
 20
6.5199588381
 40
0.1045
100
AcDbArc
 50
244.3755877685
 51
295.6244122315
  0
ARC
  5
71E
100
AcDbEntity
  8
0
100
AcDbCircle
 62
7
  6
CONTINUOUS
 10
3.4356426396
 20
6.5199588381
 40
0.1045
100
AcDbArc
 50
184.104783983
 51
235.6519149823
  0
ARC
  5
71F
100
AcDbEntity
  8
0
100
AcDbCircle
 62
7
  6
CONTINUOUS
 10
3.4356426396
 20
6.5199588381
 40
0.1045
100
AcDbArc
 50
124.35706154
 51
175.8892738261
  0
ARC
  5
720
100
AcDbEntity
  8
0
100
AcDbCircle
 62
7
  6
CONTINUOUS
 10
3.4356426396
 20
6.5199588381
 40
0.1045
100
AcDbArc
 50
94.2531133817
 51
115.6180426261
  0
CIRCLE
  5
721
100
AcDbEntity
  8
0
100
AcDbCircle
 62
7
  6
CONTINUOUS
 10
3.4356426396
 20
6.5199588381
 40
0.056
  0
CIRCLE
  5
722
100
AcDbEntity
  8
0
100
AcDbCircle
 62
7
  6
CONTINUOUS
 10
3.4915481514
 20
6.9040139562
 40
0.0204724409
  0
CIRCLE
  5
723
100
AcDbEntity
  8
0
100
AcDbCircle
 62
7
  6
CONTINUOUS
 10
3.4915481514
 20
6.7961399404
 40
0.0204724409
  0
CIRCLE
  5
724
100
AcDbEntity
  8
0
100
AcDbCircle
 62
7
  6
CONTINUOUS
 10
3.4915481514
 20
7.0118879719
 40
0.0204724409
  0
ARC
  5
725
100
AcDbEntity
  8
0
100
AcDbCircle
 62
7
  6
CONTINUOUS
 10
3.445335553
 20
7.5110108991
 40
0.125
100
AcDbArc
 50
0.0
 51
180.0
  0
ARC
  5
726
100
AcDbEntity
  8
0
100
AcDbCircle
 62
7
  6
CONTINUOUS
 10
3.4356426396
 20
7.5038171058
 40
0.1045
100
AcDbArc
 50
64.3819573739
 51
85.7468866183
  0
ARC
  5
727
100
AcDbEntity
  8
0
100
AcDbCircle
 62
7
  6
CONTINUOUS
 10
3.4356426396
 20
7.5038171058
 40
0.1045
100
AcDbArc
 50
4.1107261739
 51
55.64293846
  0
ARC
  5
728
100
AcDbEntity
  8
0
100
AcDbCircle
 62
7
  6
CONTINUOUS
 10
3.4356426396
 20
7.5038171058
 40
0.1045
100
AcDbArc
 50
304.3480850177
 51
355.895216017
  0
ARC
  5
729
100
AcDbEntity
  8
0
100
AcDbCircle
 62
7
  6
CONTINUOUS
 10
3.4356426396
 20
7.5038171058
 40
0.1045
100
AcDbArc
 50
244.3755877685
 51
295.6244122315
  0
ARC
  5
72A
100
AcDbEntity
  8
0
100
AcDbCircle
 62
7
  6
CONTINUOUS
 10
3.4356426396
 20
7.5038171058
 40
0.1045
100
AcDbArc
 50
184.104783983
 51
235.6519149823
  0
ARC
  5
72B
100
AcDbEntity
  8
0
100
AcDbCircle
 62
7
  6
CONTINUOUS
 10
3.4356426396
 20
7.5038171058
 40
0.1045
100
AcDbArc
 50
124.35706154
 51
175.8892738261
  0
ARC
  5
72C
100
AcDbEntity
  8
0
100
AcDbCircle
 62
7
  6
CONTINUOUS
 10
3.4356426396
 20
7.5038171058
 40
0.1045
100
AcDbArc
 50
94.2531133817
 51
115.6180426261
  0
CIRCLE
  5
72D
100
AcDbEntity
  8
0
100
AcDbCircle
 62
7
  6
CONTINUOUS
 10
3.4356426396
 20
7.5038171058
 40
0.056
  0
CIRCLE
  5
72E
100
AcDbEntity
  8
0
100
AcDbCircle
 62
7
  6
CONTINUOUS
 10
3.4915481514
 20
7.2276360034
 40
0.0204724409
  0
CIRCLE
  5
72F
100
AcDbEntity
  8
0
100
AcDbCircle
 62
7
  6
CONTINUOUS
 10
3.4915481514
 20
7.1197619877
 40
0.0204724409
  0
ARC
  5
730
100
AcDbEntity
  8
0
100
AcDbCircle
 62
7
  6
CONTINUOUS
 10
3.530835553
 20
6.7533051632
 40
0.15
100
AcDbArc
 50
285.2679426857
 51
360.0
  0
ARC
  5
731
100
AcDbEntity
  8
0
100
AcDbCircle
 62
7
  6
CONTINUOUS
 10
3.5351426396
 20
6.7485581432
 40
0.125
100
AcDbArc
 50
260.0
 51
360.0
  0
ARC
  5
732
100
AcDbEntity
  8
0
100
AcDbCircle
 62
7
  6
CONTINUOUS
 10
3.56083949
 20
6.7181871845
 40
0.0590551181
100
AcDbArc
 50
260.0
 51
360.0
  0
ARC
  5
733
100
AcDbEntity
  8
0
100
AcDbCircle
 62
7
  6
CONTINUOUS
 10
3.56083949
 20
6.7181871845
 40
0.0393700787
100
AcDbArc
 50
260.0
 51
360.0
  0
ARC
  5
734
100
AcDbEntity
  8
0
100
AcDbCircle
 62
7
  6
CONTINUOUS
 10
3.530835553
 20
7.2903051632
 40
0.15
100
AcDbArc
 50
0.0
 51
74.7320573143
  0
ARC
  5
735
100
AcDbEntity
  8
0
100
AcDbCircle
 62
7
  6
CONTINUOUS
 10
3.5351426396
 20
7.3045581432
 40
0.125
100
AcDbArc
 50
0.0
 51
100.0
  0
ARC
  5
736
100
AcDbEntity
  8
0
100
AcDbCircle
 62
7
  6
CONTINUOUS
 10
3.56083949
 20
7.3055887593
 40
0.0590551181
100
AcDbArc
 50
0.0
 51
100.0
  0
ARC
  5
737
100
AcDbEntity
  8
0
100
AcDbCircle
 62
7
  6
CONTINUOUS
 10
3.56083949
 20
7.3055887593
 40
0.0393700787
100
AcDbArc
 50
0.0
 51
100.0
  0
ARC
  5
738
100
AcDbEntity
  8
0
100
AcDbCircle
 62
7
  6
CONTINUOUS
 10
3.7916426396
 20
8.6134088381
 40
0.02
100
AcDbArc
 50
0.0
 51
90.0
  0
ARC
  5
739
100
AcDbEntity
  8
0
100
AcDbCircle
 62
7
  6
CONTINUOUS
 10
5.1256509164
 20
2.1281688381
 40
2.0259672403
100
AcDbArc
 50
64.2144561714
 51
80.8166891821
  0
ARC
  5
73A
100
AcDbEntity
  8
0
100
AcDbCircle
 62
7
  6
CONTINUOUS
 10
6.4719824164
 20
3.8976924605
 40
0.45
100
AcDbArc
 50
299.4136378764
 51
360.0
  0
ARC
  5
73B
100
AcDbEntity
  8
0
100
AcDbCircle
 62
7
  6
CONTINUOUS
 10
7.1323022983
 20
3.7006988381
 40
0.3129970472
100
AcDbArc
 50
193.9513989506
 51
195.4149025358
  0
ARC
  5
73C
100
AcDbEntity
  8
0
100
AcDbCircle
 62
7
  6
CONTINUOUS
 10
7.0923022983
 20
8.5254088381
 40
0.312693582
100
AcDbArc
 50
172.9431936381
 51
177.4743180906
  0
ARC
  5
73D
100
AcDbEntity
  8
0
100
AcDbCircle
 62
7
  6
CONTINUOUS
 10
7.0923022983
 20
8.5254088381
 40
0.312693582
100
AcDbArc
 50
182.5256819094
 51
187.0613002831
  0
ARC
  5
73E
100
AcDbEntity
  8
0
100
AcDbCircle
 62
7
  6
CONTINUOUS
 10
5.710943197
 20
4.6276988381
 40
0.3
100
AcDbArc
 50
227.1665719339
 51
273.746719802
  0
ARC
  5
73F
100
AcDbEntity
  8
0
100
AcDbCircle
 62
7
  6
CONTINUOUS
 10
6.7419824164
 20
3.9984145875
 40
0.18
100
AcDbArc
 50
0.0
 51
75.5224878141
  0
CIRCLE
  5
740
100
AcDbEntity
  8
0
100
AcDbCircle
 62
7
  6
CONTINUOUS
 10
7.3067624164
 20
7.5038171058
 40
0.1
  0
CIRCLE
  5
741
100
AcDbEntity
  8
0
100
AcDbCircle
 62
7
  6
CONTINUOUS
 10
7.3067624164
 20
6.5199588381
 40
0.1
  0
CIRCLE
  5
742
100
AcDbEntity
  8
0
100
AcDbCircle
 62
7
  6
CONTINUOUS
 10
7.3067624164
 20
5.9568171058
 40
0.1
  0
CIRCLE
  5
743
100
AcDbEntity
  8
0
100
AcDbCircle
 62
7
  6
CONTINUOUS
 10
7.3067624164
 20
4.9729588381
 40
0.1
  0
CIRCLE
  5
744
100
AcDbEntity
  8
0
100
AcDbCircle
 62
7
  6
CONTINUOUS
 10
7.6439824164
 20
4.3579588381
 40
0.0625
  0
CIRCLE
  5
745
100
AcDbEntity
  8
0
100
AcDbCircle
 62
7
  6
CONTINUOUS
 10
12.7889824164
 20
7.8939588381
 40
0.0625
  0
CIRCLE
  5
746
100
AcDbEntity
  8
0
100
AcDbCircle
 62
7
  6
CONTINUOUS
 10
7.6439824164
 20
7.8939588381
 40
0.0625
  0
CIRCLE
  5
747
100
AcDbEntity
  8
0
100
AcDbCircle
 62
7
  6
CONTINUOUS
 10
7.2429824164
 20
4.3600988381
 40
0.0492125984
  0
ARC
  5
748
100
AcDbEntity
  8
0
100
AcDbCircle
 62
7
  6
CONTINUOUS
 10
7.0551074164
 20
4.5050838381
 40
0.046875
100
AcDbArc
 50
3.4081351804
 51
90.0
  0
CIRCLE
  5
749
100
AcDbEntity
  8
0
100
AcDbCircle
 62
7
  6
CONTINUOUS
 10
6.7499824164
 20
4.0476988381
 40
0.0365
  0
CIRCLE
  5
74A
100
AcDbEntity
  8
0
100
AcDbCircle
 62
7
  6
CONTINUOUS
 10
6.7499824164
 20
4.0476988381
 40
0.035
  0
ARC
  5
74B
100
AcDbEntity
  8
0
100
AcDbCircle
 62
7
  6
CONTINUOUS
 10
6.1219824164
 20
4.2426988381
 40
0.03
100
AcDbArc
 50
97.6844827598
 51
270.0
  0
ARC
  5
74C
100
AcDbEntity
  8
0
100
AcDbCircle
 62
7
  6
CONTINUOUS
 10
6.8457464292
 20
3.6216880081
 40
0.0157480315
100
AcDbArc
 50
195.4149025358
 51
266.69607104
  0
ARC
  5
74D
100
AcDbEntity
  8
0
100
AcDbCircle
 62
7
  6
CONTINUOUS
 10
12.949281629
 20
4.2989588381
 40
0.0078740157
100
AcDbArc
 50
104.4775121859
 51
255.5224878141
  0
ARC
  5
74E
100
AcDbEntity
  8
0
100
AcDbCircle
 62
7
  6
CONTINUOUS
 10
12.949281629
 20
6.1887226176
 40
0.0078740157
100
AcDbArc
 50
104.4775121859
 51
255.5224878141
  0
ENDSEC
  0
SECTION
  2
OBJECTS
  0
DICTIONARY
  5
C
100
AcDbDictionary
280
0
281
1
  3
ACAD_GROUP
350
D
  3
ACAD_MLINESTYLE
350
17
  3
ACAD_LAYOUT
350
1A
  3
ACAD_PLOTSETTINGS
350
19
  3
ACAD_PLOTSTYLENAME
350
E
  3
ACAD_TABLESTYLE
350
       74F
  0
DICTIONARY
  5
D
102
{ACAD_REACTORS
330
C
102
}
100
AcDbDictionary
280
0
281
1
  0
ACDBDICTIONARYWDFLT
  5
E
102
{ACAD_REACTORS
330
C
102
}
100
AcDbDictionary
281
1
  3
Normal
350
F
100
AcDbDictionaryWithDefault
340
F
  0
DICTIONARY
  5
17
102
{ACAD_REACTORS
330
C
102
}
100
AcDbDictionary
280
0
281
1
  3
Standard
350
18
  0
DICTIONARY
  5
74F
330
C
100
AcDbDictionary
281
1
  3
Standard
350
       752
  3
Standard1
350
       753
  0
DICTIONARY
  5
19
102
{ACAD_REACTORS
330
C
102
}
100
AcDbDictionary
281
1
  0
DICTIONARY
  5
1A
102
{ACAD_REACTORS
330
C
102
}
100
AcDbDictionary
281
1
  3
Model
350
750
  3
Layout1
350
751
  0
ACDBPLACEHOLDER
  5
F
102
{ACAD_REACTORS
330
E
102
}
  0
MLINESTYLE
  5
18
102
{ACAD_REACTORS
330
17
102
}
100
AcDbMlineStyle
  2
STANDARD
 70
0
  3

 62
256
 51
90.0
 52
90.0
 71
2
 49
0.5
 62
256
  6
BYLAYER
 49
-0.5
 62
256
  6
BYLAYER
  0
LAYOUT
  5
750
102
{ACAD_REACTORS
330
1A
102
}
100
AcDbPlotSettings
  1

  2
none_device
  4
ANSI_B_(17.00_x_11.00_Inches)
  6

 40
0.0
 41
0.0
 42
0.0
 43
0.0
 44
431.8
 45
279.4
 46
0.0
 47
0.0
 48
0.0
 49
0.0
140
0.0
141
0.0
142
1.0
143
1.0
 70
1024
 72
0
 73
0
 74
0
  7

 75
0
147
1.0
148
0.0
149
0.0
100
AcDbLayout
  1
Model
 70
0
 71
0
 10
0.0
 20
0.0
 11
17.0
 21
11.0
 12
0.0
 22
0.0
 32
0.0
 14
0.0
 24
0.0
 34
0.0
 15
0.0
 25
0.0
 35
0.0
146
0.0
 13
0.0
 23
0.0
 33
0.0
 16
1.0
 26
0.0
 36
0.0
 17
0.0
 27
1.0
 37
0.0
 76
0
330
20C
345
0
346
0
  0
LAYOUT
  5
751
102
{ACAD_REACTORS
330
1A
102
}
100
AcDbPlotSettings
  1

  2
none_device
  4
ANSI_B_(17.00_x_11.00_Inches)
  6

 40
0.0
 41
0.0
 42
0.0
 43
0.0
 44
431.8
 45
279.4
 46
0.0
 47
0.0
 48
0.0
 49
0.0
140
0.0
141
0.0
142
1.0
143
1.0
 70
0
 72
0
 73
0
 74
0
  7

 75
0
147
1.0
148
0.0
149
0.0
100
AcDbLayout
  1
Layout1
 70
0
 71
1
 10
0.0
 20
0.0
 11
17.0
 21
11.0
 12
0.0
 22
0.0
 32
0.0
 14
0.0
 24
0.0
 34
0.0
 15
0.0
 25
0.0
 35
0.0
146
0.0
 13
0.0
 23
0.0
 33
0.0
 16
1.0
 26
0.0
 36
0.0
 17
0.0
 27
1.0
 37
0.0
 76
0
330
20D
345
0
346
0
  0
TABLESTYLE
  5
752
102
{ACAD_REACTORS
330
74F
330
2E3
330
2E4
330
2E5
102
}
330
74F
100
AcDbTableStyle
  3
Standard
 70
0
 71
0
 40
0.06
 41
0.06
280
1
281
1
  7
Standard
140
0.18
170
1
 62
0
 63
7
283
0
  7
Standard
140
0.18
170
1
 62
0
 63
7
283
0
  7
Standard
140
0.18
170
1
 62
0
 63
7
283
0
  0
TABLESTYLE
  5
753
102
{ACAD_REACTORS
330
74F
102
}
330
74F
100
AcDbTableStyle
  3
Standard1
 70
1
 71
0
 40
0.06
 41
0.06
280
1
281
1
  7
Standard
140
0.18
170
1
 62
0
 63
7
283
0
  7
Standard
140
0.18
170
1
 62
0
 63
7
283
0
  7
Standard
140
0.18
170
1
 62
0
 63
7
283
0
  0
ENDSEC
  0
EOF
