999
DXF file: C:\Users\jjorden\Desktop\cu_pxie-8430-31-4ch.dxf
999
Pro/ENGINEER 2021063 by Parametric Technology Corporation
  0
SECTION
  2
HEADER
  9
$ACADVER
  1
AC1032
  9
$DWGCODEPAGE
  3
ANSI_1252
  9
$EXTMAX
 10
17.0
 20
11.0
 30
0.0
  9
$EXTMIN
 10
0.0
 20
0.0
 30
0.0
  9
$LIMMIN
 10
0.0
 20
0.0
  9
$LIMMAX
 10
17.0
 20
11.0
  9
$VIEWCTR
 10
8.5
 20
5.5
  9
$VIEWSIZE
 40
11.0
  9
$CLAYER
  8
0
  9
$LTSCALE
 40
0.935
  9
$CELTYPE
  6
BYLAYER
  9
$DIMSCALE
 40
1.0
  9
$DIMASZ
 40
0.18
  9
$DIMEXO
 40
0.0625
  9
$DIMDLI
 40
0.646
  9
$DIMEXE
 40
0.125
  9
$DIMCEN
 40
0.153
  9
$DIMLFAC
 40
1.0
  9
$DIMBLK
  1
_FILLED
  9
$DIMALT
 70
1
  9
$DIMALTD
 70
1
  9
$DIMALTTD
 70
2
  9
$DIMALTF
 40
25.4
  9
$DIMTXT
 40
0.125
  9
$DIMTOL
 70
1
  9
$DIMLIM
 70
0
  9
$DIMTFAC
 40
1.0
  9
$DIMTP
 40
0.02
  9
$DIMTM
 40
0.02
  9
$DIMGAP
 40
0.09
  9
$DIMDSEP
 70
46
  9
$AUNITS
 70
0
  9
$PDMODE
 70
3
  9
$PDSIZE
 40
0.3125
  9
$HANDSEED
  5
699
  9
$TILEMODE
 70
1
  9
$MEASUREMENT
 70
0
  9
$INSUNITS
 70
1
  0
ENDSEC
  0
SECTION
  2
CLASSES
  0
CLASS
  1
ACDBDICTIONARYWDFLT
  2
AcDbDictionaryWithDefault
  3
AutoCAD 2000
 90
0
 91
1
280
0
281
0
  0
CLASS
  1
ACDBPLACEHOLDER
  2
AcDbPlaceHolder
  3
AutoCAD 2000
 90
0
 91
1
280
0
281
0
  0
CLASS
  1
LAYOUT
  2
AcDbLayout
  3
AutoCAD 2000
 90
0
 91
0
280
0
281
0
  0
CLASS
  1
TABLESTYLE
  2
AcDbTableStyle
  3
ObjectDBX Classes
 90
2047
 91
1
280
0
281
0
  0
CLASS
  1
ACAD_TABLE
  2
AcDbTable
  3
ObjectDBX Classes
 90
1025
 91
3
280
0
281
1
  0
ENDSEC
  0
SECTION
  2
TABLES
  0
TABLE
  2
VPORT
  5
8
100
AcDbSymbolTable
 70
2
  0
VPORT
  5
1F4
100
AcDbSymbolTableRecord
100
AcDbViewportTableRecord
  2
*ACTIVE
 70
0
 10
0.0
 20
0.0
 11
1.0
 21
1.0
 12
8.5
 22
5.5
 13
0.0
 23
0.0
 14
1.0
 24
1.0
 15
0.0
 25
0.0
 16
0.0
 26
0.0
 36
1.0
 17
0.0
 27
0.0
 37
0.0
 40
11.0
 41
1.5454545455
 42
50.0
 43
0.0
 44
0.0
 50
0.0
 51
0.0
 71
0
 72
100
 73
1
 74
1
 75
0
 76
0
 77
0
 78
0
  0
ENDTAB
  0
TABLE
  2
LTYPE
  5
5
100
AcDbSymbolTable
 70
6
  0
LTYPE
  5
14
100
AcDbSymbolTableRecord
100
AcDbLinetypeTableRecord
  2
BYBLOCK
 70
0
  3

 72
65
 73
0
 40
0.0
  0
LTYPE
  5
15
100
AcDbSymbolTableRecord
100
AcDbLinetypeTableRecord
  2
BYLAYER
 70
0
  3

 72
65
 73
0
 40
0.0
  0
LTYPE
  5
16
100
AcDbSymbolTableRecord
100
AcDbLinetypeTableRecord
  2
CONTINUOUS
 70
64
  3
Solid line
 72
65
 73
0
 40
0.0
  0
LTYPE
  5
1F5
100
AcDbSymbolTableRecord
100
AcDbLinetypeTableRecord
  2
CENTER
 70
64
  3
____ _ ____ _ ____ _ ____ _ ____ _ ____ _ ____
 72
65
 73
4
 40
0.6
 49
0.375
 74
0
 49
-0.075
 74
0
 49
0.075
 74
0
 49
-0.075
 74
0
  0
LTYPE
  5
1F6
100
AcDbSymbolTableRecord
100
AcDbLinetypeTableRecord
  2
HIDDEN
 70
64
  3
- - - - - - - - - - - - - - - - - - - -
 72
65
 73
2
 40
0.2
 49
0.1
 74
0
 49
-0.1
 74
0
  0
LTYPE
  5
1F7
100
AcDbSymbolTableRecord
100
AcDbLinetypeTableRecord
  2
PHANTOM
 70
64
  3
_____ _ _ _____ _ _ _____ _ _ _____
 72
65
 73
6
 40
0.8
 49
0.45
 74
0
 49
-0.05
 74
0
 49
0.1
 74
0
 49
-0.05
 74
0
 49
0.1
 74
0
 49
-0.05
 74
0
  0
LTYPE
  5
1F8
100
AcDbSymbolTableRecord
100
AcDbLinetypeTableRecord
  2
DOT
 70
64
  3
. . . . . . . . . . . . . . . . . . . .
 72
65
 73
2
 40
0.2
 49
0.1
 74
0
 49
-0.1
 74
0
  0
LTYPE
  5
1F9
100
AcDbSymbolTableRecord
100
AcDbLinetypeTableRecord
  2
DASHED
 70
64
  3
- - - - - - - - - - - - - - - - - - - -
 72
65
 73
2
 40
0.2
 49
0.1
 74
0
 49
-0.1
 74
0
  0
ENDTAB
  0
TABLE
  2
LAYER
  5
2
100
AcDbSymbolTable
 70
36
  0
LAYER
  5
10
100
AcDbSymbolTableRecord
100
AcDbLayerTableRecord
  2
0
 70
0
 62
7
  6
CONTINUOUS
370
-3
390
F
  0
LAYER
  5
1FA
100
AcDbSymbolTableRecord
100
AcDbLayerTableRecord
  2
DEFAULT_1
 70
0
 62
7
  6
CENTER
370
-3
390
F
  0
LAYER
  5
1FB
100
AcDbSymbolTableRecord
100
AcDbLayerTableRecord
  2
DEFAULT_2
 70
0
 62
8
  6
HIDDEN
370
-3
390
F
  0
LAYER
  5
1FC
100
AcDbSymbolTableRecord
100
AcDbLayerTableRecord
  2
DEFAULT_3
 70
0
 62
7
  6
PHANTOM
370
-3
390
F
  0
LAYER
  5
1FD
100
AcDbSymbolTableRecord
100
AcDbLayerTableRecord
  2
01___PRT_ALL_DTM_PLN
 70
0
 62
7
  6
CONTINUOUS
370
-3
390
F
  0
LAYER
  5
1FE
100
AcDbSymbolTableRecord
100
AcDbLayerTableRecord
  2
01___PRT_DEF_DTM_PLN
 70
0
 62
7
  6
CONTINUOUS
370
-3
390
F
  0
LAYER
  5
1FF
100
AcDbSymbolTableRecord
100
AcDbLayerTableRecord
  2
02___PRT_ALL_AXES
 70
0
 62
7
  6
CONTINUOUS
370
-3
390
F
  0
LAYER
  5
200
100
AcDbSymbolTableRecord
100
AcDbLayerTableRecord
  2
03___PRT_ALL_CURVES
 70
0
 62
7
  6
CONTINUOUS
370
-3
390
F
  0
LAYER
  5
201
100
AcDbSymbolTableRecord
100
AcDbLayerTableRecord
  2
04___PRT_ALL_DTM_PNT
 70
0
 62
7
  6
CONTINUOUS
370
-3
390
F
  0
LAYER
  5
202
100
AcDbSymbolTableRecord
100
AcDbLayerTableRecord
  2
05___PRT_ALL_DTM_CSYS
 70
0
 62
7
  6
CONTINUOUS
370
-3
390
F
  0
LAYER
  5
203
100
AcDbSymbolTableRecord
100
AcDbLayerTableRecord
  2
05___PRT_DEF_DTM_CSYS
 70
0
 62
7
  6
CONTINUOUS
370
-3
390
F
  0
LAYER
  5
204
100
AcDbSymbolTableRecord
100
AcDbLayerTableRecord
  2
06___PRT_ALL_SURFS
 70
0
 62
7
  6
CONTINUOUS
370
-3
390
F
  0
LAYER
  5
205
100
AcDbSymbolTableRecord
100
AcDbLayerTableRecord
  2
COOR_SYS
 70
0
 62
7
  6
CONTINUOUS
370
-3
390
F
  0
LAYER
  5
206
100
AcDbSymbolTableRecord
100
AcDbLayerTableRecord
  2
COSMETIC
 70
0
 62
7
  6
CONTINUOUS
370
-3
390
F
  0
LAYER
  5
207
100
AcDbSymbolTableRecord
100
AcDbLayerTableRecord
  2
DATUM
 70
0
 62
7
  6
CONTINUOUS
370
-3
390
F
  0
LAYER
  5
208
100
AcDbSymbolTableRecord
100
AcDbLayerTableRecord
  2
DATUMCURVES
 70
0
 62
7
  6
CONTINUOUS
370
-3
390
F
  0
LAYER
  5
209
100
AcDbSymbolTableRecord
100
AcDbLayerTableRecord
  2
DETAIL
 70
0
 62
7
  6
CONTINUOUS
370
-3
390
F
  0
LAYER
  5
20A
100
AcDbSymbolTableRecord
100
AcDbLayerTableRecord
  2
DIMENSIONS
 70
0
 62
7
  6
CONTINUOUS
370
-3
390
F
  0
LAYER
  5
20B
100
AcDbSymbolTableRecord
100
AcDbLayerTableRecord
  2
INTF_2
 70
0
 62
7
  6
CONTINUOUS
370
-3
390
F
  0
LAYER
  5
20C
100
AcDbSymbolTableRecord
100
AcDbLayerTableRecord
  2
NOTE
 70
0
 62
7
  6
CONTINUOUS
370
-3
390
F
  0
LAYER
  5
20D
100
AcDbSymbolTableRecord
100
AcDbLayerTableRecord
  2
NOTES
 70
0
 62
7
  6
CONTINUOUS
370
-3
390
F
  0
LAYER
  5
20E
100
AcDbSymbolTableRecord
100
AcDbLayerTableRecord
  2
REF_DIM
 70
0
 62
7
  6
CONTINUOUS
370
-3
390
F
  0
ENDTAB
  0
TABLE
  2
STYLE
  5
3
100
AcDbSymbolTable
 70
1
  0
STYLE
  5
11
100
AcDbSymbolTableRecord
100
AcDbTextStyleTableRecord
  2
STANDARD
 70
0
 40
0.0
 41
0.8
 50
0.0
 71
0
 42
0.2
  3
txt
  4

  0
STYLE
  5
20F
100
AcDbSymbolTableRecord
100
AcDbTextStyleTableRecord
  2
TEXTSTYLE_1
 70
0
 40
0.0
 41
0.8
 50
0.0
 71
0
 42
0.2
  3
gdt
  4

  0
STYLE
  5
210
100
AcDbSymbolTableRecord
100
AcDbTextStyleTableRecord
  2
TEXTSTYLE_2
 70
0
 40
0.0
 41
1.0
 50
0.0
 71
0
 42
0.2
  3
txt
  4

  0
STYLE
  5
211
100
AcDbSymbolTableRecord
100
AcDbTextStyleTableRecord
  2
TEXTSTYLE_3
 70
0
 40
0.0
 41
0.95
 50
0.0
 71
0
 42
0.2
  3
txt
  4

  0
ENDTAB
  0
TABLE
  2
VIEW
  5
6
100
AcDbSymbolTable
 70
0
  0
ENDTAB
  0
TABLE
  2
UCS
  5
7
100
AcDbSymbolTable
 70
0
  0
ENDTAB
  0
TABLE
  2
APPID
  5
9
100
AcDbSymbolTable
 70
1
  0
APPID
  5
212
100
AcDbSymbolTableRecord
100
AcDbRegAppTableRecord
  2
ACAD
 70
0
  0
ENDTAB
  0
TABLE
  2
BLOCK_RECORD
  5
1
100
AcDbSymbolTable
 70
0
  0
BLOCK_RECORD
  5
213
100
AcDbSymbolTableRecord
100
AcDbBlockTableRecord
  2
*Model_Space
  0
BLOCK_RECORD
  5
214
100
AcDbSymbolTableRecord
100
AcDbBlockTableRecord
  2
*Paper_Space
  0
BLOCK_RECORD
  5
215
100
AcDbSymbolTableRecord
100
AcDbBlockTableRecord
  2
_FILLED
  0
BLOCK_RECORD
  5
216
100
AcDbSymbolTableRecord
100
AcDbBlockTableRecord
  2
*D0
  0
BLOCK_RECORD
  5
217
100
AcDbSymbolTableRecord
100
AcDbBlockTableRecord
  2
*D1
  0
BLOCK_RECORD
  5
218
100
AcDbSymbolTableRecord
100
AcDbBlockTableRecord
  2
*D2
  0
BLOCK_RECORD
  5
219
100
AcDbSymbolTableRecord
100
AcDbBlockTableRecord
  2
*D3
  0
BLOCK_RECORD
  5
21A
100
AcDbSymbolTableRecord
100
AcDbBlockTableRecord
  2
*D4
  0
BLOCK_RECORD
  5
21B
100
AcDbSymbolTableRecord
100
AcDbBlockTableRecord
  2
*D5
  0
BLOCK_RECORD
  5
21C
100
AcDbSymbolTableRecord
100
AcDbBlockTableRecord
  2
*D6
  0
BLOCK_RECORD
  5
21D
100
AcDbSymbolTableRecord
100
AcDbBlockTableRecord
  2
*D7
  0
BLOCK_RECORD
  5
21E
100
AcDbSymbolTableRecord
100
AcDbBlockTableRecord
  2
*D8
  0
BLOCK_RECORD
  5
21F
100
AcDbSymbolTableRecord
100
AcDbBlockTableRecord
  2
*D9
  0
BLOCK_RECORD
  5
220
100
AcDbSymbolTableRecord
100
AcDbBlockTableRecord
  2
*D10
  0
BLOCK_RECORD
  5
221
100
AcDbSymbolTableRecord
100
AcDbBlockTableRecord
  2
*D11
  0
BLOCK_RECORD
  5
222
100
AcDbSymbolTableRecord
100
AcDbBlockTableRecord
  2
*D12
  0
BLOCK_RECORD
  5
223
100
AcDbSymbolTableRecord
100
AcDbBlockTableRecord
  2
*D13
  0
BLOCK_RECORD
  5
224
100
AcDbSymbolTableRecord
100
AcDbBlockTableRecord
  2
NOTES_HEADER_BL2
  0
BLOCK_RECORD
  5
225
100
AcDbSymbolTableRecord
100
AcDbBlockTableRecord
  2
METRIC_BL1
  0
BLOCK_RECORD
  5
226
100
AcDbSymbolTableRecord
100
AcDbBlockTableRecord
  2
CUSTOM_NOTE_BL0
  0
BLOCK_RECORD
  5
227
100
AcDbSymbolTableRecord
100
AcDbBlockTableRecord
  2
*T1
  0
BLOCK_RECORD
  5
228
100
AcDbSymbolTableRecord
100
AcDbBlockTableRecord
  2
*T2
  0
BLOCK_RECORD
  5
229
100
AcDbSymbolTableRecord
100
AcDbBlockTableRecord
  2
*T3
  0
ENDTAB
  0
TABLE
  2
DIMSTYLE
  5
A
100
AcDbSymbolTable
 70
1
100
AcDbDimStyleTable
 71
0
  0
DIMSTYLE
105
22A
100
AcDbSymbolTableRecord
100
AcDbDimStyleTableRecord
  2
STANDARD
 70
0
  3

  4

 40
1.0
 41
0.18
 42
0.0625
 43
0.38
 44
0.125
 45
0.0
 46
0.0
 47
0.02
 48
0.02
140
0.125
141
0.09
142
0.0
143
1.0
144
1.0
145
0.0
146
1.0
147
0.09
 71
1
 72
0
 73
1
 74
1
 75
0
 76
0
 77
0
 78
0
 79
0
170
1
171
1
172
0
173
0
174
0
175
0
176
0
177
0
178
0
270
2
179
2
271
2
272
2
273
2
274
2
275
0
280
0
281
0
282
0
283
1
284
0
285
0
286
0
287
3
288
0
340
11
278
46
341
215
342
215
343
215
344
215
  0
DIMSTYLE
105
22B
100
AcDbSymbolTableRecord
100
AcDbDimStyleTableRecord
  2
DIMSTYLE_1
 70
0
  3

  4

 40
1.0
 41
0.18
 42
0.0625
 43
0.38
 44
0.125
 45
0.0
 46
0.0
 47
0.254
 48
0.254
140
0.125
141
0.09
142
0.0
143
1.0
144
1.0
145
0.0
146
1.0
147
0.03125
 71
0
 72
0
 73
1
 74
1
 75
0
 76
0
 77
0
 78
0
 79
0
170
1
171
2
172
0
173
0
174
0
175
0
176
0
177
0
178
0
270
2
179
2
271
1
272
1
273
2
274
2
275
0
280
0
281
0
282
0
283
1
284
0
285
0
286
0
287
3
288
0
340
11
278
46
341
215
342
215
343
215
344
215
  0
DIMSTYLE
105
22C
100
AcDbSymbolTableRecord
100
AcDbDimStyleTableRecord
  2
DIMSTYLE_2
 70
0
  3

  4

 40
1.0
 41
0.18
 42
0.0625
 43
0.38
 44
0.125
 45
0.0
 46
0.0
 47
0.0
 48
0.0
140
0.125
141
0.09
142
0.0
143
1.0
144
1.0
145
0.0
146
1.0
147
0.03125
 71
0
 72
0
 73
1
 74
1
 75
0
 76
0
 77
0
 78
0
 79
0
170
1
171
2
172
0
173
0
174
0
175
0
176
0
177
0
178
0
270
2
179
2
271
1
272
1
273
2
274
2
275
0
280
0
281
0
282
0
283
1
284
0
285
0
286
0
287
3
288
0
340
11
278
46
341
215
342
215
343
215
344
215
  0
DIMSTYLE
105
22D
100
AcDbSymbolTableRecord
100
AcDbDimStyleTableRecord
  2
DIMSTYLE_3
 70
0
  3

  4

 40
1.0
 41
0.18
 42
0.0625
 43
0.38
 44
0.125
 45
0.0
 46
0.0
 47
0.01
 48
0.01
140
0.125
141
0.09
142
0.0
143
1.0
144
1.0
145
0.0
146
1.0
147
0.0625
 71
0
 72
0
 73
1
 74
1
 75
0
 76
0
 77
0
 78
0
 79
0
170
1
171
2
172
0
173
0
174
0
175
0
176
0
177
0
178
0
270
2
179
2
271
1
272
1
273
2
274
2
275
0
280
0
281
0
282
0
283
1
284
0
285
0
286
0
287
3
288
0
340
11
278
46
341
215
342
215
343
215
344
215
  0
ENDTAB
  0
ENDSEC
  0
SECTION
  2
BLOCKS
  0
BLOCK
  5
20
100
AcDbEntity
  8
0
100
AcDbBlockBegin
  2
*Model_Space
 70
0
 10
0.0
 20
0.0
 30
0.0
  3
*Model_Space
  1

  0
ENDBLK
  5
21
100
AcDbEntity
  8
0
100
AcDbBlockEnd
  0
BLOCK
  5
1C
100
AcDbEntity
  8
0
100
AcDbBlockBegin
  2
*Paper_Space
 70
0
 10
0.0
 20
0.0
 30
0.0
  3
*Paper_Space
  1

  0
ENDBLK
  5
1D
100
AcDbEntity
  8
0
100
AcDbBlockEnd
  0
BLOCK
  5
22E
100
AcDbEntity
  8
DETAIL
100
AcDbBlockBegin
 62
2
  6
CONTINUOUS
  2
NOTES_HEADER_BL2
 70
64
 10
3.1215
 20
0.9375
  3
NOTES_HEADER_BL2
  1

  0
TEXT
  5
22F
100
AcDbEntity
  8
DETAIL
100
AcDbText
 62
2
  6
CONTINUOUS
 10
0.9375
 20
0.8595
  7
STANDARD
 40
0.156
  1
NOTES:  UNLESS OTHERWISE SPECIFIED.
 41
0.8
 72
0
100
AcDbText
  0
ENDBLK
  5
230
100
AcDbEntity
  8
0
  6
BYBLOCK
 62
0
100
AcDbBlockEnd
  0
BLOCK
  5
231
100
AcDbEntity
  8
0
100
AcDbBlockBegin
 62
2
  6
CONTINUOUS
  2
METRIC_BL1
 70
64
 10
12.2427668563
 20
2.2045347211
  3
METRIC_BL1
  1

  0
TEXT
  5
232
100
AcDbEntity
  8
0
100
AcDbText
 62
2
  6
CONTINUOUS
 10
11.7640862908
 20
2.1034262814
  7
STANDARD
 40
0.2
  1
METRIC
 41
0.8
 72
0
100
AcDbText
  0
LWPOLYLINE
  5
233
100
AcDbEntity
  8
0
100
AcDbPolyline
 62
7
  6
CONTINUOUS
 90
2
 70
0
 43
0.0154545455
 10
11.5627668563
 20
2.3845347211
 10
12.9227668563
 20
2.3845347211
  0
LWPOLYLINE
  5
234
100
AcDbEntity
  8
0
100
AcDbPolyline
 62
7
  6
CONTINUOUS
 90
2
 70
0
 43
0.0154545455
 10
11.5627668563
 20
2.0245347211
 10
12.9227668563
 20
2.0245347211
  0
LWPOLYLINE
  5
235
100
AcDbEntity
  8
0
100
AcDbPolyline
 62
7
  6
CONTINUOUS
 90
2
 70
0
 43
0.0154545455
 10
12.9227668563
 20
2.3845347211
 10
12.9227668563
 20
2.0245347211
  0
LWPOLYLINE
  5
236
100
AcDbEntity
  8
0
100
AcDbPolyline
 62
7
  6
CONTINUOUS
 90
2
 70
0
 43
0.0154545455
 10
11.5627668563
 20
2.3845347211
 10
11.5627668563
 20
2.0245347211
  0
ENDBLK
  5
237
100
AcDbEntity
  8
0
  6
BYBLOCK
 62
0
100
AcDbBlockEnd
  0
BLOCK
  5
238
100
AcDbEntity
  8
0
100
AcDbBlockBegin
 62
2
  6
CONTINUOUS
  2
CUSTOM_NOTE_BL0
 70
64
 10
3.6750529031
 20
1.3123857822
  3
CUSTOM_NOTE_BL0
  1

  0
TEXT
  5
239
100
AcDbEntity
  8
0
100
AcDbText
 62
2
  6
CONTINUOUS
 10
0.9376058062
 20
1.2497715643
  7
STANDARD
 40
0.125
  1
1.
 41
0.8
 72
0
100
AcDbText
  0
TEXT
  5
23A
100
AcDbEntity
  8
0
100
AcDbText
 62
2
  6
CONTINUOUS
 10
1.3125
 20
1.25
  7
STANDARD
 40
0.125
  1
REFER TO PRODUCT MANUAL ON NI.COM FOR MORE DETAILS.
 41
0.8
 72
0
100
AcDbText
  0
ENDBLK
  5
23B
100
AcDbEntity
  8
0
  6
BYBLOCK
 62
0
100
AcDbBlockEnd
  0
BLOCK
  5
23C
100
AcDbEntity
  8
0
100
AcDbBlockBegin
  2
_FILLED
 70
64
 10
0.0
 20
0.0
  3
_FILLED
  1

  0
SOLID
  5
23D
100
AcDbEntity
  8
0
  6
BYBLOCK
 62
0
100
AcDbTrace
 10
0.0
 20
0.0
 11
-1.0
 21
0.1736111111
 12
-1.0
 22
-0.1736111111
 13
-1.0
 23
-0.1736111111
  0
ENDBLK
  5
23E
100
AcDbEntity
  8
0
  6
BYBLOCK
 62
0
100
AcDbBlockEnd
  0
BLOCK
  5
23F
100
AcDbEntity
  8
DIMENSIONS
100
AcDbBlockBegin
 62
2
  6
CONTINUOUS
  2
*D0
 70
65
 10
0.0
 20
0.0
  3
*D0
  1

  0
MTEXT
  5
240
100
AcDbEntity
  8
DIMENSIONS
100
AcDbMText
 62
2
  6
CONTINUOUS
  7
STANDARD
 71
3
 72
1
 10
3.3101746114
 20
4.8744746686
 30
0.0
 11
1.0
 21
0.0
 31
0.0
 73
2
 44
0.9
  1
32.7{\ftxt.shx;\W1.000000;\H0.125000; }[1.29]
 40
0.125
 41
1.125
  0
LINE
  5
241
100
AcDbEntity
  8
DIMENSIONS
100
AcDbLine
 62
2
  6
CONTINUOUS
 10
4.1595250051
 20
4.8119746686
 11
3.3726746114
 21
4.8119746686
  0
ENDBLK
  5
242
100
AcDbEntity
  8
0
  6
BYBLOCK
 62
0
100
AcDbBlockEnd
  0
BLOCK
  5
243
100
AcDbEntity
  8
DIMENSIONS
100
AcDbBlockBegin
 62
2
  6
CONTINUOUS
  2
*D1
 70
65
 10
0.0
 20
0.0
  3
*D1
  1

  0
MTEXT
  5
244
100
AcDbEntity
  8
DIMENSIONS
100
AcDbMText
 62
2
  6
CONTINUOUS
  7
STANDARD
 71
3
 72
1
 10
3.3101746114
 20
3.5865646686
 30
0.0
 11
1.0
 21
0.0
 31
0.0
 73
2
 44
0.9
  1
0.0{\ftxt.shx;\W1.000000;\H0.125000; }[.00]
 40
0.125
 41
0.925
  0
LINE
  5
245
100
AcDbEntity
  8
DIMENSIONS
100
AcDbLine
 62
2
  6
CONTINUOUS
 10
4.0645250051
 20
3.5240646686
 11
3.3726746114
 21
3.5240646686
  0
ENDBLK
  5
246
100
AcDbEntity
  8
0
  6
BYBLOCK
 62
0
100
AcDbBlockEnd
  0
BLOCK
  5
247
100
AcDbEntity
  8
DIMENSIONS
100
AcDbBlockBegin
 62
2
  6
CONTINUOUS
  2
*D2
 70
65
 10
0.0
 20
0.0
  3
*D2
  1

  0
MTEXT
  5
248
100
AcDbEntity
  8
DIMENSIONS
100
AcDbMText
 62
2
  6
CONTINUOUS
  7
STANDARD
 71
3
 72
1
 10
3.3101746114
 20
5.6694746686
 30
0.0
 11
1.0
 21
0.0
 31
0.0
 73
2
 44
0.9
  1
52.9{\ftxt.shx;\W1.000000;\H0.125000; }[2.08]
 40
0.125
 41
1.125
  0
LINE
  5
249
100
AcDbEntity
  8
DIMENSIONS
100
AcDbLine
 62
2
  6
CONTINUOUS
 10
4.1595250051
 20
5.6069746686
 11
3.3726746114
 21
5.6069746686
  0
ENDBLK
  5
24A
100
AcDbEntity
  8
0
  6
BYBLOCK
 62
0
100
AcDbBlockEnd
  0
BLOCK
  5
24B
100
AcDbEntity
  8
DIMENSIONS
100
AcDbBlockBegin
 62
2
  6
CONTINUOUS
  2
*D3
 70
65
 10
0.0
 20
0.0
  3
*D3
  1

  0
MTEXT
  5
24C
100
AcDbEntity
  8
DIMENSIONS
100
AcDbMText
 62
2
  6
CONTINUOUS
  7
STANDARD
 71
3
 72
1
 10
3.3101746114
 20
6.4644746686
 30
0.0
 11
1.0
 21
0.0
 31
0.0
 73
2
 44
0.9
  1
73.1{\ftxt.shx;\W1.000000;\H0.125000; }[2.88]
 40
0.125
 41
1.125
  0
LINE
  5
24D
100
AcDbEntity
  8
DIMENSIONS
100
AcDbLine
 62
2
  6
CONTINUOUS
 10
4.1595250051
 20
6.4019746686
 11
3.3726746114
 21
6.4019746686
  0
ENDBLK
  5
24E
100
AcDbEntity
  8
0
  6
BYBLOCK
 62
0
100
AcDbBlockEnd
  0
BLOCK
  5
24F
100
AcDbEntity
  8
DIMENSIONS
100
AcDbBlockBegin
 62
2
  6
CONTINUOUS
  2
*D4
 70
65
 10
0.0
 20
0.0
  3
*D4
  1

  0
MTEXT
  5
250
100
AcDbEntity
  8
DIMENSIONS
100
AcDbMText
 62
2
  6
CONTINUOUS
  7
STANDARD
 71
3
 72
1
 10
3.3101746114
 20
7.2594746686
 30
0.0
 11
1.0
 21
0.0
 31
0.0
 73
2
 44
0.9
  1
93.3{\ftxt.shx;\W1.000000;\H0.125000; }[3.67]
 40
0.125
 41
1.125
  0
LINE
  5
251
100
AcDbEntity
  8
DIMENSIONS
100
AcDbLine
 62
2
  6
CONTINUOUS
 10
4.1595250051
 20
7.1969746686
 11
3.3726746114
 21
7.1969746686
  0
ENDBLK
  5
252
100
AcDbEntity
  8
0
  6
BYBLOCK
 62
0
100
AcDbBlockEnd
  0
BLOCK
  5
253
100
AcDbEntity
  8
DIMENSIONS
100
AcDbBlockBegin
 62
2
  6
CONTINUOUS
  2
*D5
 70
65
 10
0.0
 20
0.0
  3
*D5
  1

  0
MTEXT
  5
254
100
AcDbEntity
  8
DIMENSIONS
100
AcDbMText
 62
2
  6
CONTINUOUS
  7
STANDARD
 71
3
 72
1
 10
3.3101746114
 20
8.4074746686
 30
0.0
 11
1.0
 21
0.0
 31
0.0
 73
2
 44
0.9
  1
122.5{\ftxt.shx;\W1.000000;\H0.125000; }[4.82]
 40
0.125
 41
1.225
  0
LINE
  5
255
100
AcDbEntity
  8
DIMENSIONS
100
AcDbLine
 62
2
  6
CONTINUOUS
 10
4.0550250051
 20
8.3449746686
 11
3.3726746114
 21
8.3449746686
  0
ENDBLK
  5
256
100
AcDbEntity
  8
0
  6
BYBLOCK
 62
0
100
AcDbBlockEnd
  0
BLOCK
  5
257
100
AcDbEntity
  8
DIMENSIONS
100
AcDbBlockBegin
 62
2
  6
CONTINUOUS
  2
*D6
 70
65
 10
0.0
 20
0.0
  3
*D6
  1

  0
MTEXT
  5
258
100
AcDbEntity
  8
DIMENSIONS
100
AcDbMText
 62
2
  6
CONTINUOUS
  7
STANDARD
 71
3
 72
1
 10
3.3101746114
 20
8.7697908716
 30
0.0
 11
1.0
 21
0.0
 31
0.0
 73
2
 44
0.9
  1
125.5{\ftxt.shx;\W1.000000;\H0.125000; }[4.94]
 40
0.125
 41
1.225
  0
LINE
  5
259
100
AcDbEntity
  8
DIMENSIONS
100
AcDbLine
 62
2
  6
CONTINUOUS
 10
4.0045250051
 20
8.4669746686
 11
3.7683299835
 21
8.4669746686
  0
LINE
  5
25A
100
AcDbEntity
  8
DIMENSIONS
100
AcDbLine
 62
2
  6
CONTINUOUS
 10
3.7683299835
 20
8.4669746686
 11
3.5526681211
 21
8.7072908716
  0
LINE
  5
25B
100
AcDbEntity
  8
DIMENSIONS
100
AcDbLine
 62
2
  6
CONTINUOUS
 10
3.5526681211
 20
8.7072908716
 11
3.3726746114
 21
8.7072908716
  0
ENDBLK
  5
25C
100
AcDbEntity
  8
0
  6
BYBLOCK
 62
0
100
AcDbBlockEnd
  0
BLOCK
  5
25D
100
AcDbEntity
  8
DIMENSIONS
100
AcDbBlockBegin
 62
2
  6
CONTINUOUS
  2
*D7
 70
65
 10
0.0
 20
0.0
  3
*D7
  1

  0
MTEXT
  5
25E
100
AcDbEntity
  8
DIMENSIONS
100
AcDbMText
 62
2
  6
CONTINUOUS
  7
STANDARD
 71
1
 72
1
 10
4.7925250051
 20
9.2169746686
 30
0.0
 11
0.0
 21
1.0
 31
0.0
 73
2
 44
0.9
  1
12.5{\ftxt.shx;\W1.000000;\H0.125000; }[.49]
 40
0.125
 41
1.025
  0
LINE
  5
25F
100
AcDbEntity
  8
DIMENSIONS
100
AcDbLine
 62
2
  6
CONTINUOUS
 10
4.8550250051
 20
8.5294746686
 11
4.8550250051
 21
9.1544746686
  0
ENDBLK
  5
260
100
AcDbEntity
  8
0
  6
BYBLOCK
 62
0
100
AcDbBlockEnd
  0
BLOCK
  5
261
100
AcDbEntity
  8
DIMENSIONS
100
AcDbBlockBegin
 62
2
  6
CONTINUOUS
  2
*D8
 70
65
 10
0.0
 20
0.0
  3
*D8
  1

  0
MTEXT
  5
262
100
AcDbEntity
  8
DIMENSIONS
100
AcDbMText
 62
2
  6
CONTINUOUS
  7
STANDARD
 71
1
 72
1
 10
4.2985250051
 20
9.2169746686
 30
0.0
 11
0.0
 21
1.0
 31
0.0
 73
2
 44
0.9
  1
2X 0.0{\ftxt.shx;\W1.000000;\H0.125000; }[.00]
 40
0.125
 41
1.225
  0
LINE
  5
263
100
AcDbEntity
  8
DIMENSIONS
100
AcDbLine
 62
2
  6
CONTINUOUS
 10
4.3610250051
 20
8.6509746686
 11
4.3610250051
 21
9.1544746686
  0
ENDBLK
  5
264
100
AcDbEntity
  8
0
  6
BYBLOCK
 62
0
100
AcDbBlockEnd
  0
BLOCK
  5
265
100
AcDbEntity
  8
DIMENSIONS
100
AcDbBlockBegin
 62
2
  6
CONTINUOUS
  2
*D9
 70
65
 10
0.0
 20
0.0
  3
*D9
  1

  0
MTEXT
  5
266
100
AcDbEntity
  8
DIMENSIONS
100
AcDbMText
 62
2
  6
CONTINUOUS
  7
STANDARD
 71
1
 72
1
 10
4.0045250051
 20
9.2169746686
 30
0.0
 11
0.0
 21
1.0
 31
0.0
 73
2
 44
0.9
  1
7.5{\ftxt.shx;\W1.000000;\H0.125000; }[.29]
 40
0.125
 41
0.925
  0
LINE
  5
267
100
AcDbEntity
  8
DIMENSIONS
100
AcDbLine
 62
2
  6
CONTINUOUS
 10
4.0670250051
 20
8.5294746686
 11
4.0670250051
 21
9.1544746686
  0
ENDBLK
  5
268
100
AcDbEntity
  8
0
  6
BYBLOCK
 62
0
100
AcDbBlockEnd
  0
BLOCK
  5
269
100
AcDbEntity
  8
DIMENSIONS
100
AcDbBlockBegin
 62
2
  6
CONTINUOUS
  2
*D10
 70
65
 10
0.0
 20
0.0
  3
*D10
  1

  0
MTEXT
  5
26A
100
AcDbEntity
  8
DIMENSIONS
100
AcDbMText
 62
2
  6
CONTINUOUS
  7
STANDARD
 71
1
 72
1
 10
4.5702158324
 20
9.2169746686
 30
0.0
 11
0.0
 21
1.0
 31
0.0
 73
2
 44
0.9
  1
4X 2.5{\ftxt.shx;\W1.000000;\H0.125000; }[.10]
 40
0.125
 41
1.225
  0
LINE
  5
26B
100
AcDbEntity
  8
DIMENSIONS
100
AcDbLine
 62
2
  6
CONTINUOUS
 10
4.4610250051
 20
7.5244746686
 11
4.4610250051
 21
7.8622117565
  0
LINE
  5
26C
100
AcDbEntity
  8
DIMENSIONS
100
AcDbLine
 62
2
  6
CONTINUOUS
 10
4.4610250051
 20
7.8622117565
 11
4.6327158324
 21
8.0762878699
  0
LINE
  5
26D
100
AcDbEntity
  8
DIMENSIONS
100
AcDbLine
 62
2
  6
CONTINUOUS
 10
4.6327158324
 20
8.0762878699
 11
4.6327158324
 21
9.1544746686
  0
ENDBLK
  5
26E
100
AcDbEntity
  8
0
  6
BYBLOCK
 62
0
100
AcDbBlockEnd
  0
BLOCK
  5
26F
100
AcDbEntity
  8
DIMENSIONS
100
AcDbBlockBegin
 62
2
  6
CONTINUOUS
  2
*D11
 70
65
 10
0.0
 20
0.0
  3
*D11
  1

  0
MTEXT
  5
270
100
AcDbEntity
  8
DIMENSIONS
100
AcDbMText
 62
2
  6
CONTINUOUS
  7
STANDARD
 71
2
 72
1
 10
11.2141335849
 20
2.9915646686
 30
0.0
 11
1.0
 21
0.0
 31
0.0
 73
2
 44
0.9
  1
162.6{\ftxt.shx;\W1.000000;\H0.125000; }[6.40]
 40
0.125
 41
1.225
  0
LINE
  5
271
100
AcDbEntity
  8
DIMENSIONS
100
AcDbLine
 62
2
  6
CONTINUOUS
 10
8.0131335849
 20
3.3242747901
 11
8.0131335849
 21
2.8040646686
  0
LINE
  5
272
100
AcDbEntity
  8
DIMENSIONS
100
AcDbLine
 62
2
  6
CONTINUOUS
 10
14.4151335849
 20
3.9783368143
 11
14.4151335849
 21
2.8040646686
  0
LINE
  5
273
100
AcDbEntity
  8
DIMENSIONS
100
AcDbLine
 62
2
  6
CONTINUOUS
 10
8.0131335849
 20
2.9290646686
 11
10.5391335849
 21
2.9290646686
  0
LINE
  5
274
100
AcDbEntity
  8
DIMENSIONS
100
AcDbLine
 62
2
  6
CONTINUOUS
 10
14.4151335849
 20
2.9290646686
 11
11.8891335849
 21
2.9290646686
  0
INSERT
  5
275
100
AcDbEntity
  8
DIMENSIONS
100
AcDbBlockReference
 62
2
  6
CONTINUOUS
  2
_FILLED
 10
8.0131335849
 20
2.9290646686
 41
0.18
 42
0.18
 43
0.18
 50
180.0
  0
INSERT
  5
276
100
AcDbEntity
  8
DIMENSIONS
100
AcDbBlockReference
 62
2
  6
CONTINUOUS
  2
_FILLED
 10
14.4151335849
 20
2.9290646686
 41
0.18
 42
0.18
 43
0.18
  0
ENDBLK
  5
277
100
AcDbEntity
  8
0
  6
BYBLOCK
 62
0
100
AcDbBlockEnd
  0
BLOCK
  5
278
100
AcDbEntity
  8
DIMENSIONS
100
AcDbBlockBegin
 62
2
  6
CONTINUOUS
  2
*D12
 70
65
 10
0.0
 20
0.0
  3
*D12
  1

  0
MTEXT
  5
279
100
AcDbEntity
  8
DIMENSIONS
100
AcDbMText
 62
2
  6
CONTINUOUS
  7
STANDARD
 71
2
 72
1
 10
15.7888040496
 20
5.9970196686
 30
0.0
 11
1.0
 21
0.0
 31
0.0
 73
2
 44
0.9
  1
128.6{\ftxt.shx;\W1.000000;\H0.125000; }[5.07]
 40
0.125
 41
1.225
  0
LINE
  5
27A
100
AcDbEntity
  8
DIMENSIONS
100
AcDbLine
 62
2
  6
CONTINUOUS
 10
8.0506335849
 20
8.4669746686
 11
15.9138040496
 21
8.4669746686
  0
LINE
  5
27B
100
AcDbEntity
  8
DIMENSIONS
100
AcDbLine
 62
2
  6
CONTINUOUS
 10
8.0266335849
 20
3.4020646686
 11
15.9138040496
 21
3.4020646686
  0
LINE
  5
27C
100
AcDbEntity
  8
DIMENSIONS
100
AcDbLine
 62
2
  6
CONTINUOUS
 10
15.7888040496
 20
8.4669746686
 11
15.7888040496
 21
6.0595196686
  0
LINE
  5
27D
100
AcDbEntity
  8
DIMENSIONS
100
AcDbLine
 62
2
  6
CONTINUOUS
 10
15.7888040496
 20
3.4020646686
 11
15.7888040496
 21
5.8095196686
  0
INSERT
  5
27E
100
AcDbEntity
  8
DIMENSIONS
100
AcDbBlockReference
 62
2
  6
CONTINUOUS
  2
_FILLED
 10
15.7888040496
 20
8.4669746686
 41
0.18
 42
0.18
 43
0.18
 50
90.0
  0
INSERT
  5
27F
100
AcDbEntity
  8
DIMENSIONS
100
AcDbBlockReference
 62
2
  6
CONTINUOUS
  2
_FILLED
 10
15.7888040496
 20
3.4020646686
 41
0.18
 42
0.18
 43
0.18
 50
270.0
  0
ENDBLK
  5
280
100
AcDbEntity
  8
0
  6
BYBLOCK
 62
0
100
AcDbBlockEnd
  0
BLOCK
  5
281
100
AcDbEntity
  8
DIMENSIONS
100
AcDbBlockBegin
 62
2
  6
CONTINUOUS
  2
*D13
 70
65
 10
0.0
 20
0.0
  3
*D13
  1

  0
MTEXT
  5
282
100
AcDbEntity
  8
DIMENSIONS
100
AcDbMText
 62
2
  6
CONTINUOUS
  7
STANDARD
 71
1
 72
1
 10
8.5385897897
 20
9.2513458768
 30
0.0
 11
1.0
 21
0.0
 31
0.0
 73
2
 44
0.9
  1
2.9{\ftxt.shx;\W1.000000;\H0.125000; }[.12]
 40
0.125
 41
0.925
  0
LINE
  5
283
100
AcDbEntity
  8
DIMENSIONS
100
AcDbLine
 62
2
  6
CONTINUOUS
 10
8.0151335849
 20
8.5294746686
 11
8.0151335849
 21
9.3138458768
  0
LINE
  5
284
100
AcDbEntity
  8
DIMENSIONS
100
AcDbLine
 62
2
  6
CONTINUOUS
 10
7.9001335849
 20
8.5194746686
 11
7.9001335849
 21
9.3138458768
  0
LINE
  5
285
100
AcDbEntity
  8
DIMENSIONS
100
AcDbLine
 62
2
  6
CONTINUOUS
 10
8.0151335849
 20
9.1888458768
 11
8.4760897897
 21
9.1888458768
  0
LINE
  5
286
100
AcDbEntity
  8
DIMENSIONS
100
AcDbLine
 62
2
  6
CONTINUOUS
 10
7.9001335849
 20
9.1888458768
 11
7.5401335849
 21
9.1888458768
  0
INSERT
  5
287
100
AcDbEntity
  8
DIMENSIONS
100
AcDbBlockReference
 62
2
  6
CONTINUOUS
  2
_FILLED
 10
8.0151335849
 20
9.1888458768
 41
0.18
 42
0.18
 43
0.18
 50
180.0
  0
INSERT
  5
288
100
AcDbEntity
  8
DIMENSIONS
100
AcDbBlockReference
 62
2
  6
CONTINUOUS
  2
_FILLED
 10
7.9001335849
 20
9.1888458768
 41
0.18
 42
0.18
 43
0.18
  0
ENDBLK
  5
289
100
AcDbEntity
  8
0
  6
BYBLOCK
 62
0
100
AcDbBlockEnd
  0
BLOCK
  5
28A
100
AcDbEntity
  8
0
100
AcDbBlockBegin
  2
*T1
 70
1
 10
0.0
 20
0.0
  3
*T1
  1

  0
LINE
  5
28B
100
AcDbEntity
  8
0
100
AcDbLine
 62
2
  6
CONTINUOUS
 10
0.0
 20
0.0
 11
3.375
 21
0.0
  0
LINE
  5
28C
100
AcDbEntity
  8
0
100
AcDbLine
 62
2
  6
CONTINUOUS
 10
0.0
 20
0.0
 11
0.0
 21
-0.313
  0
LINE
  5
28D
100
AcDbEntity
  8
0
100
AcDbLine
 62
2
  6
CONTINUOUS
 10
0.0
 20
-0.313
 11
3.375
 21
-0.313
  0
LINE
  5
28E
100
AcDbEntity
  8
0
100
AcDbLine
 62
2
  6
CONTINUOUS
 10
3.375
 20
0.0
 11
3.375
 21
-0.313
  0
MTEXT
  5
28F
100
AcDbEntity
  8
DETAIL
100
AcDbMText
 62
2
  6
CONTINUOUS
  7
STANDARD
 71
1
 72
1
 10
0.0625
 20
-0.078125
 30
0.0
 11
1.0
 21
0.0
 31
0.0
 73
2
 44
0.9
  1
    COPYRIGHT    2022
 40
0.053
 41
1.7808
  0
ENDBLK
  5
290
100
AcDbEntity
  8
0
  6
BYBLOCK
 62
0
100
AcDbBlockEnd
  0
BLOCK
  5
291
100
AcDbEntity
  8
0
100
AcDbBlockBegin
  2
*T2
 70
1
 10
0.0
 20
0.0
  3
*T2
  1

  0
LINE
  5
292
100
AcDbEntity
  8
0
100
AcDbLine
 62
2
  6
CONTINUOUS
 10
0.0
 20
0.0
 11
3.6798
 21
0.0
  0
LINE
  5
293
100
AcDbEntity
  8
0
100
AcDbLine
 62
2
  6
CONTINUOUS
 10
0.0
 20
0.0
 11
0.0
 21
-1.709
  0
LINE
  5
294
100
AcDbEntity
  8
0
100
AcDbLine
 62
2
  6
CONTINUOUS
 10
0.0
 20
-1.14
 11
3.6798
 21
-1.14
  0
LINE
  5
295
100
AcDbEntity
  8
0
100
AcDbLine
 62
2
  6
CONTINUOUS
 10
0.0
 20
-1.569
 11
3.6798
 21
-1.569
  0
LINE
  5
296
100
AcDbEntity
  8
0
100
AcDbLine
 62
2
  6
CONTINUOUS
 10
0.0
 20
-1.709
 11
3.6798
 21
-1.709
  0
LINE
  5
297
100
AcDbEntity
  8
0
100
AcDbLine
 62
2
  6
CONTINUOUS
 10
0.3688
 20
-1.14
 11
0.3688
 21
-1.569
  0
LINE
  5
298
100
AcDbEntity
  8
0
100
AcDbLine
 62
2
  6
CONTINUOUS
 10
0.6998
 20
-1.569
 11
0.6998
 21
-1.709
  0
LINE
  5
299
100
AcDbEntity
  8
0
100
AcDbLine
 62
2
  6
CONTINUOUS
 10
1.0808
 20
-1.14
 11
1.0808
 21
-1.569
  0
LINE
  5
29A
100
AcDbEntity
  8
0
100
AcDbLine
 62
2
  6
CONTINUOUS
 10
2.6798
 20
-1.569
 11
2.6798
 21
-1.709
  0
LINE
  5
29B
100
AcDbEntity
  8
0
100
AcDbLine
 62
2
  6
CONTINUOUS
 10
3.6798
 20
0.0
 11
3.6798
 21
-1.709
  0
MTEXT
  5
29C
100
AcDbEntity
  8
NOTE
100
AcDbMText
 62
7
  6
CONTINUOUS
  7
STANDARD
 71
2
 72
1
 10
1.8399
 20
-0.6091875
 30
0.0
 11
1.0
 21
0.0
 31
0.0
 73
2
 44
0.9
  1
PXI-8430/8431\P4 CHANNEL
 40
0.15625
 41
3.25
  0
MTEXT
  5
29D
100
AcDbEntity
  8
NOTE
100
AcDbMText
 62
7
  6
CONTINUOUS
  7
STANDARD
 71
2
 72
1
 10
2.3803
 20
-1.338875
 30
0.0
 11
1.0
 21
0.0
 31
0.0
 73
2
 44
0.9
  1
11/11/2022 
 40
0.15625
 41
2.75
  0
MTEXT
  5
29E
100
AcDbEntity
  8
DETAIL
100
AcDbMText
 62
7
  6
CONTINUOUS
  7
STANDARD
 71
3
 72
1
 10
0.6373
 20
-1.589
 30
0.0
 11
1.0
 21
0.0
 31
0.0
 73
2
 44
0.9
  1
1/1
 40
0.1
 41
0.48
  0
MTEXT
  5
29F
100
AcDbEntity
  8
DETAIL
100
AcDbMText
 62
7
  6
CONTINUOUS
  7
STANDARD
 71
1
 72
1
 10
2.7423
 20
-1.589
 30
0.0
 11
1.0
 21
0.0
 31
0.0
 73
2
 44
0.9
  1
    1    1
 40
0.1
 41
1.6
  0
ENDBLK
  5
2A0
100
AcDbEntity
  8
0
  6
BYBLOCK
 62
0
100
AcDbBlockEnd
  0
BLOCK
  5
2A1
100
AcDbEntity
  8
0
100
AcDbBlockBegin
  2
*T3
 70
1
 10
0.0
 20
0.0
  3
*T3
  1

  0
LINE
  5
2A2
100
AcDbEntity
  8
0
100
AcDbLine
 62
2
  6
CONTINUOUS
 10
0.0
 20
0.0
 11
1.0
 21
0.0
  0
LINE
  5
2A3
100
AcDbEntity
  8
0
100
AcDbLine
 62
2
  6
CONTINUOUS
 10
0.0
 20
0.0
 11
0.0
 21
-0.0005
  0
LINE
  5
2A4
100
AcDbEntity
  8
0
100
AcDbLine
 62
2
  6
CONTINUOUS
 10
0.0
 20
-0.0005
 11
1.0
 21
-0.0005
  0
LINE
  5
2A5
100
AcDbEntity
  8
0
100
AcDbLine
 62
2
  6
CONTINUOUS
 10
1.0
 20
0.0
 11
1.0
 21
-0.0005
  0
MTEXT
  5
2A6
100
AcDbEntity
  8
DETAIL
100
AcDbMText
 62
2
  6
CONTINUOUS
  7
STANDARD
 71
3
 72
1
 10
0.9375
 20
-0.078125
 30
0.0
 11
1.0
 21
0.0
 31
0.0
 73
2
 44
0.9
  1
CU_PXIE-8430-31-4CH
 40
0.057262
 41
1.7407648
  0
ENDBLK
  5
2A7
100
AcDbEntity
  8
0
  6
BYBLOCK
 62
0
100
AcDbBlockEnd
  0
ENDSEC
  0
SECTION
  2
ENTITIES
  0
SPLINE
  5
2A8
100
AcDbEntity
  8
0
100
AcDbSpline
 62
2
  6
CONTINUOUS
 70
2
 71
3
 72
26
 73
22
 74
0
 42
0.0000001
 43
0.0000001
 44
0.0000000001
 40
0.0
 40
0.0
 40
0.0
 40
0.0
 40
1.0
 40
1.0
 40
1.0
 40
2.0
 40
2.0
 40
2.0
 40
3.0
 40
3.0
 40
3.0
 40
4.0
 40
4.0
 40
4.0
 40
5.0
 40
5.0
 40
5.0
 40
6.0
 40
6.0
 40
6.0
 40
7.0
 40
7.0
 40
7.0
 40
7.0
 10
13.27138341
 20
1.8953952
 30
0.0
 10
13.3078581345
 20
1.8953952
 30
0.0
 10
13.336736215
 20
1.8658902431
 30
0.0
 10
13.336736215
 20
1.82778885
 30
0.0
 10
13.336736215
 20
1.82778885
 30
0.0
 10
13.336736215
 20
1.699336785
 30
0.0
 10
13.336736215
 20
1.699336785
 30
0.0
 10
13.336736215
 20
1.699336785
 30
0.0
 10
13.27138341
 20
1.699336785
 30
0.0
 10
13.27138341
 20
1.699336785
 30
0.0
 10
13.27138341
 20
1.699336785
 30
0.0
 10
13.27138341
 20
1.830042395
 30
0.0
 10
13.27138341
 20
1.830042395
 30
0.0
 10
13.27138341
 20
1.830042395
 30
0.0
 10
13.206030605
 20
1.830042395
 30
0.0
 10
13.206030605
 20
1.830042395
 30
0.0
 10
13.206030605
 20
1.830042395
 30
0.0
 10
13.206030605
 20
1.8953952
 30
0.0
 10
13.206030605
 20
1.8953952
 30
0.0
 10
13.206030605
 20
1.8953952
 30
0.0
 10
13.27138341
 20
1.8953952
 30
0.0
 10
13.27138341
 20
1.8953952
 30
0.0
  0
SPLINE
  5
2A9
100
AcDbEntity
  8
0
100
AcDbSpline
 62
2
  6
CONTINUOUS
 70
2
 71
3
 72
17
 73
13
 74
0
 42
0.0000001
 43
0.0000001
 44
0.0000000001
 40
0.0
 40
0.0
 40
0.0
 40
0.0
 40
1.0
 40
1.0
 40
1.0
 40
2.0
 40
2.0
 40
2.0
 40
3.0
 40
3.0
 40
3.0
 40
4.0
 40
4.0
 40
4.0
 40
4.0
 10
13.43814574
 20
1.8953952
 30
0.0
 10
13.43814574
 20
1.8953952
 30
0.0
 10
13.43814574
 20
1.699336785
 30
0.0
 10
13.43814574
 20
1.699336785
 30
0.0
 10
13.4015315842
 20
1.699336785
 30
0.0
 10
13.372792935
 20
1.7293642724
 30
0.0
 10
13.372792935
 20
1.76468959
 30
0.0
 10
13.372792935
 20
1.76468959
 30
0.0
 10
13.372792935
 20
1.8953952
 30
0.0
 10
13.372792935
 20
1.8953952
 30
0.0
 10
13.372792935
 20
1.8953952
 30
0.0
 10
13.43814574
 20
1.8953952
 30
0.0
 10
13.43814574
 20
1.8953952
 30
0.0
  0
MTEXT
  5
2AA
100
AcDbEntity
  8
0
100
AcDbMText
 62
7
  6
CONTINUOUS
  7
STANDARD
 71
2
 72
1
 10
13.249725
 20
0.636084
 30
0.0
 11
1.0
 21
0.0
 31
0.0
 73
2
 44
0.9
  1
B
 40
0.15625
 41
0.125
  0
MTEXT
  5
2AB
100
AcDbEntity
  8
0
100
AcDbMText
 62
7
  6
CONTINUOUS
  7
STANDARD
 71
2
 72
1
 10
12.275406648
 20
1.4542432371
 30
0.0
 11
1.0
 21
0.0
 31
0.0
 73
2
 44
0.9
  1
DO NOT SCALE DRAWING
 40
0.095
 41
1.52
  0
MTEXT
  5
2AC
100
AcDbEntity
  8
0
100
AcDbMText
 62
2
  6
CONTINUOUS
  7
TEXTSTYLE_2
 71
2
 72
1
 10
12.274621
 20
1.754789
 30
0.0
 11
1.0
 21
0.0
 31
0.0
 73
2
 44
0.9
  1
AND [INCHES].
 40
0.053254
 41
0.692302
  0
MTEXT
  5
2AD
100
AcDbEntity
  8
0
100
AcDbMText
 62
2
  6
CONTINUOUS
  7
TEXTSTYLE_2
 71
2
 72
1
 10
12.268822
 20
1.84654
 30
0.0
 11
1.0
 21
0.0
 31
0.0
 73
2
 44
0.9
  1
DIMENSIONS ARE IN MILLIMETERS
 40
0.053254
 41
1.544366
  0
MTEXT
  5
2AE
100
AcDbEntity
  8
0
100
AcDbMText
 62
2
  6
CONTINUOUS
  7
TEXTSTYLE_2
 71
2
 72
1
 10
12.268822
 20
1.935171
 30
0.0
 11
1.0
 21
0.0
 31
0.0
 73
2
 44
0.9
  1
UNLESS OTHERWISE SPECIFIED
 40
0.053254
 41
1.384604
  0
MTEXT
  5
2AF
100
AcDbEntity
  8
0
100
AcDbMText
 62
2
  6
CONTINUOUS
  7
TEXTSTYLE_2
 71
1
 72
1
 10
14.176497
 20
0.802692
 30
0.0
 11
1.0
 21
0.0
 31
0.0
 73
2
 44
0.9
  1
MM/DD/YYYY
 40
0.053254
 41
0.53254
  0
MTEXT
  5
2B0
100
AcDbEntity
  8
0
100
AcDbMText
 62
2
  6
CONTINUOUS
  7
TEXTSTYLE_2
 71
1
 72
1
 10
13.145085
 20
0.802692
 30
0.0
 11
1.0
 21
0.0
 31
0.0
 73
2
 44
0.9
  1
SIZE
 40
0.053254
 41
0.213016
  0
MTEXT
  5
2B1
100
AcDbEntity
  8
0
100
AcDbMText
 62
7
  6
CONTINUOUS
  7
TEXTSTYLE_2
 71
1
 72
1
 10
13.436331
 20
0.629757
 30
0.0
 11
1.0
 21
0.0
 31
0.0
 73
2
 44
0.9
  1
7U296
 40
0.143155
 41
0.715775
  0
MTEXT
  5
2B2
100
AcDbEntity
  8
0
100
AcDbMText
 62
2
  6
CONTINUOUS
  7
TEXTSTYLE_3
 71
2
 72
1
 10
13.797783
 20
0.802692
 30
0.0
 11
1.0
 21
0.0
 31
0.0
 73
2
 44
0.9
  1
CODE IDENT NO.
 40
0.053254
 41
0.7082782
  0
MTEXT
  5
2B3
100
AcDbEntity
  8
0
100
AcDbMText
 62
2
  6
CONTINUOUS
  7
TEXTSTYLE_2
 71
1
 72
1
 10
13.3473507564
 20
1.5929525887
 30
0.0
 11
1.0
 21
0.0
 31
0.0
 73
2
 44
0.9
  1
TITLE
 40
0.053254
 41
0.26627
  0
MTEXT
  5
2B4
100
AcDbEntity
  8
0
100
AcDbMText
 62
2
  6
CONTINUOUS
  7
TEXTSTYLE_2
 71
1
 72
1
 10
15.732682
 20
1.744072
 30
0.0
 11
1.0
 21
0.0
 31
0.0
 73
2
 44
0.9
  1
AUSTIN, TEXAS
 40
0.069617
 41
0.905021
  0
MTEXT
  5
2B5
100
AcDbEntity
  8
0
100
AcDbMText
 62
2
  6
CONTINUOUS
  7
TEXTSTYLE_2
 71
1
 72
1
 10
13.090377
 20
0.358517
 30
0.0
 11
1.0
 21
0.0
 31
0.0
 73
2
 44
0.9
  1
SCALE:
 40
0.053254
 41
0.319524
  0
MTEXT
  5
2B6
100
AcDbEntity
  8
0
100
AcDbMText
 62
2
  6
CONTINUOUS
  7
TEXTSTYLE_2
 71
1
 72
1
 10
15.789224
 20
0.362499
 30
0.0
 11
1.0
 21
0.0
 31
0.0
 73
2
 44
0.9
  1
SHEET    OF
 40
0.057262
 41
0.629882
  0
MTEXT
  5
2B7
100
AcDbEntity
  8
0
100
AcDbMText
 62
2
  6
CONTINUOUS
  7
STANDARD
 71
1
 72
1
 10
11.5563608323
 20
1.2384285806
 30
0.0
 11
1.0
 21
0.0
 31
0.0
 73
2
 44
0.9
  1
THIRD ANGLE PROJECTION
 40
0.08
 41
1.408
  0
MTEXT
  5
2B8
100
AcDbEntity
  8
0
100
AcDbMText
 62
7
  6
CONTINUOUS
  7
STANDARD
 71
2
 72
1
 10
14.8815019183
 20
2.220013061
 30
0.0
 11
1.0
 21
0.0
 31
0.0
 73
2
 44
0.9
  1
CUSTOMER DRAWING
 40
0.15625
 41
2.0
  0
MTEXT
  5
2B9
100
AcDbEntity
  8
0
100
AcDbMText
 62
2
  6
CONTINUOUS
  7
STANDARD
 71
1
 72
1
 10
0.5582879959
 20
10.5546479011
 30
0.0
 11
1.0
 21
0.0
 31
0.0
 73
2
 44
0.9
  1
NATIONAL INSTRUMENTS CORPORATION AND ITS LICENSORS. ALL RIGHTS RESERVED
 40
0.053
 41
3.0104
  0
MTEXT
  5
2BA
100
AcDbEntity
  8
0
100
AcDbMText
 62
2
  6
CONTINUOUS
  7
STANDARD
 71
1
 72
1
 10
0.9460128297
 20
10.6893269917
 30
0.0
 11
1.0
 21
0.0
 31
0.0
 73
2
 44
0.9
  1
c
 40
0.053
 41
0.0424
  0
MTEXT
  5
2BB
100
AcDbEntity
  8
0
100
AcDbMText
 62
2
  6
CONTINUOUS
  7
TEXTSTYLE_2
 71
1
 72
1
 10
16.217682
 20
1.919072
 30
0.0
 11
1.0
 21
0.0
 31
0.0
 73
2
 44
0.9
  1
NI.COM
 40
0.069617
 41
0.417702
  0
INSERT
  5
2BC
100
AcDbEntity
  8
0
100
AcDbBlockReference
 62
2
  6
CONTINUOUS
  2
CUSTOM_NOTE_BL0
 10
3.6750529031
 20
1.3123857822
  0
INSERT
  5
2BD
100
AcDbEntity
  8
0
100
AcDbBlockReference
 62
2
  6
CONTINUOUS
  2
METRIC_BL1
 10
12.2427668563
 20
2.2045347211
  0
DIMENSION
  5
2BE
100
AcDbEntity
  8
DIMENSIONS
100
AcDbDimension
 62
2
  6
CONTINUOUS
  2
*D0
 10
4.1270250051
 20
3.5240646686
 11
2.7476746114
 21
4.8119746686
 70
166
 71
3
 72
2
 41
0.9
 42
32.712914
  3
DIMSTYLE_1
100
AcDbOrdinateDimension
 13
4.1595250051
 23
4.8119746686
 14
3.3726746114
 24
4.8119746686
  0
DIMENSION
  5
2BF
100
AcDbEntity
  8
DIMENSIONS
100
AcDbDimension
 62
2
  6
CONTINUOUS
  2
*D1
 10
4.1270250051
 20
3.5240646686
 11
2.8476746114
 21
3.5240646686
 70
166
 71
3
 72
2
 41
0.9
  3
DIMSTYLE_2
100
AcDbOrdinateDimension
 13
4.0645250051
 23
3.5240646686
 14
3.3726746114
 24
3.5240646686
  0
DIMENSION
  5
2C0
100
AcDbEntity
  8
DIMENSIONS
100
AcDbDimension
 62
2
  6
CONTINUOUS
  2
*D2
 10
4.2220250051
 20
3.5240646686
 11
2.7476746114
 21
5.6069746686
 70
166
 71
3
 72
2
 41
0.9
 42
52.905914
  3
DIMSTYLE_1
100
AcDbOrdinateDimension
 13
4.1595250051
 23
5.6069746686
 14
3.3726746114
 24
5.6069746686
  0
DIMENSION
  5
2C1
100
AcDbEntity
  8
DIMENSIONS
100
AcDbDimension
 62
2
  6
CONTINUOUS
  2
*D3
 10
4.2220250051
 20
3.5240646686
 11
2.7476746114
 21
6.4019746686
 70
166
 71
3
 72
2
 41
0.9
 42
73.098914
  3
DIMSTYLE_1
100
AcDbOrdinateDimension
 13
4.1595250051
 23
6.4019746686
 14
3.3726746114
 24
6.4019746686
  0
DIMENSION
  5
2C2
100
AcDbEntity
  8
DIMENSIONS
100
AcDbDimension
 62
2
  6
CONTINUOUS
  2
*D4
 10
4.2220250051
 20
3.5240646686
 11
2.7476746114
 21
7.1969746686
 70
166
 71
3
 72
2
 41
0.9
 42
93.291914
  3
DIMSTYLE_1
100
AcDbOrdinateDimension
 13
4.1595250051
 23
7.1969746686
 14
3.3726746114
 24
7.1969746686
  0
DIMENSION
  5
2C3
100
AcDbEntity
  8
DIMENSIONS
100
AcDbDimension
 62
2
  6
CONTINUOUS
  2
*D5
 10
4.1175250051
 20
3.5240646686
 11
2.6976746114
 21
8.3449746686
 70
166
 71
3
 72
2
 41
0.9
 42
122.451114
  3
DIMSTYLE_1
100
AcDbOrdinateDimension
 13
4.0550250051
 23
8.3449746686
 14
3.3726746114
 24
8.3449746686
  0
DIMENSION
  5
2C4
100
AcDbEntity
  8
DIMENSIONS
100
AcDbDimension
 62
2
  6
CONTINUOUS
  2
*D6
 10
4.0670250051
 20
3.5240646686
 11
2.6976746114
 21
8.7072908716
 70
166
 71
3
 72
2
 41
0.9
 42
125.549914
  3
DIMSTYLE_1
100
AcDbOrdinateDimension
 13
4.0045250051
 23
8.4669746686
 14
3.3726746114
 24
8.7072908716
  0
DIMENSION
  5
2C5
100
AcDbEntity
  8
DIMENSIONS
100
AcDbDimension
 62
2
  6
CONTINUOUS
  2
*D7
 10
4.3610250051
 20
8.5884746686
 11
4.8550250051
 21
9.7294746686
 70
230
 71
1
 72
2
 41
0.9
 42
12.5476
  3
DIMSTYLE_1
100
AcDbOrdinateDimension
 13
4.8550250051
 23
8.5294746686
 14
4.8550250051
 24
9.1544746686
  0
DIMENSION
  5
2C6
100
AcDbEntity
  8
DIMENSIONS
100
AcDbDimension
 62
2
  6
CONTINUOUS
  2
*D8
 10
4.3610250051
 20
8.5884746686
 11
4.3610250051
 21
9.8294746686
 70
230
 71
1
 72
2
 41
0.9
  1
2X <>
  3
DIMSTYLE_2
100
AcDbOrdinateDimension
 13
4.3610250051
 23
8.6509746686
 14
4.3610250051
 24
9.1544746686
  0
DIMENSION
  5
2C7
100
AcDbEntity
  8
DIMENSIONS
100
AcDbDimension
 62
2
  6
CONTINUOUS
  2
*D9
 10
4.3610250051
 20
8.4669746686
 11
4.0670250051
 21
9.6794746686
 70
230
 71
1
 72
2
 41
0.9
 42
7.4676
  3
DIMSTYLE_1
100
AcDbOrdinateDimension
 13
4.0670250051
 23
8.5294746686
 14
4.0670250051
 24
9.1544746686
  0
DIMENSION
  5
2C8
100
AcDbEntity
  8
DIMENSIONS
100
AcDbDimension
 62
2
  6
CONTINUOUS
  2
*D10
 10
4.3610250051
 20
7.4619746686
 11
4.6327158324
 21
9.8294746686
 70
230
 71
1
 72
2
 41
0.9
 42
2.54
  1
4X <>
  3
DIMSTYLE_1
100
AcDbOrdinateDimension
 13
4.4610250051
 23
7.5244746686
 14
4.6327158324
 24
9.1544746686
  0
DIMENSION
  5
2C9
100
AcDbEntity
  8
DIMENSIONS
100
AcDbDimension
 62
2
  6
CONTINUOUS
  2
*D11
 10
14.4151335849
 20
2.9290646686
 11
11.2141335849
 21
2.9290646686
 70
160
 71
2
 72
2
 41
0.9
 42
162.6108
  3
DIMSTYLE_3
100
AcDbAlignedDimension
 13
8.0131335849
 23
3.3867747901
 14
14.4151335849
 24
4.0408368143
100
AcDbRotatedDimension
  0
DIMENSION
  5
2CA
100
AcDbEntity
  8
DIMENSIONS
100
AcDbDimension
 62
2
  6
CONTINUOUS
  2
*D12
 10
15.7888040496
 20
3.4020646686
 11
15.7888040496
 21
5.9345196686
 70
160
 71
2
 72
2
 41
0.9
 42
128.648714
  3
DIMSTYLE_3
100
AcDbAlignedDimension
 13
7.9881335849
 23
8.4669746686
 14
7.9641335849
 24
3.4020646686
 50
270.0
100
AcDbRotatedDimension
  0
DIMENSION
  5
2CB
100
AcDbEntity
  8
DIMENSIONS
100
AcDbDimension
 62
2
  6
CONTINUOUS
  2
*D13
 10
7.9001335849
 20
9.1888458768
 11
9.0010897897
 21
9.1888458768
 70
160
 71
1
 72
2
 41
0.9
 42
2.921
  3
DIMSTYLE_3
100
AcDbAlignedDimension
 13
8.0151335849
 23
8.4669746686
 14
7.9001335849
 24
8.4569746686
 50
180.0
100
AcDbRotatedDimension
  0
ACAD_TABLE
  5
2CC
100
AcDbEntity
  8
0
 62
2
  6
CONTINUOUS
100
AcDbBlockReference
  2
*T1
 10
0.2500058658
 20
10.7585991628
 30
0.0
100
AcDbTable
342
       697
343
227
 11
1.0
 21
0.0
 31
0.0
 90
22
 91
1
 92
1
 93
0
 94
0
 95
0
 96
0
141
0.313
142
3.375
171
1
172
0
173
0
174
0
175
1
176
1
 91
33
178
0
145
0.0
301
CELL_VALUE
 90
4
  1
    COPYRIGHT    2022
304
ACVALUE_END
170
1
140
0.053
  0
ACAD_TABLE
  5
2CD
100
AcDbEntity
  8
0
 62
2
  6
CONTINUOUS
100
AcDbBlockReference
  2
*T2
 10
13.0652424456
 20
1.9695308512
 30
0.0
100
AcDbTable
342
       697
343
228
 11
1.0
 21
0.0
 31
0.0
 90
22
 91
5
 92
6
 93
16
 94
0
 95
0
 96
0
 41
0.0
141
0.469
141
0.671
141
0.125
141
0.304
141
0.14
142
0.3688
142
0.331
142
0.381
142
1.599
142
0.571
142
0.429
171
1
172
0
173
0
174
0
175
6
176
1
 91
33
178
0
145
0.0
301
CELL_VALUE
 90
4
  1
 
304
ACVALUE_END
170
1
140
0.15625
171
1
172
0
173
1
174
0
175
1
176
1
 91
1
178
0
145
0.0
170
1
171
1
172
0
173
1
174
0
175
1
176
1
 91
1
178
0
145
0.0
170
1
171
1
172
0
173
1
174
0
175
1
176
1
 91
1
178
0
145
0.0
170
1
171
1
172
0
173
1
174
0
175
1
176
1
 91
1
178
0
145
0.0
170
1
171
1
172
0
173
1
174
0
175
1
176
1
 91
1
178
0
145
0.0
170
1
171
1
172
0
173
0
174
0
175
6
176
1
 91
41
178
0
145
0.0
301
CELL_VALUE
 90
4
  1
PXI-8430/8431\P4 CHANNEL
304
ACVALUE_END
170
5
140
0.15625
 64
7
171
1
172
0
173
1
174
0
175
1
176
1
 91
1
178
0
145
0.0
170
1
171
1
172
0
173
1
174
0
175
1
176
1
 91
1
178
0
145
0.0
170
1
171
1
172
0
173
1
174
0
175
1
176
1
 91
1
178
0
145
0.0
170
1
171
1
172
0
173
1
174
0
175
1
176
1
 91
1
178
0
145
0.0
170
1
171
1
172
0
173
1
174
0
175
1
176
1
 91
1
178
0
145
0.0
170
1
171
1
172
0
173
0
174
0
175
1
176
1
 91
33
178
0
145
0.0
301
CELL_VALUE
 90
4
  1
 
304
ACVALUE_END
170
1
140
0.15625
171
1
172
0
173
0
174
0
175
2
176
1
 91
33
178
0
145
0.0
301
CELL_VALUE
 90
4
  1
 
304
ACVALUE_END
170
1
140
0.15625
171
1
172
0
173
1
174
0
175
1
176
1
 91
1
178
0
145
0.0
170
1
171
1
172
0
173
0
174
0
175
3
176
1
 91
33
178
0
145
0.0
301
CELL_VALUE
 90
4
  1
 
304
ACVALUE_END
170
1
140
0.15625
171
1
172
0
173
1
174
0
175
1
176
1
 91
1
178
0
145
0.0
170
1
171
1
172
0
173
1
174
0
175
1
176
1
 91
1
178
0
145
0.0
170
1
171
1
172
0
173
0
174
0
175
1
176
1
 91
33
178
0
145
0.0
301
CELL_VALUE
 90
4
  1
 
304
ACVALUE_END
170
1
140
0.15625
171
1
172
0
173
0
174
0
175
2
176
1
 91
33
178
0
145
0.0
301
CELL_VALUE
 90
4
  1
 
304
ACVALUE_END
170
1
140
0.15625
171
1
172
0
173
1
174
0
175
1
176
1
 91
1
178
0
145
0.0
170
1
171
1
172
0
173
0
174
0
175
3
176
1
 91
41
178
0
145
0.0
301
CELL_VALUE
 90
4
  1
11/11/2022 
304
ACVALUE_END
170
5
140
0.15625
 64
7
171
1
172
0
173
1
174
0
175
1
176
1
 91
1
178
0
145
0.0
170
1
171
1
172
0
173
1
174
0
175
1
176
1
 91
1
178
0
145
0.0
170
1
171
1
172
0
173
0
174
0
175
2
176
1
 91
41
178
0
145
0.0
301
CELL_VALUE
 90
4
  1
1/1
304
ACVALUE_END
170
6
140
0.1
 64
7
171
1
172
0
173
1
174
0
175
1
176
1
 91
1
178
0
145
0.0
170
1
171
1
172
0
173
0
174
0
175
2
176
1
 91
33
178
0
145
0.0
301
CELL_VALUE
 90
4
  1
 
304
ACVALUE_END
170
1
140
0.15625
171
1
172
0
173
1
174
0
175
1
176
1
 91
1
178
0
145
0.0
170
1
171
1
172
0
173
0
174
0
175
2
176
1
 91
41
178
0
145
0.0
301
CELL_VALUE
 90
4
  1
    1    1
304
ACVALUE_END
170
4
140
0.1
 64
7
171
1
172
0
173
1
174
0
175
1
176
1
 91
1
178
0
145
0.0
170
1
  0
ACAD_TABLE
  5
2CE
100
AcDbEntity
  8
0
 62
2
  6
CONTINUOUS
100
AcDbBlockReference
  2
*T3
 10
15.7461638083
 20
0.2607424503
 30
0.0
100
AcDbTable
342
       697
343
229
 11
1.0
 21
0.0
 31
0.0
 90
22
 91
1
 92
1
 93
16
 94
0
 95
0
 96
0
 41
0.0
141
0.0005
142
1.0
171
1
172
0
173
0
174
0
175
1
176
1
 91
33
178
0
145
0.0
301
CELL_VALUE
 90
4
  1
CU_PXIE-8430-31-4CH
304
ACVALUE_END
170
3
140
0.057262
  0
LEADER
  5
2CF
100
AcDbEntity
  8
DETAIL
100
AcDbLeader
 62
2
  6
CONTINUOUS
  3
STANDARD
 71
1
 72
0
 73
0
 75
0
 40
0.125
 41
1.4
 76
3
 10
4.6850250051
 20
7.2167786508
 30
0.0
 10
5.3649452447
 20
7.8346135578
 30
0.0
 10
5.5449452447
 20
7.8346135578
 30
0.0
340
2D0
1001
ACAD
1000
DSTYLE
1002
{
1070
77
1070
0
1002
}
  0
MTEXT
  5
2D0
102
{ACAD_REACTORS
330
2CF
102
}
100
AcDbEntity
  8
DETAIL
100
AcDbMText
 62
2
  6
CONTINUOUS
  7
STANDARD
 71
1
 72
1
 10
5.5449452447
 20
7.8971135578
 30
0.0
 11
1.0
 21
0.0
 31
0.0
 73
2
 44
0.9
  1
4X SINGLE PORT\P   ETHERNET
 40
0.125
 41
1.4
  0
INSERT
  5
2D1
100
AcDbEntity
  8
DETAIL
100
AcDbBlockReference
 62
2
  6
CONTINUOUS
  2
NOTES_HEADER_BL2
 10
3.1215
 20
0.9375
  0
LWPOLYLINE
  5
2D2
100
AcDbEntity
  8
0
100
AcDbPolyline
 62
7
  6
CONTINUOUS
 90
2
 70
0
 43
0.0200000008
 10
0.25
 20
10.758589
 10
0.25
 20
0.258589
  0
LINE
  5
2D3
100
AcDbEntity
  8
0
100
AcDbLine
 62
7
  6
CONTINUOUS
 10
12.3962658799
 20
0.7462095293
 11
12.8357572221
 21
0.8589530402
  0
LWPOLYLINE
  5
2D4
100
AcDbEntity
  8
0
100
AcDbPolyline
 62
7
  6
CONTINUOUS
 90
2
 70
0
 43
0.0200000008
 10
0.25
 20
0.258589
 10
16.75
 20
0.258589
  0
LINE
  5
2D5
100
AcDbEntity
  8
0
100
AcDbLine
 62
2
  6
CONTINUOUS
 10
11.6146008393
 20
0.6418595933
 11
11.802287918
 21
0.6418595933
  0
LINE
  5
2D6
100
AcDbEntity
  8
0
100
AcDbLine
 62
2
  6
CONTINUOUS
 10
11.8335379479
 20
0.6418595933
 11
11.8960380076
 21
0.6418595933
  0
LINE
  5
2D7
100
AcDbEntity
  8
0
100
AcDbLine
 62
2
  6
CONTINUOUS
 10
11.9272880375
 20
0.6418595933
 11
12.557543179
 21
0.6418595933
  0
LINE
  5
2D8
100
AcDbEntity
  8
0
100
AcDbLine
 62
2
  6
CONTINUOUS
 10
12.5887932089
 20
0.6418595933
 11
12.6512932686
 21
0.6418595933
  0
LINE
  5
2D9
100
AcDbEntity
  8
0
100
AcDbLine
 62
2
  6
CONTINUOUS
 10
12.6825432985
 20
0.6418595933
 11
12.8982572819
 21
0.6418595933
  0
LINE
  5
2DA
100
AcDbEntity
  8
0
100
AcDbLine
 62
2
  6
CONTINUOUS
 10
13.065325
 20
1.077557
 11
11.482032
 21
1.077557
  0
LINE
  5
2DB
100
AcDbEntity
  8
0
100
AcDbLine
 62
2
  6
CONTINUOUS
 10
11.482032
 20
1.326524
 11
13.065325
 21
1.326524
  0
LINE
  5
2DC
100
AcDbEntity
  8
0
100
AcDbLine
 62
2
  6
CONTINUOUS
 10
13.065325
 20
1.632876
 11
16.750025
 21
1.632876
  0
LINE
  5
2DD
100
AcDbEntity
  8
0
100
AcDbLine
 62
2
  6
CONTINUOUS
 10
13.206030605
 20
1.699336785
 11
13.1406778
 21
1.699336785
  0
LINE
  5
2DE
100
AcDbEntity
  8
0
100
AcDbLine
 62
2
  6
CONTINUOUS
 10
13.1406778
 20
1.830042395
 11
13.206030605
 21
1.830042395
  0
LWPOLYLINE
  5
2DF
100
AcDbEntity
  8
0
100
AcDbPolyline
 62
7
  6
CONTINUOUS
 90
2
 70
0
 43
0.0200000008
 10
11.4718052732
 20
1.9701650509
 10
16.75
 20
1.970721
  0
LINE
  5
2E0
100
AcDbEntity
  8
0
100
AcDbLine
 62
7
  6
CONTINUOUS
 10
12.3962658799
 20
0.5361608992
 11
12.8357572221
 21
0.4247609248
  0
LWPOLYLINE
  5
2E1
100
AcDbEntity
  8
0
100
AcDbPolyline
 62
7
  6
CONTINUOUS
 90
2
 70
0
 43
0.0200000008
 10
11.482032
 20
0.25
 10
11.482032
 20
1.970721
  0
LINE
  5
2E2
100
AcDbEntity
  8
0
100
AcDbLine
 62
2
  6
CONTINUOUS
 10
11.8647879778
 20
0.3865620904
 11
11.8647879778
 21
0.5793595336
  0
LINE
  5
2E3
100
AcDbEntity
  8
0
100
AcDbLine
 62
2
  6
CONTINUOUS
 10
11.8647879778
 20
0.6106095634
 11
11.8647879778
 21
0.6731096232
  0
LINE
  5
2E4
100
AcDbEntity
  8
0
100
AcDbLine
 62
2
  6
CONTINUOUS
 10
11.8647879778
 20
0.704359653
 11
11.8647879778
 21
0.8911570904
  0
LINE
  5
2E5
100
AcDbEntity
  8
0
100
AcDbLine
 62
7
  6
CONTINUOUS
 10
12.3962658799
 20
0.5361608992
 11
12.3962658799
 21
0.7462095293
  0
LINE
  5
2E6
100
AcDbEntity
  8
0
100
AcDbLine
 62
7
  6
CONTINUOUS
 10
12.8357572221
 20
0.4247609248
 11
12.8357572221
 21
0.8589530402
  0
LWPOLYLINE
  5
2E7
100
AcDbEntity
  8
0
100
AcDbPolyline
 62
7
  6
CONTINUOUS
 90
2
 70
0
 43
0.0200000008
 10
13.065325
 20
1.970721
 10
13.065325
 20
0.258589
  0
LINE
  5
2E8
100
AcDbEntity
  8
0
100
AcDbLine
 62
2
  6
CONTINUOUS
 10
13.1406778
 20
1.699336785
 11
13.1406778
 21
1.830042395
  0
LINE
  5
2E9
100
AcDbEntity
  8
0
100
AcDbLine
 62
2
  6
CONTINUOUS
 10
13.206030605
 20
1.830042395
 11
13.206030605
 21
1.699336785
  0
LWPOLYLINE
  5
2EA
100
AcDbEntity
  8
0
100
AcDbPolyline
 62
7
  6
CONTINUOUS
 90
2
 70
0
 43
0.0200000008
 10
16.75
 20
10.758589
 10
0.25
 20
10.758589
  0
LINE
  5
2EB
100
AcDbEntity
  8
0
100
AcDbLine
 62
2
  6
CONTINUOUS
 10
13.1406778
 20
1.8298589931
 11
13.1408612019
 21
1.830042395
  0
LINE
  5
2EC
100
AcDbEntity
  8
0
100
AcDbLine
 62
2
  6
CONTINUOUS
 10
13.206030605
 20
1.8952117981
 11
13.2062140069
 21
1.8953952
  0
LINE
  5
2ED
100
AcDbEntity
  8
0
100
AcDbLine
 62
2
  6
CONTINUOUS
 10
13.1406778
 20
1.8284779251
 11
13.1422422699
 21
1.830042395
  0
LINE
  5
2EE
100
AcDbEntity
  8
0
100
AcDbLine
 62
2
  6
CONTINUOUS
 10
13.206030605
 20
1.8938307301
 11
13.2075950749
 21
1.8953952
  0
LINE
  5
2EF
100
AcDbEntity
  8
0
100
AcDbLine
 62
2
  6
CONTINUOUS
 10
13.1406778
 20
1.8270968572
 11
13.1436233378
 21
1.830042395
  0
LINE
  5
2F0
100
AcDbEntity
  8
0
100
AcDbLine
 62
2
  6
CONTINUOUS
 10
13.206030605
 20
1.8924496622
 11
13.2089761428
 21
1.8953952
  0
LINE
  5
2F1
100
AcDbEntity
  8
0
100
AcDbLine
 62
2
  6
CONTINUOUS
 10
13.1406778
 20
1.8257157893
 11
13.1450044057
 21
1.830042395
  0
LINE
  5
2F2
100
AcDbEntity
  8
0
100
AcDbLine
 62
2
  6
CONTINUOUS
 10
13.206030605
 20
1.8910685943
 11
13.2103572107
 21
1.8953952
  0
LINE
  5
2F3
100
AcDbEntity
  8
0
100
AcDbLine
 62
2
  6
CONTINUOUS
 10
13.1406778
 20
1.8243347213
 11
13.1463854737
 21
1.830042395
  0
LINE
  5
2F4
100
AcDbEntity
  8
0
100
AcDbLine
 62
2
  6
CONTINUOUS
 10
13.206030605
 20
1.8896875263
 11
13.2117382787
 21
1.8953952
  0
LINE
  5
2F5
100
AcDbEntity
  8
0
100
AcDbLine
 62
2
  6
CONTINUOUS
 10
13.1406778
 20
1.8229536534
 11
13.1477665416
 21
1.830042395
  0
LINE
  5
2F6
100
AcDbEntity
  8
0
100
AcDbLine
 62
2
  6
CONTINUOUS
 10
13.206030605
 20
1.8883064584
 11
13.2131193466
 21
1.8953952
  0
LINE
  5
2F7
100
AcDbEntity
  8
0
100
AcDbLine
 62
2
  6
CONTINUOUS
 10
13.1406778
 20
1.8215725855
 11
13.1491476095
 21
1.830042395
  0
LINE
  5
2F8
100
AcDbEntity
  8
0
100
AcDbLine
 62
2
  6
CONTINUOUS
 10
13.206030605
 20
1.8869253905
 11
13.2145004145
 21
1.8953952
  0
LINE
  5
2F9
100
AcDbEntity
  8
0
100
AcDbLine
 62
2
  6
CONTINUOUS
 10
13.1406778
 20
1.8201915175
 11
13.1505286775
 21
1.830042395
  0
LINE
  5
2FA
100
AcDbEntity
  8
0
100
AcDbLine
 62
2
  6
CONTINUOUS
 10
13.206030605
 20
1.8855443225
 11
13.2158814825
 21
1.8953952
  0
LINE
  5
2FB
100
AcDbEntity
  8
0
100
AcDbLine
 62
2
  6
CONTINUOUS
 10
13.1406778
 20
1.8188104496
 11
13.1519097454
 21
1.830042395
  0
LINE
  5
2FC
100
AcDbEntity
  8
0
100
AcDbLine
 62
2
  6
CONTINUOUS
 10
13.206030605
 20
1.8841632546
 11
13.2172625504
 21
1.8953952
  0
LINE
  5
2FD
100
AcDbEntity
  8
0
100
AcDbLine
 62
2
  6
CONTINUOUS
 10
13.1406778
 20
1.8174293817
 11
13.1532908133
 21
1.830042395
  0
LINE
  5
2FE
100
AcDbEntity
  8
0
100
AcDbLine
 62
2
  6
CONTINUOUS
 10
13.206030605
 20
1.8827821867
 11
13.2186436183
 21
1.8953952
  0
LINE
  5
2FF
100
AcDbEntity
  8
0
100
AcDbLine
 62
2
  6
CONTINUOUS
 10
13.1406778
 20
1.8160483138
 11
13.1546718812
 21
1.830042395
  0
LINE
  5
300
100
AcDbEntity
  8
0
100
AcDbLine
 62
2
  6
CONTINUOUS
 10
13.206030605
 20
1.8814011188
 11
13.2200246862
 21
1.8953952
  0
LINE
  5
301
100
AcDbEntity
  8
0
100
AcDbLine
 62
2
  6
CONTINUOUS
 10
13.1406778
 20
1.8146672458
 11
13.1560529492
 21
1.830042395
  0
LINE
  5
302
100
AcDbEntity
  8
0
100
AcDbLine
 62
2
  6
CONTINUOUS
 10
13.206030605
 20
1.8800200508
 11
13.2214057542
 21
1.8953952
  0
LINE
  5
303
100
AcDbEntity
  8
0
100
AcDbLine
 62
2
  6
CONTINUOUS
 10
13.1406778
 20
1.8132861779
 11
13.1574340171
 21
1.830042395
  0
LINE
  5
304
100
AcDbEntity
  8
0
100
AcDbLine
 62
2
  6
CONTINUOUS
 10
13.206030605
 20
1.8786389829
 11
13.2227868221
 21
1.8953952
  0
LINE
  5
305
100
AcDbEntity
  8
0
100
AcDbLine
 62
2
  6
CONTINUOUS
 10
13.1406778
 20
1.81190511
 11
13.158815085
 21
1.830042395
  0
LINE
  5
306
100
AcDbEntity
  8
0
100
AcDbLine
 62
2
  6
CONTINUOUS
 10
13.206030605
 20
1.877257915
 11
13.22416789
 21
1.8953952
  0
LINE
  5
307
100
AcDbEntity
  8
0
100
AcDbLine
 62
2
  6
CONTINUOUS
 10
13.1406778
 20
1.810524042
 11
13.160196153
 21
1.830042395
  0
LINE
  5
308
100
AcDbEntity
  8
0
100
AcDbLine
 62
2
  6
CONTINUOUS
 10
13.206030605
 20
1.875876847
 11
13.225548958
 21
1.8953952
  0
LINE
  5
309
100
AcDbEntity
  8
0
100
AcDbLine
 62
2
  6
CONTINUOUS
 10
13.1406778
 20
1.8091429741
 11
13.1615772209
 21
1.830042395
  0
LINE
  5
30A
100
AcDbEntity
  8
0
100
AcDbLine
 62
2
  6
CONTINUOUS
 10
13.206030605
 20
1.8744957791
 11
13.2269300259
 21
1.8953952
  0
LINE
  5
30B
100
AcDbEntity
  8
0
100
AcDbLine
 62
2
  6
CONTINUOUS
 10
13.1406778
 20
1.8077619062
 11
13.1629582888
 21
1.830042395
  0
LINE
  5
30C
100
AcDbEntity
  8
0
100
AcDbLine
 62
2
  6
CONTINUOUS
 10
13.206030605
 20
1.8731147112
 11
13.2283110938
 21
1.8953952
  0
LINE
  5
30D
100
AcDbEntity
  8
0
100
AcDbLine
 62
2
  6
CONTINUOUS
 10
13.1406778
 20
1.8063808382
 11
13.1643393568
 21
1.830042395
  0
LINE
  5
30E
100
AcDbEntity
  8
0
100
AcDbLine
 62
2
  6
CONTINUOUS
 10
13.206030605
 20
1.8717336432
 11
13.2296921618
 21
1.8953952
  0
LINE
  5
30F
100
AcDbEntity
  8
0
100
AcDbLine
 62
2
  6
CONTINUOUS
 10
13.1406778
 20
1.8049997703
 11
13.1657204247
 21
1.830042395
  0
LINE
  5
310
100
AcDbEntity
  8
0
100
AcDbLine
 62
2
  6
CONTINUOUS
 10
13.206030605
 20
1.8703525753
 11
13.2310732297
 21
1.8953952
  0
LINE
  5
311
100
AcDbEntity
  8
0
100
AcDbLine
 62
2
  6
CONTINUOUS
 10
13.1406778
 20
1.8036187024
 11
13.1671014926
 21
1.830042395
  0
LINE
  5
312
100
AcDbEntity
  8
0
100
AcDbLine
 62
2
  6
CONTINUOUS
 10
13.206030605
 20
1.8689715074
 11
13.2324542976
 21
1.8953952
  0
LINE
  5
313
100
AcDbEntity
  8
0
100
AcDbLine
 62
2
  6
CONTINUOUS
 10
13.1406778
 20
1.8022376344
 11
13.1684825606
 21
1.830042395
  0
LINE
  5
314
100
AcDbEntity
  8
0
100
AcDbLine
 62
2
  6
CONTINUOUS
 10
13.206030605
 20
1.8675904394
 11
13.2338353656
 21
1.8953952
  0
LINE
  5
315
100
AcDbEntity
  8
0
100
AcDbLine
 62
2
  6
CONTINUOUS
 10
13.1406778
 20
1.8008565665
 11
13.1698636285
 21
1.830042395
  0
LINE
  5
316
100
AcDbEntity
  8
0
100
AcDbLine
 62
2
  6
CONTINUOUS
 10
13.206030605
 20
1.8662093715
 11
13.2352164335
 21
1.8953952
  0
LINE
  5
317
100
AcDbEntity
  8
0
100
AcDbLine
 62
2
  6
CONTINUOUS
 10
13.1406778
 20
1.7994754986
 11
13.1712446964
 21
1.830042395
  0
LINE
  5
318
100
AcDbEntity
  8
0
100
AcDbLine
 62
2
  6
CONTINUOUS
 10
13.206030605
 20
1.8648283036
 11
13.2365975014
 21
1.8953952
  0
LINE
  5
319
100
AcDbEntity
  8
0
100
AcDbLine
 62
2
  6
CONTINUOUS
 10
13.1406778
 20
1.7980944306
 11
13.1726257644
 21
1.830042395
  0
LINE
  5
31A
100
AcDbEntity
  8
0
100
AcDbLine
 62
2
  6
CONTINUOUS
 10
13.206030605
 20
1.8634472356
 11
13.2379785694
 21
1.8953952
  0
LINE
  5
31B
100
AcDbEntity
  8
0
100
AcDbLine
 62
2
  6
CONTINUOUS
 10
13.1406778
 20
1.7967133627
 11
13.1740068323
 21
1.830042395
  0
LINE
  5
31C
100
AcDbEntity
  8
0
100
AcDbLine
 62
2
  6
CONTINUOUS
 10
13.206030605
 20
1.8620661677
 11
13.2393596373
 21
1.8953952
  0
LINE
  5
31D
100
AcDbEntity
  8
0
100
AcDbLine
 62
2
  6
CONTINUOUS
 10
13.1406778
 20
1.7953322948
 11
13.1753879002
 21
1.830042395
  0
LINE
  5
31E
100
AcDbEntity
  8
0
100
AcDbLine
 62
2
  6
CONTINUOUS
 10
13.206030605
 20
1.8606850998
 11
13.2407407052
 21
1.8953952
  0
LINE
  5
31F
100
AcDbEntity
  8
0
100
AcDbLine
 62
2
  6
CONTINUOUS
 10
13.1406778
 20
1.7939512268
 11
13.1767689682
 21
1.830042395
  0
LINE
  5
320
100
AcDbEntity
  8
0
100
AcDbLine
 62
2
  6
CONTINUOUS
 10
13.206030605
 20
1.8593040318
 11
13.2421217732
 21
1.8953952
  0
LINE
  5
321
100
AcDbEntity
  8
0
100
AcDbLine
 62
2
  6
CONTINUOUS
 10
13.1406778
 20
1.7925701589
 11
13.1781500361
 21
1.830042395
  0
LINE
  5
322
100
AcDbEntity
  8
0
100
AcDbLine
 62
2
  6
CONTINUOUS
 10
13.206030605
 20
1.8579229639
 11
13.2435028411
 21
1.8953952
  0
LINE
  5
323
100
AcDbEntity
  8
0
100
AcDbLine
 62
2
  6
CONTINUOUS
 10
13.1406778
 20
1.791189091
 11
13.179531104
 21
1.830042395
  0
LINE
  5
324
100
AcDbEntity
  8
0
100
AcDbLine
 62
2
  6
CONTINUOUS
 10
13.206030605
 20
1.856541896
 11
13.244883909
 21
1.8953952
  0
LINE
  5
325
100
AcDbEntity
  8
0
100
AcDbLine
 62
2
  6
CONTINUOUS
 10
13.1406778
 20
1.789808023
 11
13.180912172
 21
1.830042395
  0
LINE
  5
326
100
AcDbEntity
  8
0
100
AcDbLine
 62
2
  6
CONTINUOUS
 10
13.206030605
 20
1.855160828
 11
13.246264977
 21
1.8953952
  0
LINE
  5
327
100
AcDbEntity
  8
0
100
AcDbLine
 62
2
  6
CONTINUOUS
 10
13.1406778
 20
1.7884269551
 11
13.1822932399
 21
1.830042395
  0
LINE
  5
328
100
AcDbEntity
  8
0
100
AcDbLine
 62
2
  6
CONTINUOUS
 10
13.206030605
 20
1.8537797601
 11
13.2476460449
 21
1.8953952
  0
LINE
  5
329
100
AcDbEntity
  8
0
100
AcDbLine
 62
2
  6
CONTINUOUS
 10
13.1406778
 20
1.7870458872
 11
13.1836743078
 21
1.830042395
  0
LINE
  5
32A
100
AcDbEntity
  8
0
100
AcDbLine
 62
2
  6
CONTINUOUS
 10
13.206030605
 20
1.8523986922
 11
13.2490271128
 21
1.8953952
  0
LINE
  5
32B
100
AcDbEntity
  8
0
100
AcDbLine
 62
2
  6
CONTINUOUS
 10
13.1406778
 20
1.7856648192
 11
13.1850553758
 21
1.830042395
  0
LINE
  5
32C
100
AcDbEntity
  8
0
100
AcDbLine
 62
2
  6
CONTINUOUS
 10
13.206030605
 20
1.8510176242
 11
13.2504081808
 21
1.8953952
  0
LINE
  5
32D
100
AcDbEntity
  8
0
100
AcDbLine
 62
2
  6
CONTINUOUS
 10
13.1406778
 20
1.7842837513
 11
13.1864364437
 21
1.830042395
  0
LINE
  5
32E
100
AcDbEntity
  8
0
100
AcDbLine
 62
2
  6
CONTINUOUS
 10
13.206030605
 20
1.8496365563
 11
13.2517892487
 21
1.8953952
  0
LINE
  5
32F
100
AcDbEntity
  8
0
100
AcDbLine
 62
2
  6
CONTINUOUS
 10
13.1406778
 20
1.7829026834
 11
13.1878175116
 21
1.830042395
  0
LINE
  5
330
100
AcDbEntity
  8
0
100
AcDbLine
 62
2
  6
CONTINUOUS
 10
13.206030605
 20
1.8482554884
 11
13.2531703166
 21
1.8953952
  0
LINE
  5
331
100
AcDbEntity
  8
0
100
AcDbLine
 62
2
  6
CONTINUOUS
 10
13.1406778
 20
1.7815216155
 11
13.1891985795
 21
1.830042395
  0
LINE
  5
332
100
AcDbEntity
  8
0
100
AcDbLine
 62
2
  6
CONTINUOUS
 10
13.206030605
 20
1.8468744205
 11
13.2545513845
 21
1.8953952
  0
LINE
  5
333
100
AcDbEntity
  8
0
100
AcDbLine
 62
2
  6
CONTINUOUS
 10
13.1406778
 20
1.7801405475
 11
13.1905796475
 21
1.830042395
  0
LINE
  5
334
100
AcDbEntity
  8
0
100
AcDbLine
 62
2
  6
CONTINUOUS
 10
13.206030605
 20
1.8454933525
 11
13.2559324525
 21
1.8953952
  0
LINE
  5
335
100
AcDbEntity
  8
0
100
AcDbLine
 62
2
  6
CONTINUOUS
 10
13.1406778
 20
1.7787594796
 11
13.1919607154
 21
1.830042395
  0
LINE
  5
336
100
AcDbEntity
  8
0
100
AcDbLine
 62
2
  6
CONTINUOUS
 10
13.206030605
 20
1.8441122846
 11
13.2573135204
 21
1.8953952
  0
LINE
  5
337
100
AcDbEntity
  8
0
100
AcDbLine
 62
2
  6
CONTINUOUS
 10
13.1406778
 20
1.7773784117
 11
13.1933417833
 21
1.830042395
  0
LINE
  5
338
100
AcDbEntity
  8
0
100
AcDbLine
 62
2
  6
CONTINUOUS
 10
13.206030605
 20
1.8427312167
 11
13.2586945883
 21
1.8953952
  0
LINE
  5
339
100
AcDbEntity
  8
0
100
AcDbLine
 62
2
  6
CONTINUOUS
 10
13.1406778
 20
1.7759973437
 11
13.1947228513
 21
1.830042395
  0
LINE
  5
33A
100
AcDbEntity
  8
0
100
AcDbLine
 62
2
  6
CONTINUOUS
 10
13.206030605
 20
1.8413501487
 11
13.2600756563
 21
1.8953952
  0
LINE
  5
33B
100
AcDbEntity
  8
0
100
AcDbLine
 62
2
  6
CONTINUOUS
 10
13.1406778
 20
1.7746162758
 11
13.1961039192
 21
1.830042395
  0
LINE
  5
33C
100
AcDbEntity
  8
0
100
AcDbLine
 62
2
  6
CONTINUOUS
 10
13.206030605
 20
1.8399690808
 11
13.2614567242
 21
1.8953952
  0
LINE
  5
33D
100
AcDbEntity
  8
0
100
AcDbLine
 62
2
  6
CONTINUOUS
 10
13.1406778
 20
1.7732352079
 11
13.1974849871
 21
1.830042395
  0
LINE
  5
33E
100
AcDbEntity
  8
0
100
AcDbLine
 62
2
  6
CONTINUOUS
 10
13.206030605
 20
1.8385880129
 11
13.2628377921
 21
1.8953952
  0
LINE
  5
33F
100
AcDbEntity
  8
0
100
AcDbLine
 62
2
  6
CONTINUOUS
 10
13.1406778
 20
1.7718541399
 11
13.1988660551
 21
1.830042395
  0
LINE
  5
340
100
AcDbEntity
  8
0
100
AcDbLine
 62
2
  6
CONTINUOUS
 10
13.206030605
 20
1.8372069449
 11
13.2642188601
 21
1.8953952
  0
LINE
  5
341
100
AcDbEntity
  8
0
100
AcDbLine
 62
2
  6
CONTINUOUS
 10
13.1406778
 20
1.770473072
 11
13.200247123
 21
1.830042395
  0
LINE
  5
342
100
AcDbEntity
  8
0
100
AcDbLine
 62
2
  6
CONTINUOUS
 10
13.206030605
 20
1.835825877
 11
13.265599928
 21
1.8953952
  0
LINE
  5
343
100
AcDbEntity
  8
0
100
AcDbLine
 62
2
  6
CONTINUOUS
 10
13.1406778
 20
1.7690920041
 11
13.2016281909
 21
1.830042395
  0
LINE
  5
344
100
AcDbEntity
  8
0
100
AcDbLine
 62
2
  6
CONTINUOUS
 10
13.206030605
 20
1.8344448091
 11
13.2669809959
 21
1.8953952
  0
LINE
  5
345
100
AcDbEntity
  8
0
100
AcDbLine
 62
2
  6
CONTINUOUS
 10
13.1406778
 20
1.7677109361
 11
13.2030092589
 21
1.830042395
  0
LINE
  5
346
100
AcDbEntity
  8
0
100
AcDbLine
 62
2
  6
CONTINUOUS
 10
13.206030605
 20
1.8330637411
 11
13.2683620639
 21
1.8953952
  0
LINE
  5
347
100
AcDbEntity
  8
0
100
AcDbLine
 62
2
  6
CONTINUOUS
 10
13.1406778
 20
1.7663298682
 11
13.2043903268
 21
1.830042395
  0
LINE
  5
348
100
AcDbEntity
  8
0
100
AcDbLine
 62
2
  6
CONTINUOUS
 10
13.206030605
 20
1.8316826732
 11
13.2697431318
 21
1.8953952
  0
LINE
  5
349
100
AcDbEntity
  8
0
100
AcDbLine
 62
2
  6
CONTINUOUS
 10
13.1406778
 20
1.7649488003
 11
13.2057713947
 21
1.830042395
  0
LINE
  5
34A
100
AcDbEntity
  8
0
100
AcDbLine
 62
2
  6
CONTINUOUS
 10
13.206030605
 20
1.8303016053
 11
13.2711241997
 21
1.8953952
  0
LINE
  5
34B
100
AcDbEntity
  8
0
100
AcDbLine
 62
2
  6
CONTINUOUS
 10
13.1406778
 20
1.7635677323
 11
13.206030605
 21
1.8289205373
  0
LINE
  5
34C
100
AcDbEntity
  8
0
100
AcDbLine
 62
2
  6
CONTINUOUS
 10
13.2071524627
 20
1.830042395
 11
13.2724124836
 21
1.895302416
  0
LINE
  5
34D
100
AcDbEntity
  8
0
100
AcDbLine
 62
2
  6
CONTINUOUS
 10
13.1406778
 20
1.7621866644
 11
13.206030605
 21
1.8275394694
  0
LINE
  5
34E
100
AcDbEntity
  8
0
100
AcDbLine
 62
2
  6
CONTINUOUS
 10
13.2085335306
 20
1.830042395
 11
13.2736793293
 21
1.8951881937
  0
LINE
  5
34F
100
AcDbEntity
  8
0
100
AcDbLine
 62
2
  6
CONTINUOUS
 10
13.1406778
 20
1.7608055965
 11
13.206030605
 21
1.8261584015
  0
LINE
  5
350
100
AcDbEntity
  8
0
100
AcDbLine
 62
2
  6
CONTINUOUS
 10
13.2099145985
 20
1.830042395
 11
13.2749461751
 21
1.8950739715
  0
LINE
  5
351
100
AcDbEntity
  8
0
100
AcDbLine
 62
2
  6
CONTINUOUS
 10
13.1406778
 20
1.7594245285
 11
13.206030605
 21
1.8247773335
  0
LINE
  5
352
100
AcDbEntity
  8
0
100
AcDbLine
 62
2
  6
CONTINUOUS
 10
13.2112956665
 20
1.830042395
 11
13.2762130208
 21
1.8949597493
  0
LINE
  5
353
100
AcDbEntity
  8
0
100
AcDbLine
 62
2
  6
CONTINUOUS
 10
13.1406778
 20
1.7580434606
 11
13.206030605
 21
1.8233962656
  0
LINE
  5
354
100
AcDbEntity
  8
0
100
AcDbLine
 62
2
  6
CONTINUOUS
 10
13.2126767344
 20
1.830042395
 11
13.2774798665
 21
1.8948455271
  0
LINE
  5
355
100
AcDbEntity
  8
0
100
AcDbLine
 62
2
  6
CONTINUOUS
 10
13.1406778
 20
1.7566623927
 11
13.206030605
 21
1.8220151977
  0
LINE
  5
356
100
AcDbEntity
  8
0
100
AcDbLine
 62
2
  6
CONTINUOUS
 10
13.2140578023
 20
1.830042395
 11
13.2787467122
 21
1.8947313049
  0
LINE
  5
357
100
AcDbEntity
  8
0
100
AcDbLine
 62
2
  6
CONTINUOUS
 10
13.1406778
 20
1.7552813247
 11
13.206030605
 21
1.8206341297
  0
LINE
  5
358
100
AcDbEntity
  8
0
100
AcDbLine
 62
2
  6
CONTINUOUS
 10
13.2154388703
 20
1.830042395
 11
13.280013558
 21
1.8946170827
  0
LINE
  5
359
100
AcDbEntity
  8
0
100
AcDbLine
 62
2
  6
CONTINUOUS
 10
13.1406778
 20
1.7539002568
 11
13.206030605
 21
1.8192530618
  0
LINE
  5
35A
100
AcDbEntity
  8
0
100
AcDbLine
 62
2
  6
CONTINUOUS
 10
13.2168199382
 20
1.830042395
 11
13.2812804037
 21
1.8945028605
  0
LINE
  5
35B
100
AcDbEntity
  8
0
100
AcDbLine
 62
2
  6
CONTINUOUS
 10
13.1406778
 20
1.7525191889
 11
13.206030605
 21
1.8178719939
  0
LINE
  5
35C
100
AcDbEntity
  8
0
100
AcDbLine
 62
2
  6
CONTINUOUS
 10
13.2182010061
 20
1.830042395
 11
13.2825472494
 21
1.8943886383
  0
LINE
  5
35D
100
AcDbEntity
  8
0
100
AcDbLine
 62
2
  6
CONTINUOUS
 10
13.1406778
 20
1.7511381209
 11
13.206030605
 21
1.8164909259
  0
LINE
  5
35E
100
AcDbEntity
  8
0
100
AcDbLine
 62
2
  6
CONTINUOUS
 10
13.2195820741
 20
1.830042395
 11
13.2837343128
 21
1.8941946338
  0
LINE
  5
35F
100
AcDbEntity
  8
0
100
AcDbLine
 62
2
  6
CONTINUOUS
 10
13.1406778
 20
1.749757053
 11
13.206030605
 21
1.815109858
  0
LINE
  5
360
100
AcDbEntity
  8
0
100
AcDbLine
 62
2
  6
CONTINUOUS
 10
13.220963142
 20
1.830042395
 11
13.2848134565
 21
1.8938927095
  0
LINE
  5
361
100
AcDbEntity
  8
0
100
AcDbLine
 62
2
  6
CONTINUOUS
 10
13.1406778
 20
1.7483759851
 11
13.206030605
 21
1.8137287901
  0
LINE
  5
362
100
AcDbEntity
  8
0
100
AcDbLine
 62
2
  6
CONTINUOUS
 10
13.2223442099
 20
1.830042395
 11
13.2858926002
 21
1.8935907853
  0
LINE
  5
363
100
AcDbEntity
  8
0
100
AcDbLine
 62
2
  6
CONTINUOUS
 10
13.1406778
 20
1.7469949172
 11
13.206030605
 21
1.8123477222
  0
LINE
  5
364
100
AcDbEntity
  8
0
100
AcDbLine
 62
2
  6
CONTINUOUS
 10
13.2237252778
 20
1.830042395
 11
13.2869717439
 21
1.8932888611
  0
LINE
  5
365
100
AcDbEntity
  8
0
100
AcDbLine
 62
2
  6
CONTINUOUS
 10
13.1406778
 20
1.7456138492
 11
13.206030605
 21
1.8109666542
  0
LINE
  5
366
100
AcDbEntity
  8
0
100
AcDbLine
 62
2
  6
CONTINUOUS
 10
13.2251063458
 20
1.830042395
 11
13.2880508876
 21
1.8929869368
  0
LINE
  5
367
100
AcDbEntity
  8
0
100
AcDbLine
 62
2
  6
CONTINUOUS
 10
13.1406778
 20
1.7442327813
 11
13.206030605
 21
1.8095855863
  0
LINE
  5
368
100
AcDbEntity
  8
0
100
AcDbLine
 62
2
  6
CONTINUOUS
 10
13.2264874137
 20
1.830042395
 11
13.2891300313
 21
1.8926850126
  0
LINE
  5
369
100
AcDbEntity
  8
0
100
AcDbLine
 62
2
  6
CONTINUOUS
 10
13.1406778
 20
1.7428517134
 11
13.206030605
 21
1.8082045184
  0
LINE
  5
36A
100
AcDbEntity
  8
0
100
AcDbLine
 62
2
  6
CONTINUOUS
 10
13.2278684816
 20
1.830042395
 11
13.290209175
 21
1.8923830884
  0
LINE
  5
36B
100
AcDbEntity
  8
0
100
AcDbLine
 62
2
  6
CONTINUOUS
 10
13.1406778
 20
1.7414706454
 11
13.206030605
 21
1.8068234504
  0
LINE
  5
36C
100
AcDbEntity
  8
0
100
AcDbLine
 62
2
  6
CONTINUOUS
 10
13.2292495496
 20
1.830042395
 11
13.2912883187
 21
1.8920811641
  0
LINE
  5
36D
100
AcDbEntity
  8
0
100
AcDbLine
 62
2
  6
CONTINUOUS
 10
13.1406778
 20
1.7400895775
 11
13.206030605
 21
1.8054423825
  0
LINE
  5
36E
100
AcDbEntity
  8
0
100
AcDbLine
 62
2
  6
CONTINUOUS
 10
13.2306306175
 20
1.830042395
 11
13.2923674624
 21
1.8917792399
  0
LINE
  5
36F
100
AcDbEntity
  8
0
100
AcDbLine
 62
2
  6
CONTINUOUS
 10
13.1406778
 20
1.7387085096
 11
13.206030605
 21
1.8040613146
  0
LINE
  5
370
100
AcDbEntity
  8
0
100
AcDbLine
 62
2
  6
CONTINUOUS
 10
13.2320116854
 20
1.830042395
 11
13.2934466061
 21
1.8914773157
  0
LINE
  5
371
100
AcDbEntity
  8
0
100
AcDbLine
 62
2
  6
CONTINUOUS
 10
13.1406778
 20
1.7373274416
 11
13.206030605
 21
1.8026802466
  0
LINE
  5
372
100
AcDbEntity
  8
0
100
AcDbLine
 62
2
  6
CONTINUOUS
 10
13.2333927534
 20
1.830042395
 11
13.2945257498
 21
1.8911753914
  0
LINE
  5
373
100
AcDbEntity
  8
0
100
AcDbLine
 62
2
  6
CONTINUOUS
 10
13.1406778
 20
1.7359463737
 11
13.206030605
 21
1.8012991787
  0
LINE
  5
374
100
AcDbEntity
  8
0
100
AcDbLine
 62
2
  6
CONTINUOUS
 10
13.2347738213
 20
1.830042395
 11
13.295462794
 21
1.8907313677
  0
LINE
  5
375
100
AcDbEntity
  8
0
100
AcDbLine
 62
2
  6
CONTINUOUS
 10
13.1406778
 20
1.7345653058
 11
13.206030605
 21
1.7999181108
  0
LINE
  5
376
100
AcDbEntity
  8
0
100
AcDbLine
 62
2
  6
CONTINUOUS
 10
13.2361548892
 20
1.830042395
 11
13.2963884125
 21
1.8902759183
  0
LINE
  5
377
100
AcDbEntity
  8
0
100
AcDbLine
 62
2
  6
CONTINUOUS
 10
13.1406778
 20
1.7331842378
 11
13.206030605
 21
1.7985370428
  0
LINE
  5
378
100
AcDbEntity
  8
0
100
AcDbLine
 62
2
  6
CONTINUOUS
 10
13.2375359572
 20
1.830042395
 11
13.2973140311
 21
1.8898204689
  0
LINE
  5
379
100
AcDbEntity
  8
0
100
AcDbLine
 62
2
  6
CONTINUOUS
 10
13.1406778
 20
1.7318031699
 11
13.206030605
 21
1.7971559749
  0
LINE
  5
37A
100
AcDbEntity
  8
0
100
AcDbLine
 62
2
  6
CONTINUOUS
 10
13.2389170251
 20
1.830042395
 11
13.2982396496
 21
1.8893650195
  0
LINE
  5
37B
100
AcDbEntity
  8
0
100
AcDbLine
 62
2
  6
CONTINUOUS
 10
13.1406778
 20
1.730422102
 11
13.206030605
 21
1.795774907
  0
LINE
  5
37C
100
AcDbEntity
  8
0
100
AcDbLine
 62
2
  6
CONTINUOUS
 10
13.240298093
 20
1.830042395
 11
13.2991652681
 21
1.8889095701
  0
LINE
  5
37D
100
AcDbEntity
  8
0
100
AcDbLine
 62
2
  6
CONTINUOUS
 10
13.1406778
 20
1.729041034
 11
13.206030605
 21
1.794393839
  0
LINE
  5
37E
100
AcDbEntity
  8
0
100
AcDbLine
 62
2
  6
CONTINUOUS
 10
13.241679161
 20
1.830042395
 11
13.3000908867
 21
1.8884541207
  0
LINE
  5
37F
100
AcDbEntity
  8
0
100
AcDbLine
 62
2
  6
CONTINUOUS
 10
13.1406778
 20
1.7276599661
 11
13.206030605
 21
1.7930127711
  0
LINE
  5
380
100
AcDbEntity
  8
0
100
AcDbLine
 62
2
  6
CONTINUOUS
 10
13.2430602289
 20
1.830042395
 11
13.3010165052
 21
1.8879986713
  0
LINE
  5
381
100
AcDbEntity
  8
0
100
AcDbLine
 62
2
  6
CONTINUOUS
 10
13.1406778
 20
1.7262788982
 11
13.206030605
 21
1.7916317032
  0
LINE
  5
382
100
AcDbEntity
  8
0
100
AcDbLine
 62
2
  6
CONTINUOUS
 10
13.2444412968
 20
1.830042395
 11
13.3019421237
 21
1.8875432219
  0
LINE
  5
383
100
AcDbEntity
  8
0
100
AcDbLine
 62
2
  6
CONTINUOUS
 10
13.1406778
 20
1.7248978302
 11
13.206030605
 21
1.7902506352
  0
LINE
  5
384
100
AcDbEntity
  8
0
100
AcDbLine
 62
2
  6
CONTINUOUS
 10
13.2458223648
 20
1.830042395
 11
13.3028677423
 21
1.8870877725
  0
LINE
  5
385
100
AcDbEntity
  8
0
100
AcDbLine
 62
2
  6
CONTINUOUS
 10
13.1406778
 20
1.7235167623
 11
13.206030605
 21
1.7888695673
  0
LINE
  5
386
100
AcDbEntity
  8
0
100
AcDbLine
 62
2
  6
CONTINUOUS
 10
13.2472034327
 20
1.830042395
 11
13.3037933608
 21
1.8866323231
  0
LINE
  5
387
100
AcDbEntity
  8
0
100
AcDbLine
 62
2
  6
CONTINUOUS
 10
13.1406778
 20
1.7221356944
 11
13.206030605
 21
1.7874884994
  0
LINE
  5
388
100
AcDbEntity
  8
0
100
AcDbLine
 62
2
  6
CONTINUOUS
 10
13.2485845006
 20
1.830042395
 11
13.3047189793
 21
1.8861768737
  0
LINE
  5
389
100
AcDbEntity
  8
0
100
AcDbLine
 62
2
  6
CONTINUOUS
 10
13.1406778
 20
1.7207546264
 11
13.206030605
 21
1.7861074314
  0
LINE
  5
38A
100
AcDbEntity
  8
0
100
AcDbLine
 62
2
  6
CONTINUOUS
 10
13.2499655686
 20
1.830042395
 11
13.3055716896
 21
1.8856485161
  0
LINE
  5
38B
100
AcDbEntity
  8
0
100
AcDbLine
 62
2
  6
CONTINUOUS
 10
13.1406778
 20
1.7193735585
 11
13.206030605
 21
1.7847263635
  0
LINE
  5
38C
100
AcDbEntity
  8
0
100
AcDbLine
 62
2
  6
CONTINUOUS
 10
13.2513466365
 20
1.830042395
 11
13.3063620539
 21
1.8850578124
  0
LINE
  5
38D
100
AcDbEntity
  8
0
100
AcDbLine
 62
2
  6
CONTINUOUS
 10
13.1406778
 20
1.7179924906
 11
13.206030605
 21
1.7833452956
  0
LINE
  5
38E
100
AcDbEntity
  8
0
100
AcDbLine
 62
2
  6
CONTINUOUS
 10
13.2527277044
 20
1.830042395
 11
13.3071524182
 21
1.8844671087
  0
LINE
  5
38F
100
AcDbEntity
  8
0
100
AcDbLine
 62
2
  6
CONTINUOUS
 10
13.1406778
 20
1.7166114226
 11
13.206030605
 21
1.7819642276
  0
LINE
  5
390
100
AcDbEntity
  8
0
100
AcDbLine
 62
2
  6
CONTINUOUS
 10
13.2541087724
 20
1.830042395
 11
13.3079427824
 21
1.8838764051
  0
LINE
  5
391
100
AcDbEntity
  8
0
100
AcDbLine
 62
2
  6
CONTINUOUS
 10
13.1406778
 20
1.7152303547
 11
13.206030605
 21
1.7805831597
  0
LINE
  5
392
100
AcDbEntity
  8
0
100
AcDbLine
 62
2
  6
CONTINUOUS
 10
13.2554898403
 20
1.830042395
 11
13.3087331467
 21
1.8832857014
  0
LINE
  5
393
100
AcDbEntity
  8
0
100
AcDbLine
 62
2
  6
CONTINUOUS
 10
13.1406778
 20
1.7138492868
 11
13.206030605
 21
1.7792020918
  0
LINE
  5
394
100
AcDbEntity
  8
0
100
AcDbLine
 62
2
  6
CONTINUOUS
 10
13.2568709082
 20
1.830042395
 11
13.309523511
 21
1.8826949978
  0
LINE
  5
395
100
AcDbEntity
  8
0
100
AcDbLine
 62
2
  6
CONTINUOUS
 10
13.1406778
 20
1.7124682189
 11
13.206030605
 21
1.7778210239
  0
LINE
  5
396
100
AcDbEntity
  8
0
100
AcDbLine
 62
2
  6
CONTINUOUS
 10
13.2582519761
 20
1.830042395
 11
13.3103138752
 21
1.8821042941
  0
LINE
  5
397
100
AcDbEntity
  8
0
100
AcDbLine
 62
2
  6
CONTINUOUS
 10
13.1406778
 20
1.7110871509
 11
13.206030605
 21
1.7764399559
  0
LINE
  5
398
100
AcDbEntity
  8
0
100
AcDbLine
 62
2
  6
CONTINUOUS
 10
13.2596330441
 20
1.830042395
 11
13.3111042395
 21
1.8815135904
  0
LINE
  5
399
100
AcDbEntity
  8
0
100
AcDbLine
 62
2
  6
CONTINUOUS
 10
13.1406778
 20
1.709706083
 11
13.206030605
 21
1.775058888
  0
LINE
  5
39A
100
AcDbEntity
  8
0
100
AcDbLine
 62
2
  6
CONTINUOUS
 10
13.261014112
 20
1.830042395
 11
13.3118946038
 21
1.8809228868
  0
LINE
  5
39B
100
AcDbEntity
  8
0
100
AcDbLine
 62
2
  6
CONTINUOUS
 10
13.1406778
 20
1.7083250151
 11
13.206030605
 21
1.7736778201
  0
LINE
  5
39C
100
AcDbEntity
  8
0
100
AcDbLine
 62
2
  6
CONTINUOUS
 10
13.2623951799
 20
1.830042395
 11
13.312684968
 21
1.8803321831
  0
LINE
  5
39D
100
AcDbEntity
  8
0
100
AcDbLine
 62
2
  6
CONTINUOUS
 10
13.1406778
 20
1.7069439471
 11
13.206030605
 21
1.7722967521
  0
LINE
  5
39E
100
AcDbEntity
  8
0
100
AcDbLine
 62
2
  6
CONTINUOUS
 10
13.2637762479
 20
1.830042395
 11
13.3134753323
 21
1.8797414794
  0
LINE
  5
39F
100
AcDbEntity
  8
0
100
AcDbLine
 62
2
  6
CONTINUOUS
 10
13.1406778
 20
1.7055628792
 11
13.206030605
 21
1.7709156842
  0
LINE
  5
3A0
100
AcDbEntity
  8
0
100
AcDbLine
 62
2
  6
CONTINUOUS
 10
13.2651573158
 20
1.830042395
 11
13.3142656966
 21
1.8791507758
  0
LINE
  5
3A1
100
AcDbEntity
  8
0
100
AcDbLine
 62
2
  6
CONTINUOUS
 10
13.1406778
 20
1.7041818113
 11
13.206030605
 21
1.7695346163
  0
LINE
  5
3A2
100
AcDbEntity
  8
0
100
AcDbLine
 62
2
  6
CONTINUOUS
 10
13.2665383837
 20
1.830042395
 11
13.3149964024
 21
1.8785004137
  0
LINE
  5
3A3
100
AcDbEntity
  8
0
100
AcDbLine
 62
2
  6
CONTINUOUS
 10
13.1406778
 20
1.7028007433
 11
13.206030605
 21
1.7681535483
  0
LINE
  5
3A4
100
AcDbEntity
  8
0
100
AcDbLine
 62
2
  6
CONTINUOUS
 10
13.2679194517
 20
1.830042395
 11
13.3156785972
 21
1.8778015405
  0
LINE
  5
3A5
100
AcDbEntity
  8
0
100
AcDbLine
 62
2
  6
CONTINUOUS
 10
13.1406778
 20
1.7014196754
 11
13.206030605
 21
1.7667724804
  0
LINE
  5
3A6
100
AcDbEntity
  8
0
100
AcDbLine
 62
2
  6
CONTINUOUS
 10
13.2693005196
 20
1.830042395
 11
13.3163607919
 21
1.8771026673
  0
LINE
  5
3A7
100
AcDbEntity
  8
0
100
AcDbLine
 62
2
  6
CONTINUOUS
 10
13.1406778
 20
1.7000386075
 11
13.206030605
 21
1.7653914125
  0
LINE
  5
3A8
100
AcDbEntity
  8
0
100
AcDbLine
 62
2
  6
CONTINUOUS
 10
13.2706815875
 20
1.830042395
 11
13.3170429867
 21
1.8764037941
  0
LINE
  5
3A9
100
AcDbEntity
  8
0
100
AcDbLine
 62
2
  6
CONTINUOUS
 10
13.1413570455
 20
1.699336785
 11
13.206030605
 21
1.7640103445
  0
LINE
  5
3AA
100
AcDbEntity
  8
0
100
AcDbLine
 62
2
  6
CONTINUOUS
 10
13.27138341
 20
1.8293631495
 11
13.3177251814
 21
1.8757049209
  0
LINE
  5
3AB
100
AcDbEntity
  8
0
100
AcDbLine
 62
2
  6
CONTINUOUS
 10
13.1427381134
 20
1.699336785
 11
13.206030605
 21
1.7626292766
  0
LINE
  5
3AC
100
AcDbEntity
  8
0
100
AcDbLine
 62
2
  6
CONTINUOUS
 10
13.27138341
 20
1.8279820816
 11
13.3184073762
 21
1.8750060478
  0
LINE
  5
3AD
100
AcDbEntity
  8
0
100
AcDbLine
 62
2
  6
CONTINUOUS
 10
13.1441191813
 20
1.699336785
 11
13.206030605
 21
1.7612482087
  0
LINE
  5
3AE
100
AcDbEntity
  8
0
100
AcDbLine
 62
2
  6
CONTINUOUS
 10
13.27138341
 20
1.8266010137
 11
13.3190895709
 21
1.8743071746
  0
LINE
  5
3AF
100
AcDbEntity
  8
0
100
AcDbLine
 62
2
  6
CONTINUOUS
 10
13.1455002493
 20
1.699336785
 11
13.206030605
 21
1.7598671407
  0
LINE
  5
3B0
100
AcDbEntity
  8
0
100
AcDbLine
 62
2
  6
CONTINUOUS
 10
13.27138341
 20
1.8252199457
 11
13.3197717657
 21
1.8736083014
  0
LINE
  5
3B1
100
AcDbEntity
  8
0
100
AcDbLine
 62
2
  6
CONTINUOUS
 10
13.1468813172
 20
1.699336785
 11
13.206030605
 21
1.7584860728
  0
LINE
  5
3B2
100
AcDbEntity
  8
0
100
AcDbLine
 62
2
  6
CONTINUOUS
 10
13.27138341
 20
1.8238388778
 11
13.3204457955
 21
1.8729012633
  0
LINE
  5
3B3
100
AcDbEntity
  8
0
100
AcDbLine
 62
2
  6
CONTINUOUS
 10
13.1482623851
 20
1.699336785
 11
13.206030605
 21
1.7571050049
  0
LINE
  5
3B4
100
AcDbEntity
  8
0
100
AcDbLine
 62
2
  6
CONTINUOUS
 10
13.27138341
 20
1.8224578099
 11
13.3210200408
 21
1.8720944407
  0
LINE
  5
3B5
100
AcDbEntity
  8
0
100
AcDbLine
 62
2
  6
CONTINUOUS
 10
13.1496434531
 20
1.699336785
 11
13.206030605
 21
1.7557239369
  0
LINE
  5
3B6
100
AcDbEntity
  8
0
100
AcDbLine
 62
2
  6
CONTINUOUS
 10
13.27138341
 20
1.8210767419
 11
13.3215942862
 21
1.8712876181
  0
LINE
  5
3B7
100
AcDbEntity
  8
0
100
AcDbLine
 62
2
  6
CONTINUOUS
 10
13.151024521
 20
1.699336785
 11
13.206030605
 21
1.754342869
  0
LINE
  5
3B8
100
AcDbEntity
  8
0
100
AcDbLine
 62
2
  6
CONTINUOUS
 10
13.27138341
 20
1.819695674
 11
13.3221685316
 21
1.8704807956
  0
LINE
  5
3B9
100
AcDbEntity
  8
0
100
AcDbLine
 62
2
  6
CONTINUOUS
 10
13.1524055889
 20
1.699336785
 11
13.206030605
 21
1.7529618011
  0
LINE
  5
3BA
100
AcDbEntity
  8
0
100
AcDbLine
 62
2
  6
CONTINUOUS
 10
13.27138341
 20
1.8183146061
 11
13.3227427769
 21
1.869673973
  0
LINE
  5
3BB
100
AcDbEntity
  8
0
100
AcDbLine
 62
2
  6
CONTINUOUS
 10
13.1537866569
 20
1.699336785
 11
13.206030605
 21
1.7515807331
  0
LINE
  5
3BC
100
AcDbEntity
  8
0
100
AcDbLine
 62
2
  6
CONTINUOUS
 10
13.27138341
 20
1.8169335381
 11
13.3233170223
 21
1.8688671504
  0
LINE
  5
3BD
100
AcDbEntity
  8
0
100
AcDbLine
 62
2
  6
CONTINUOUS
 10
13.1551677248
 20
1.699336785
 11
13.206030605
 21
1.7501996652
  0
LINE
  5
3BE
100
AcDbEntity
  8
0
100
AcDbLine
 62
2
  6
CONTINUOUS
 10
13.27138341
 20
1.8155524702
 11
13.3238912676
 21
1.8680603278
  0
LINE
  5
3BF
100
AcDbEntity
  8
0
100
AcDbLine
 62
2
  6
CONTINUOUS
 10
13.1565487927
 20
1.699336785
 11
13.206030605
 21
1.7488185973
  0
LINE
  5
3C0
100
AcDbEntity
  8
0
100
AcDbLine
 62
2
  6
CONTINUOUS
 10
13.27138341
 20
1.8141714023
 11
13.324465513
 21
1.8672535053
  0
LINE
  5
3C1
100
AcDbEntity
  8
0
100
AcDbLine
 62
2
  6
CONTINUOUS
 10
13.1579298607
 20
1.699336785
 11
13.206030605
 21
1.7474375293
  0
LINE
  5
3C2
100
AcDbEntity
  8
0
100
AcDbLine
 62
2
  6
CONTINUOUS
 10
13.27138341
 20
1.8127903343
 11
13.3250397583
 21
1.8664466827
  0
LINE
  5
3C3
100
AcDbEntity
  8
0
100
AcDbLine
 62
2
  6
CONTINUOUS
 10
13.1593109286
 20
1.699336785
 11
13.206030605
 21
1.7460564614
  0
LINE
  5
3C4
100
AcDbEntity
  8
0
100
AcDbLine
 62
2
  6
CONTINUOUS
 10
13.27138341
 20
1.8114092664
 11
13.3256140037
 21
1.8656398601
  0
LINE
  5
3C5
100
AcDbEntity
  8
0
100
AcDbLine
 62
2
  6
CONTINUOUS
 10
13.1606919965
 20
1.699336785
 11
13.206030605
 21
1.7446753935
  0
LINE
  5
3C6
100
AcDbEntity
  8
0
100
AcDbLine
 62
2
  6
CONTINUOUS
 10
13.27138341
 20
1.8100281985
 11
13.326188249
 21
1.8648330375
  0
LINE
  5
3C7
100
AcDbEntity
  8
0
100
AcDbLine
 62
2
  6
CONTINUOUS
 10
13.1620730644
 20
1.699336785
 11
13.206030605
 21
1.7432943256
  0
LINE
  5
3C8
100
AcDbEntity
  8
0
100
AcDbLine
 62
2
  6
CONTINUOUS
 10
13.27138341
 20
1.8086471306
 11
13.3267624944
 21
1.864026215
  0
LINE
  5
3C9
100
AcDbEntity
  8
0
100
AcDbLine
 62
2
  6
CONTINUOUS
 10
13.1634541324
 20
1.699336785
 11
13.206030605
 21
1.7419132576
  0
LINE
  5
3CA
100
AcDbEntity
  8
0
100
AcDbLine
 62
2
  6
CONTINUOUS
 10
13.27138341
 20
1.8072660626
 11
13.3273367398
 21
1.8632193924
  0
LINE
  5
3CB
100
AcDbEntity
  8
0
100
AcDbLine
 62
2
  6
CONTINUOUS
 10
13.1648352003
 20
1.699336785
 11
13.206030605
 21
1.7405321897
  0
LINE
  5
3CC
100
AcDbEntity
  8
0
100
AcDbLine
 62
2
  6
CONTINUOUS
 10
13.27138341
 20
1.8058849947
 11
13.3277852891
 21
1.8622868737
  0
LINE
  5
3CD
100
AcDbEntity
  8
0
100
AcDbLine
 62
2
  6
CONTINUOUS
 10
13.1662162682
 20
1.699336785
 11
13.206030605
 21
1.7391511218
  0
LINE
  5
3CE
100
AcDbEntity
  8
0
100
AcDbLine
 62
2
  6
CONTINUOUS
 10
13.27138341
 20
1.8045039268
 11
13.3282256239
 21
1.8613461406
  0
LINE
  5
3CF
100
AcDbEntity
  8
0
100
AcDbLine
 62
2
  6
CONTINUOUS
 10
13.1675973362
 20
1.699336785
 11
13.206030605
 21
1.7377700538
  0
LINE
  5
3D0
100
AcDbEntity
  8
0
100
AcDbLine
 62
2
  6
CONTINUOUS
 10
13.27138341
 20
1.8031228588
 11
13.3286659587
 21
1.8604054075
  0
LINE
  5
3D1
100
AcDbEntity
  8
0
100
AcDbLine
 62
2
  6
CONTINUOUS
 10
13.1689784041
 20
1.699336785
 11
13.206030605
 21
1.7363889859
  0
LINE
  5
3D2
100
AcDbEntity
  8
0
100
AcDbLine
 62
2
  6
CONTINUOUS
 10
13.27138341
 20
1.8017417909
 11
13.3291062935
 21
1.8594646744
  0
LINE
  5
3D3
100
AcDbEntity
  8
0
100
AcDbLine
 62
2
  6
CONTINUOUS
 10
13.170359472
 20
1.699336785
 11
13.206030605
 21
1.735007918
  0
LINE
  5
3D4
100
AcDbEntity
  8
0
100
AcDbLine
 62
2
  6
CONTINUOUS
 10
13.27138341
 20
1.800360723
 11
13.3295466284
 21
1.8585239413
  0
LINE
  5
3D5
100
AcDbEntity
  8
0
100
AcDbLine
 62
2
  6
CONTINUOUS
 10
13.17174054
 20
1.699336785
 11
13.206030605
 21
1.73362685
  0
LINE
  5
3D6
100
AcDbEntity
  8
0
100
AcDbLine
 62
2
  6
CONTINUOUS
 10
13.27138341
 20
1.798979655
 11
13.3299869632
 21
1.8575832082
  0
LINE
  5
3D7
100
AcDbEntity
  8
0
100
AcDbLine
 62
2
  6
CONTINUOUS
 10
13.1731216079
 20
1.699336785
 11
13.206030605
 21
1.7322457821
  0
LINE
  5
3D8
100
AcDbEntity
  8
0
100
AcDbLine
 62
2
  6
CONTINUOUS
 10
13.27138341
 20
1.7975985871
 11
13.330427298
 21
1.8566424751
  0
LINE
  5
3D9
100
AcDbEntity
  8
0
100
AcDbLine
 62
2
  6
CONTINUOUS
 10
13.1745026758
 20
1.699336785
 11
13.206030605
 21
1.7308647142
  0
LINE
  5
3DA
100
AcDbEntity
  8
0
100
AcDbLine
 62
2
  6
CONTINUOUS
 10
13.27138341
 20
1.7962175192
 11
13.3308676329
 21
1.855701742
  0
LINE
  5
3DB
100
AcDbEntity
  8
0
100
AcDbLine
 62
2
  6
CONTINUOUS
 10
13.1758837438
 20
1.699336785
 11
13.206030605
 21
1.7294836462
  0
LINE
  5
3DC
100
AcDbEntity
  8
0
100
AcDbLine
 62
2
  6
CONTINUOUS
 10
13.27138341
 20
1.7948364512
 11
13.3313079677
 21
1.8547610089
  0
LINE
  5
3DD
100
AcDbEntity
  8
0
100
AcDbLine
 62
2
  6
CONTINUOUS
 10
13.1772648117
 20
1.699336785
 11
13.206030605
 21
1.7281025783
  0
LINE
  5
3DE
100
AcDbEntity
  8
0
100
AcDbLine
 62
2
  6
CONTINUOUS
 10
13.27138341
 20
1.7934553833
 11
13.3317483025
 21
1.8538202758
  0
LINE
  5
3DF
100
AcDbEntity
  8
0
100
AcDbLine
 62
2
  6
CONTINUOUS
 10
13.372792935
 20
1.8948649083
 11
13.3733232267
 21
1.8953952
  0
LINE
  5
3E0
100
AcDbEntity
  8
0
100
AcDbLine
 62
2
  6
CONTINUOUS
 10
13.1786458796
 20
1.699336785
 11
13.206030605
 21
1.7267215104
  0
LINE
  5
3E1
100
AcDbEntity
  8
0
100
AcDbLine
 62
2
  6
CONTINUOUS
 10
13.27138341
 20
1.7920743154
 11
13.3321886374
 21
1.8528795427
  0
LINE
  5
3E2
100
AcDbEntity
  8
0
100
AcDbLine
 62
2
  6
CONTINUOUS
 10
13.372792935
 20
1.8934838404
 11
13.3747042946
 21
1.8953952
  0
LINE
  5
3E3
100
AcDbEntity
  8
0
100
AcDbLine
 62
2
  6
CONTINUOUS
 10
13.1800269476
 20
1.699336785
 11
13.206030605
 21
1.7253404424
  0
LINE
  5
3E4
100
AcDbEntity
  8
0
100
AcDbLine
 62
2
  6
CONTINUOUS
 10
13.27138341
 20
1.7906932474
 11
13.3325881612
 21
1.8518979986
  0
LINE
  5
3E5
100
AcDbEntity
  8
0
100
AcDbLine
 62
2
  6
CONTINUOUS
 10
13.372792935
 20
1.8921027724
 11
13.3760853626
 21
1.8953952
  0
LINE
  5
3E6
100
AcDbEntity
  8
0
100
AcDbLine
 62
2
  6
CONTINUOUS
 10
13.1814080155
 20
1.699336785
 11
13.206030605
 21
1.7239593745
  0
LINE
  5
3E7
100
AcDbEntity
  8
0
100
AcDbLine
 62
2
  6
CONTINUOUS
 10
13.27138341
 20
1.7893121795
 11
13.3328781229
 21
1.8508068924
  0
LINE
  5
3E8
100
AcDbEntity
  8
0
100
AcDbLine
 62
2
  6
CONTINUOUS
 10
13.372792935
 20
1.8907217045
 11
13.3774664305
 21
1.8953952
  0
LINE
  5
3E9
100
AcDbEntity
  8
0
100
AcDbLine
 62
2
  6
CONTINUOUS
 10
13.1827890834
 20
1.699336785
 11
13.206030605
 21
1.7225783066
  0
LINE
  5
3EA
100
AcDbEntity
  8
0
100
AcDbLine
 62
2
  6
CONTINUOUS
 10
13.27138341
 20
1.7879311116
 11
13.3331680846
 21
1.8497157862
  0
LINE
  5
3EB
100
AcDbEntity
  8
0
100
AcDbLine
 62
2
  6
CONTINUOUS
 10
13.372792935
 20
1.8893406366
 11
13.3788474984
 21
1.8953952
  0
LINE
  5
3EC
100
AcDbEntity
  8
0
100
AcDbLine
 62
2
  6
CONTINUOUS
 10
13.1841701514
 20
1.699336785
 11
13.206030605
 21
1.7211972386
  0
LINE
  5
3ED
100
AcDbEntity
  8
0
100
AcDbLine
 62
2
  6
CONTINUOUS
 10
13.27138341
 20
1.7865500436
 11
13.3334580463
 21
1.8486246799
  0
LINE
  5
3EE
100
AcDbEntity
  8
0
100
AcDbLine
 62
2
  6
CONTINUOUS
 10
13.372792935
 20
1.8879595686
 11
13.3802285664
 21
1.8953952
  0
LINE
  5
3EF
100
AcDbEntity
  8
0
100
AcDbLine
 62
2
  6
CONTINUOUS
 10
13.1855512193
 20
1.699336785
 11
13.206030605
 21
1.7198161707
  0
LINE
  5
3F0
100
AcDbEntity
  8
0
100
AcDbLine
 62
2
  6
CONTINUOUS
 10
13.27138341
 20
1.7851689757
 11
13.333748008
 21
1.8475335737
  0
LINE
  5
3F1
100
AcDbEntity
  8
0
100
AcDbLine
 62
2
  6
CONTINUOUS
 10
13.372792935
 20
1.8865785007
 11
13.3816096343
 21
1.8953952
  0
LINE
  5
3F2
100
AcDbEntity
  8
0
100
AcDbLine
 62
2
  6
CONTINUOUS
 10
13.1869322872
 20
1.699336785
 11
13.206030605
 21
1.7184351028
  0
LINE
  5
3F3
100
AcDbEntity
  8
0
100
AcDbLine
 62
2
  6
CONTINUOUS
 10
13.27138341
 20
1.7837879078
 11
13.3340379697
 21
1.8464424675
  0
LINE
  5
3F4
100
AcDbEntity
  8
0
100
AcDbLine
 62
2
  6
CONTINUOUS
 10
13.372792935
 20
1.8851974328
 11
13.3829907022
 21
1.8953952
  0
LINE
  5
3F5
100
AcDbEntity
  8
0
100
AcDbLine
 62
2
  6
CONTINUOUS
 10
13.1883133552
 20
1.699336785
 11
13.206030605
 21
1.7170540348
  0
LINE
  5
3F6
100
AcDbEntity
  8
0
100
AcDbLine
 62
2
  6
CONTINUOUS
 10
13.27138341
 20
1.7824068398
 11
13.3343279314
 21
1.8453513612
  0
LINE
  5
3F7
100
AcDbEntity
  8
0
100
AcDbLine
 62
2
  6
CONTINUOUS
 10
13.372792935
 20
1.8838163648
 11
13.3843717702
 21
1.8953952
  0
LINE
  5
3F8
100
AcDbEntity
  8
0
100
AcDbLine
 62
2
  6
CONTINUOUS
 10
13.1896944231
 20
1.699336785
 11
13.206030605
 21
1.7156729669
  0
LINE
  5
3F9
100
AcDbEntity
  8
0
100
AcDbLine
 62
2
  6
CONTINUOUS
 10
13.27138341
 20
1.7810257719
 11
13.3346178931
 21
1.844260255
  0
LINE
  5
3FA
100
AcDbEntity
  8
0
100
AcDbLine
 62
2
  6
CONTINUOUS
 10
13.372792935
 20
1.8824352969
 11
13.3857528381
 21
1.8953952
  0
LINE
  5
3FB
100
AcDbEntity
  8
0
100
AcDbLine
 62
2
  6
CONTINUOUS
 10
13.191075491
 20
1.699336785
 11
13.206030605
 21
1.714291899
  0
LINE
  5
3FC
100
AcDbEntity
  8
0
100
AcDbLine
 62
2
  6
CONTINUOUS
 10
13.27138341
 20
1.779644704
 11
13.3349078548
 21
1.8431691488
  0
LINE
  5
3FD
100
AcDbEntity
  8
0
100
AcDbLine
 62
2
  6
CONTINUOUS
 10
13.372792935
 20
1.881054229
 11
13.387133906
 21
1.8953952
  0
LINE
  5
3FE
100
AcDbEntity
  8
0
100
AcDbLine
 62
2
  6
CONTINUOUS
 10
13.192456559
 20
1.699336785
 11
13.206030605
 21
1.712910831
  0
LINE
  5
3FF
100
AcDbEntity
  8
0
100
AcDbLine
 62
2
  6
CONTINUOUS
 10
13.27138341
 20
1.778263636
 11
13.3351978165
 21
1.8420780425
  0
LINE
  5
400
100
AcDbEntity
  8
0
100
AcDbLine
 62
2
  6
CONTINUOUS
 10
13.372792935
 20
1.879673161
 11
13.388514974
 21
1.8953952
  0
LINE
  5
401
100
AcDbEntity
  8
0
100
AcDbLine
 62
2
  6
CONTINUOUS
 10
13.1938376269
 20
1.699336785
 11
13.206030605
 21
1.7115297631
  0
LINE
  5
402
100
AcDbEntity
  8
0
100
AcDbLine
 62
2
  6
CONTINUOUS
 10
13.27138341
 20
1.7768825681
 11
13.3354877782
 21
1.8409869363
  0
LINE
  5
403
100
AcDbEntity
  8
0
100
AcDbLine
 62
2
  6
CONTINUOUS
 10
13.372792935
 20
1.8782920931
 11
13.3898960419
 21
1.8953952
  0
LINE
  5
404
100
AcDbEntity
  8
0
100
AcDbLine
 62
2
  6
CONTINUOUS
 10
13.1952186948
 20
1.699336785
 11
13.206030605
 21
1.7101486952
  0
LINE
  5
405
100
AcDbEntity
  8
0
100
AcDbLine
 62
2
  6
CONTINUOUS
 10
13.27138341
 20
1.7755015002
 11
13.3357075668
 21
1.839825657
  0
LINE
  5
406
100
AcDbEntity
  8
0
100
AcDbLine
 62
2
  6
CONTINUOUS
 10
13.372792935
 20
1.8769110252
 11
13.3912771098
 21
1.8953952
  0
LINE
  5
407
100
AcDbEntity
  8
0
100
AcDbLine
 62
2
  6
CONTINUOUS
 10
13.1965997627
 20
1.699336785
 11
13.206030605
 21
1.7087676273
  0
LINE
  5
408
100
AcDbEntity
  8
0
100
AcDbLine
 62
2
  6
CONTINUOUS
 10
13.27138341
 20
1.7741204323
 11
13.3358162988
 21
1.8385533211
  0
LINE
  5
409
100
AcDbEntity
  8
0
100
AcDbLine
 62
2
  6
CONTINUOUS
 10
13.372792935
 20
1.8755299573
 11
13.3926581777
 21
1.8953952
  0
LINE
  5
40A
100
AcDbEntity
  8
0
100
AcDbLine
 62
2
  6
CONTINUOUS
 10
13.1979808307
 20
1.699336785
 11
13.206030605
 21
1.7073865593
  0
LINE
  5
40B
100
AcDbEntity
  8
0
100
AcDbLine
 62
2
  6
CONTINUOUS
 10
13.27138341
 20
1.7727393643
 11
13.3359250308
 21
1.8372809852
  0
LINE
  5
40C
100
AcDbEntity
  8
0
100
AcDbLine
 62
2
  6
CONTINUOUS
 10
13.372792935
 20
1.8741488893
 11
13.3940392457
 21
1.8953952
  0
LINE
  5
40D
100
AcDbEntity
  8
0
100
AcDbLine
 62
2
  6
CONTINUOUS
 10
13.1993618986
 20
1.699336785
 11
13.206030605
 21
1.7060054914
  0
LINE
  5
40E
100
AcDbEntity
  8
0
100
AcDbLine
 62
2
  6
CONTINUOUS
 10
13.27138341
 20
1.7713582964
 11
13.3360337628
 21
1.8360086492
  0
LINE
  5
40F
100
AcDbEntity
  8
0
100
AcDbLine
 62
2
  6
CONTINUOUS
 10
13.372792935
 20
1.8727678214
 11
13.3954203136
 21
1.8953952
  0
LINE
  5
410
100
AcDbEntity
  8
0
100
AcDbLine
 62
2
  6
CONTINUOUS
 10
13.2007429665
 20
1.699336785
 11
13.206030605
 21
1.7046244235
  0
LINE
  5
411
100
AcDbEntity
  8
0
100
AcDbLine
 62
2
  6
CONTINUOUS
 10
13.27138341
 20
1.7699772285
 11
13.3361424948
 21
1.8347363133
  0
LINE
  5
412
100
AcDbEntity
  8
0
100
AcDbLine
 62
2
  6
CONTINUOUS
 10
13.372792935
 20
1.8713867535
 11
13.3968013815
 21
1.8953952
  0
LINE
  5
413
100
AcDbEntity
  8
0
100
AcDbLine
 62
2
  6
CONTINUOUS
 10
13.2021240345
 20
1.699336785
 11
13.206030605
 21
1.7032433555
  0
LINE
  5
414
100
AcDbEntity
  8
0
100
AcDbLine
 62
2
  6
CONTINUOUS
 10
13.27138341
 20
1.7685961605
 11
13.3362512268
 21
1.8334639773
  0
LINE
  5
415
100
AcDbEntity
  8
0
100
AcDbLine
 62
2
  6
CONTINUOUS
 10
13.372792935
 20
1.8700056855
 11
13.3981824495
 21
1.8953952
  0
LINE
  5
416
100
AcDbEntity
  8
0
100
AcDbLine
 62
2
  6
CONTINUOUS
 10
13.2035051024
 20
1.699336785
 11
13.206030605
 21
1.7018622876
  0
LINE
  5
417
100
AcDbEntity
  8
0
100
AcDbLine
 62
2
  6
CONTINUOUS
 10
13.27138341
 20
1.7672150926
 11
13.3363599588
 21
1.8321916414
  0
LINE
  5
418
100
AcDbEntity
  8
0
100
AcDbLine
 62
2
  6
CONTINUOUS
 10
13.372792935
 20
1.8686246176
 11
13.3995635174
 21
1.8953952
  0
LINE
  5
419
100
AcDbEntity
  8
0
100
AcDbLine
 62
2
  6
CONTINUOUS
 10
13.2048861703
 20
1.699336785
 11
13.206030605
 21
1.7004812197
  0
LINE
  5
41A
100
AcDbEntity
  8
0
100
AcDbLine
 62
2
  6
CONTINUOUS
 10
13.27138341
 20
1.7658340247
 11
13.3364686908
 21
1.8309193055
  0
LINE
  5
41B
100
AcDbEntity
  8
0
100
AcDbLine
 62
2
  6
CONTINUOUS
 10
13.372792935
 20
1.8672435497
 11
13.4009445853
 21
1.8953952
  0
LINE
  5
41C
100
AcDbEntity
  8
0
100
AcDbLine
 62
2
  6
CONTINUOUS
 10
13.27138341
 20
1.7644529567
 11
13.3365774228
 21
1.8296469695
  0
LINE
  5
41D
100
AcDbEntity
  8
0
100
AcDbLine
 62
2
  6
CONTINUOUS
 10
13.372792935
 20
1.8658624817
 11
13.4023256533
 21
1.8953952
  0
LINE
  5
41E
100
AcDbEntity
  8
0
100
AcDbLine
 62
2
  6
CONTINUOUS
 10
13.27138341
 20
1.7630718888
 11
13.3366861548
 21
1.8283746336
  0
LINE
  5
41F
100
AcDbEntity
  8
0
100
AcDbLine
 62
2
  6
CONTINUOUS
 10
13.372792935
 20
1.8644814138
 11
13.4037067212
 21
1.8953952
  0
LINE
  5
420
100
AcDbEntity
  8
0
100
AcDbLine
 62
2
  6
CONTINUOUS
 10
13.27138341
 20
1.7616908209
 11
13.336736215
 21
1.8270436259
  0
LINE
  5
421
100
AcDbEntity
  8
0
100
AcDbLine
 62
2
  6
CONTINUOUS
 10
13.372792935
 20
1.8631003459
 11
13.4050877891
 21
1.8953952
  0
LINE
  5
422
100
AcDbEntity
  8
0
100
AcDbLine
 62
2
  6
CONTINUOUS
 10
13.27138341
 20
1.7603097529
 11
13.336736215
 21
1.8256625579
  0
LINE
  5
423
100
AcDbEntity
  8
0
100
AcDbLine
 62
2
  6
CONTINUOUS
 10
13.372792935
 20
1.8617192779
 11
13.4064688571
 21
1.8953952
  0
LINE
  5
424
100
AcDbEntity
  8
0
100
AcDbLine
 62
2
  6
CONTINUOUS
 10
13.27138341
 20
1.758928685
 11
13.336736215
 21
1.82428149
  0
LINE
  5
425
100
AcDbEntity
  8
0
100
AcDbLine
 62
2
  6
CONTINUOUS
 10
13.372792935
 20
1.86033821
 11
13.407849925
 21
1.8953952
  0
LINE
  5
426
100
AcDbEntity
  8
0
100
AcDbLine
 62
2
  6
CONTINUOUS
 10
13.27138341
 20
1.7575476171
 11
13.336736215
 21
1.8229004221
  0
LINE
  5
427
100
AcDbEntity
  8
0
100
AcDbLine
 62
2
  6
CONTINUOUS
 10
13.372792935
 20
1.8589571421
 11
13.4092309929
 21
1.8953952
  0
LINE
  5
428
100
AcDbEntity
  8
0
100
AcDbLine
 62
2
  6
CONTINUOUS
 10
13.27138341
 20
1.7561665491
 11
13.336736215
 21
1.8215193541
  0
LINE
  5
429
100
AcDbEntity
  8
0
100
AcDbLine
 62
2
  6
CONTINUOUS
 10
13.372792935
 20
1.8575760741
 11
13.4106120609
 21
1.8953952
  0
LINE
  5
42A
100
AcDbEntity
  8
0
100
AcDbLine
 62
2
  6
CONTINUOUS
 10
13.27138341
 20
1.7547854812
 11
13.336736215
 21
1.8201382862
  0
LINE
  5
42B
100
AcDbEntity
  8
0
100
AcDbLine
 62
2
  6
CONTINUOUS
 10
13.372792935
 20
1.8561950062
 11
13.4119931288
 21
1.8953952
  0
LINE
  5
42C
100
AcDbEntity
  8
0
100
AcDbLine
 62
2
  6
CONTINUOUS
 10
13.27138341
 20
1.7534044133
 11
13.336736215
 21
1.8187572183
  0
LINE
  5
42D
100
AcDbEntity
  8
0
100
AcDbLine
 62
2
  6
CONTINUOUS
 10
13.372792935
 20
1.8548139383
 11
13.4133741967
 21
1.8953952
  0
LINE
  5
42E
100
AcDbEntity
  8
0
100
AcDbLine
 62
2
  6
CONTINUOUS
 10
13.27138341
 20
1.7520233453
 11
13.336736215
 21
1.8173761503
  0
LINE
  5
42F
100
AcDbEntity
  8
0
100
AcDbLine
 62
2
  6
CONTINUOUS
 10
13.372792935
 20
1.8534328703
 11
13.4147552647
 21
1.8953952
  0
LINE
  5
430
100
AcDbEntity
  8
0
100
AcDbLine
 62
2
  6
CONTINUOUS
 10
13.27138341
 20
1.7506422774
 11
13.336736215
 21
1.8159950824
  0
LINE
  5
431
100
AcDbEntity
  8
0
100
AcDbLine
 62
2
  6
CONTINUOUS
 10
13.372792935
 20
1.8520518024
 11
13.4161363326
 21
1.8953952
  0
LINE
  5
432
100
AcDbEntity
  8
0
100
AcDbLine
 62
2
  6
CONTINUOUS
 10
13.27138341
 20
1.7492612095
 11
13.336736215
 21
1.8146140145
  0
LINE
  5
433
100
AcDbEntity
  8
0
100
AcDbLine
 62
2
  6
CONTINUOUS
 10
13.372792935
 20
1.8506707345
 11
13.4175174005
 21
1.8953952
  0
LINE
  5
434
100
AcDbEntity
  8
0
100
AcDbLine
 62
2
  6
CONTINUOUS
 10
13.27138341
 20
1.7478801415
 11
13.336736215
 21
1.8132329465
  0
LINE
  5
435
100
AcDbEntity
  8
0
100
AcDbLine
 62
2
  6
CONTINUOUS
 10
13.372792935
 20
1.8492896665
 11
13.4188984685
 21
1.8953952
  0
LINE
  5
436
100
AcDbEntity
  8
0
100
AcDbLine
 62
2
  6
CONTINUOUS
 10
13.27138341
 20
1.7464990736
 11
13.336736215
 21
1.8118518786
  0
LINE
  5
437
100
AcDbEntity
  8
0
100
AcDbLine
 62
2
  6
CONTINUOUS
 10
13.372792935
 20
1.8479085986
 11
13.4202795364
 21
1.8953952
  0
LINE
  5
438
100
AcDbEntity
  8
0
100
AcDbLine
 62
2
  6
CONTINUOUS
 10
13.27138341
 20
1.7451180057
 11
13.336736215
 21
1.8104708107
  0
LINE
  5
439
100
AcDbEntity
  8
0
100
AcDbLine
 62
2
  6
CONTINUOUS
 10
13.372792935
 20
1.8465275307
 11
13.4216606043
 21
1.8953952
  0
LINE
  5
43A
100
AcDbEntity
  8
0
100
AcDbLine
 62
2
  6
CONTINUOUS
 10
13.27138341
 20
1.7437369377
 11
13.336736215
 21
1.8090897427
  0
LINE
  5
43B
100
AcDbEntity
  8
0
100
AcDbLine
 62
2
  6
CONTINUOUS
 10
13.372792935
 20
1.8451464627
 11
13.4230416723
 21
1.8953952
  0
LINE
  5
43C
100
AcDbEntity
  8
0
100
AcDbLine
 62
2
  6
CONTINUOUS
 10
13.27138341
 20
1.7423558698
 11
13.336736215
 21
1.8077086748
  0
LINE
  5
43D
100
AcDbEntity
  8
0
100
AcDbLine
 62
2
  6
CONTINUOUS
 10
13.372792935
 20
1.8437653948
 11
13.4244227402
 21
1.8953952
  0
LINE
  5
43E
100
AcDbEntity
  8
0
100
AcDbLine
 62
2
  6
CONTINUOUS
 10
13.27138341
 20
1.7409748019
 11
13.336736215
 21
1.8063276069
  0
LINE
  5
43F
100
AcDbEntity
  8
0
100
AcDbLine
 62
2
  6
CONTINUOUS
 10
13.372792935
 20
1.8423843269
 11
13.4258038081
 21
1.8953952
  0
LINE
  5
440
100
AcDbEntity
  8
0
100
AcDbLine
 62
2
  6
CONTINUOUS
 10
13.27138341
 20
1.739593734
 11
13.336736215
 21
1.804946539
  0
LINE
  5
441
100
AcDbEntity
  8
0
100
AcDbLine
 62
2
  6
CONTINUOUS
 10
13.372792935
 20
1.841003259
 11
13.427184876
 21
1.8953952
  0
LINE
  5
442
100
AcDbEntity
  8
0
100
AcDbLine
 62
2
  6
CONTINUOUS
 10
13.27138341
 20
1.738212666
 11
13.336736215
 21
1.803565471
  0
LINE
  5
443
100
AcDbEntity
  8
0
100
AcDbLine
 62
2
  6
CONTINUOUS
 10
13.372792935
 20
1.839622191
 11
13.428565944
 21
1.8953952
  0
LINE
  5
444
100
AcDbEntity
  8
0
100
AcDbLine
 62
2
  6
CONTINUOUS
 10
13.27138341
 20
1.7368315981
 11
13.336736215
 21
1.8021844031
  0
LINE
  5
445
100
AcDbEntity
  8
0
100
AcDbLine
 62
2
  6
CONTINUOUS
 10
13.372792935
 20
1.8382411231
 11
13.4299470119
 21
1.8953952
  0
LINE
  5
446
100
AcDbEntity
  8
0
100
AcDbLine
 62
2
  6
CONTINUOUS
 10
13.27138341
 20
1.7354505302
 11
13.336736215
 21
1.8008033352
  0
LINE
  5
447
100
AcDbEntity
  8
0
100
AcDbLine
 62
2
  6
CONTINUOUS
 10
13.372792935
 20
1.8368600552
 11
13.4313280798
 21
1.8953952
  0
LINE
  5
448
100
AcDbEntity
  8
0
100
AcDbLine
 62
2
  6
CONTINUOUS
 10
13.27138341
 20
1.7340694622
 11
13.336736215
 21
1.7994222672
  0
LINE
  5
449
100
AcDbEntity
  8
0
100
AcDbLine
 62
2
  6
CONTINUOUS
 10
13.372792935
 20
1.8354789872
 11
13.4327091478
 21
1.8953952
  0
LINE
  5
44A
100
AcDbEntity
  8
0
100
AcDbLine
 62
2
  6
CONTINUOUS
 10
13.27138341
 20
1.7326883943
 11
13.336736215
 21
1.7980411993
  0
LINE
  5
44B
100
AcDbEntity
  8
0
100
AcDbLine
 62
2
  6
CONTINUOUS
 10
13.372792935
 20
1.8340979193
 11
13.4340902157
 21
1.8953952
  0
LINE
  5
44C
100
AcDbEntity
  8
0
100
AcDbLine
 62
2
  6
CONTINUOUS
 10
13.27138341
 20
1.7313073264
 11
13.336736215
 21
1.7966601314
  0
LINE
  5
44D
100
AcDbEntity
  8
0
100
AcDbLine
 62
2
  6
CONTINUOUS
 10
13.372792935
 20
1.8327168514
 11
13.4354712836
 21
1.8953952
  0
LINE
  5
44E
100
AcDbEntity
  8
0
100
AcDbLine
 62
2
  6
CONTINUOUS
 10
13.27138341
 20
1.7299262584
 11
13.336736215
 21
1.7952790634
  0
LINE
  5
44F
100
AcDbEntity
  8
0
100
AcDbLine
 62
2
  6
CONTINUOUS
 10
13.372792935
 20
1.8313357834
 11
13.4368523516
 21
1.8953952
  0
LINE
  5
450
100
AcDbEntity
  8
0
100
AcDbLine
 62
2
  6
CONTINUOUS
 10
13.27138341
 20
1.7285451905
 11
13.336736215
 21
1.7938979955
  0
LINE
  5
451
100
AcDbEntity
  8
0
100
AcDbLine
 62
2
  6
CONTINUOUS
 10
13.372792935
 20
1.8299547155
 11
13.43814574
 21
1.8953075205
  0
LINE
  5
452
100
AcDbEntity
  8
0
100
AcDbLine
 62
2
  6
CONTINUOUS
 10
13.27138341
 20
1.7271641226
 11
13.336736215
 21
1.7925169276
  0
LINE
  5
453
100
AcDbEntity
  8
0
100
AcDbLine
 62
2
  6
CONTINUOUS
 10
13.372792935
 20
1.8285736476
 11
13.43814574
 21
1.8939264526
  0
LINE
  5
454
100
AcDbEntity
  8
0
100
AcDbLine
 62
2
  6
CONTINUOUS
 10
13.27138341
 20
1.7257830546
 11
13.336736215
 21
1.7911358596
  0
LINE
  5
455
100
AcDbEntity
  8
0
100
AcDbLine
 62
2
  6
CONTINUOUS
 10
13.372792935
 20
1.8271925796
 11
13.43814574
 21
1.8925453846
  0
LINE
  5
456
100
AcDbEntity
  8
0
100
AcDbLine
 62
2
  6
CONTINUOUS
 10
13.27138341
 20
1.7244019867
 11
13.336736215
 21
1.7897547917
  0
LINE
  5
457
100
AcDbEntity
  8
0
100
AcDbLine
 62
2
  6
CONTINUOUS
 10
13.372792935
 20
1.8258115117
 11
13.43814574
 21
1.8911643167
  0
LINE
  5
458
100
AcDbEntity
  8
0
100
AcDbLine
 62
2
  6
CONTINUOUS
 10
13.27138341
 20
1.7230209188
 11
13.336736215
 21
1.7883737238
  0
LINE
  5
459
100
AcDbEntity
  8
0
100
AcDbLine
 62
2
  6
CONTINUOUS
 10
13.372792935
 20
1.8244304438
 11
13.43814574
 21
1.8897832488
  0
LINE
  5
45A
100
AcDbEntity
  8
0
100
AcDbLine
 62
2
  6
CONTINUOUS
 10
13.27138341
 20
1.7216398508
 11
13.336736215
 21
1.7869926558
  0
LINE
  5
45B
100
AcDbEntity
  8
0
100
AcDbLine
 62
2
  6
CONTINUOUS
 10
13.372792935
 20
1.8230493758
 11
13.43814574
 21
1.8884021808
  0
LINE
  5
45C
100
AcDbEntity
  8
0
100
AcDbLine
 62
2
  6
CONTINUOUS
 10
13.27138341
 20
1.7202587829
 11
13.336736215
 21
1.7856115879
  0
LINE
  5
45D
100
AcDbEntity
  8
0
100
AcDbLine
 62
2
  6
CONTINUOUS
 10
13.372792935
 20
1.8216683079
 11
13.43814574
 21
1.8870211129
  0
LINE
  5
45E
100
AcDbEntity
  8
0
100
AcDbLine
 62
2
  6
CONTINUOUS
 10
13.27138341
 20
1.718877715
 11
13.336736215
 21
1.78423052
  0
LINE
  5
45F
100
AcDbEntity
  8
0
100
AcDbLine
 62
2
  6
CONTINUOUS
 10
13.372792935
 20
1.82028724
 11
13.43814574
 21
1.885640045
  0
LINE
  5
460
100
AcDbEntity
  8
0
100
AcDbLine
 62
2
  6
CONTINUOUS
 10
13.27138341
 20
1.717496647
 11
13.336736215
 21
1.782849452
  0
LINE
  5
461
100
AcDbEntity
  8
0
100
AcDbLine
 62
2
  6
CONTINUOUS
 10
13.372792935
 20
1.818906172
 11
13.43814574
 21
1.884258977
  0
LINE
  5
462
100
AcDbEntity
  8
0
100
AcDbLine
 62
2
  6
CONTINUOUS
 10
13.27138341
 20
1.7161155791
 11
13.336736215
 21
1.7814683841
  0
LINE
  5
463
100
AcDbEntity
  8
0
100
AcDbLine
 62
2
  6
CONTINUOUS
 10
13.372792935
 20
1.8175251041
 11
13.43814574
 21
1.8828779091
  0
LINE
  5
464
100
AcDbEntity
  8
0
100
AcDbLine
 62
2
  6
CONTINUOUS
 10
13.27138341
 20
1.7147345112
 11
13.336736215
 21
1.7800873162
  0
LINE
  5
465
100
AcDbEntity
  8
0
100
AcDbLine
 62
2
  6
CONTINUOUS
 10
13.372792935
 20
1.8161440362
 11
13.43814574
 21
1.8814968412
  0
LINE
  5
466
100
AcDbEntity
  8
0
100
AcDbLine
 62
2
  6
CONTINUOUS
 10
13.27138341
 20
1.7133534432
 11
13.336736215
 21
1.7787062482
  0
LINE
  5
467
100
AcDbEntity
  8
0
100
AcDbLine
 62
2
  6
CONTINUOUS
 10
13.372792935
 20
1.8147629682
 11
13.43814574
 21
1.8801157732
  0
LINE
  5
468
100
AcDbEntity
  8
0
100
AcDbLine
 62
2
  6
CONTINUOUS
 10
13.27138341
 20
1.7119723753
 11
13.336736215
 21
1.7773251803
  0
LINE
  5
469
100
AcDbEntity
  8
0
100
AcDbLine
 62
2
  6
CONTINUOUS
 10
13.372792935
 20
1.8133819003
 11
13.43814574
 21
1.8787347053
  0
LINE
  5
46A
100
AcDbEntity
  8
0
100
AcDbLine
 62
2
  6
CONTINUOUS
 10
13.27138341
 20
1.7105913074
 11
13.336736215
 21
1.7759441124
  0
LINE
  5
46B
100
AcDbEntity
  8
0
100
AcDbLine
 62
2
  6
CONTINUOUS
 10
13.372792935
 20
1.8120008324
 11
13.43814574
 21
1.8773536374
  0
LINE
  5
46C
100
AcDbEntity
  8
0
100
AcDbLine
 62
2
  6
CONTINUOUS
 10
13.27138341
 20
1.7092102394
 11
13.336736215
 21
1.7745630444
  0
LINE
  5
46D
100
AcDbEntity
  8
0
100
AcDbLine
 62
2
  6
CONTINUOUS
 10
13.372792935
 20
1.8106197644
 11
13.43814574
 21
1.8759725694
  0
LINE
  5
46E
100
AcDbEntity
  8
0
100
AcDbLine
 62
2
  6
CONTINUOUS
 10
13.27138341
 20
1.7078291715
 11
13.336736215
 21
1.7731819765
  0
LINE
  5
46F
100
AcDbEntity
  8
0
100
AcDbLine
 62
2
  6
CONTINUOUS
 10
13.372792935
 20
1.8092386965
 11
13.43814574
 21
1.8745915015
  0
LINE
  5
470
100
AcDbEntity
  8
0
100
AcDbLine
 62
2
  6
CONTINUOUS
 10
13.27138341
 20
1.7064481036
 11
13.336736215
 21
1.7718009086
  0
LINE
  5
471
100
AcDbEntity
  8
0
100
AcDbLine
 62
2
  6
CONTINUOUS
 10
13.372792935
 20
1.8078576286
 11
13.43814574
 21
1.8732104336
  0
LINE
  5
472
100
AcDbEntity
  8
0
100
AcDbLine
 62
2
  6
CONTINUOUS
 10
13.27138341
 20
1.7050670357
 11
13.336736215
 21
1.7704198407
  0
LINE
  5
473
100
AcDbEntity
  8
0
100
AcDbLine
 62
2
  6
CONTINUOUS
 10
13.372792935
 20
1.8064765607
 11
13.43814574
 21
1.8718293657
  0
LINE
  5
474
100
AcDbEntity
  8
0
100
AcDbLine
 62
2
  6
CONTINUOUS
 10
13.27138341
 20
1.7036859677
 11
13.336736215
 21
1.7690387727
  0
LINE
  5
475
100
AcDbEntity
  8
0
100
AcDbLine
 62
2
  6
CONTINUOUS
 10
13.372792935
 20
1.8050954927
 11
13.43814574
 21
1.8704482977
  0
LINE
  5
476
100
AcDbEntity
  8
0
100
AcDbLine
 62
2
  6
CONTINUOUS
 10
13.27138341
 20
1.7023048998
 11
13.336736215
 21
1.7676577048
  0
LINE
  5
477
100
AcDbEntity
  8
0
100
AcDbLine
 62
2
  6
CONTINUOUS
 10
13.372792935
 20
1.8037144248
 11
13.43814574
 21
1.8690672298
  0
LINE
  5
478
100
AcDbEntity
  8
0
100
AcDbLine
 62
2
  6
CONTINUOUS
 10
13.27138341
 20
1.7009238319
 11
13.336736215
 21
1.7662766369
  0
LINE
  5
479
100
AcDbEntity
  8
0
100
AcDbLine
 62
2
  6
CONTINUOUS
 10
13.372792935
 20
1.8023333569
 11
13.43814574
 21
1.8676861619
  0
LINE
  5
47A
100
AcDbEntity
  8
0
100
AcDbLine
 62
2
  6
CONTINUOUS
 10
13.27138341
 20
1.6995427639
 11
13.336736215
 21
1.7648955689
  0
LINE
  5
47B
100
AcDbEntity
  8
0
100
AcDbLine
 62
2
  6
CONTINUOUS
 10
13.372792935
 20
1.8009522889
 11
13.43814574
 21
1.8663050939
  0
LINE
  5
47C
100
AcDbEntity
  8
0
100
AcDbLine
 62
2
  6
CONTINUOUS
 10
13.272558499
 20
1.699336785
 11
13.336736215
 21
1.763514501
  0
LINE
  5
47D
100
AcDbEntity
  8
0
100
AcDbLine
 62
2
  6
CONTINUOUS
 10
13.372792935
 20
1.799571221
 11
13.43814574
 21
1.864924026
  0
LINE
  5
47E
100
AcDbEntity
  8
0
100
AcDbLine
 62
2
  6
CONTINUOUS
 10
13.2739395669
 20
1.699336785
 11
13.336736215
 21
1.7621334331
  0
LINE
  5
47F
100
AcDbEntity
  8
0
100
AcDbLine
 62
2
  6
CONTINUOUS
 10
13.372792935
 20
1.7981901531
 11
13.43814574
 21
1.8635429581
  0
LINE
  5
480
100
AcDbEntity
  8
0
100
AcDbLine
 62
2
  6
CONTINUOUS
 10
13.2753206349
 20
1.699336785
 11
13.336736215
 21
1.7607523651
  0
LINE
  5
481
100
AcDbEntity
  8
0
100
AcDbLine
 62
2
  6
CONTINUOUS
 10
13.372792935
 20
1.7968090851
 11
13.43814574
 21
1.8621618901
  0
LINE
  5
482
100
AcDbEntity
  8
0
100
AcDbLine
 62
2
  6
CONTINUOUS
 10
13.2767017028
 20
1.699336785
 11
13.336736215
 21
1.7593712972
  0
LINE
  5
483
100
AcDbEntity
  8
0
100
AcDbLine
 62
2
  6
CONTINUOUS
 10
13.372792935
 20
1.7954280172
 11
13.43814574
 21
1.8607808222
  0
LINE
  5
484
100
AcDbEntity
  8
0
100
AcDbLine
 62
2
  6
CONTINUOUS
 10
13.2780827707
 20
1.699336785
 11
13.336736215
 21
1.7579902293
  0
LINE
  5
485
100
AcDbEntity
  8
0
100
AcDbLine
 62
2
  6
CONTINUOUS
 10
13.372792935
 20
1.7940469493
 11
13.43814574
 21
1.8593997543
  0
LINE
  5
486
100
AcDbEntity
  8
0
100
AcDbLine
 62
2
  6
CONTINUOUS
 10
13.2794638387
 20
1.699336785
 11
13.336736215
 21
1.7566091613
  0
LINE
  5
487
100
AcDbEntity
  8
0
100
AcDbLine
 62
2
  6
CONTINUOUS
 10
13.372792935
 20
1.7926658813
 11
13.43814574
 21
1.8580186863
  0
LINE
  5
488
100
AcDbEntity
  8
0
100
AcDbLine
 62
2
  6
CONTINUOUS
 10
13.2808449066
 20
1.699336785
 11
13.336736215
 21
1.7552280934
  0
LINE
  5
489
100
AcDbEntity
  8
0
100
AcDbLine
 62
2
  6
CONTINUOUS
 10
13.372792935
 20
1.7912848134
 11
13.43814574
 21
1.8566376184
  0
LINE
  5
48A
100
AcDbEntity
  8
0
100
AcDbLine
 62
2
  6
CONTINUOUS
 10
13.2822259745
 20
1.699336785
 11
13.336736215
 21
1.7538470255
  0
LINE
  5
48B
100
AcDbEntity
  8
0
100
AcDbLine
 62
2
  6
CONTINUOUS
 10
13.372792935
 20
1.7899037455
 11
13.43814574
 21
1.8552565505
  0
LINE
  5
48C
100
AcDbEntity
  8
0
100
AcDbLine
 62
2
  6
CONTINUOUS
 10
13.2836070425
 20
1.699336785
 11
13.336736215
 21
1.7524659575
  0
LINE
  5
48D
100
AcDbEntity
  8
0
100
AcDbLine
 62
2
  6
CONTINUOUS
 10
13.372792935
 20
1.7885226775
 11
13.43814574
 21
1.8538754825
  0
LINE
  5
48E
100
AcDbEntity
  8
0
100
AcDbLine
 62
2
  6
CONTINUOUS
 10
13.2849881104
 20
1.699336785
 11
13.336736215
 21
1.7510848896
  0
LINE
  5
48F
100
AcDbEntity
  8
0
100
AcDbLine
 62
2
  6
CONTINUOUS
 10
13.372792935
 20
1.7871416096
 11
13.43814574
 21
1.8524944146
  0
LINE
  5
490
100
AcDbEntity
  8
0
100
AcDbLine
 62
2
  6
CONTINUOUS
 10
13.2863691783
 20
1.699336785
 11
13.336736215
 21
1.7497038217
  0
LINE
  5
491
100
AcDbEntity
  8
0
100
AcDbLine
 62
2
  6
CONTINUOUS
 10
13.372792935
 20
1.7857605417
 11
13.43814574
 21
1.8511133467
  0
LINE
  5
492
100
AcDbEntity
  8
0
100
AcDbLine
 62
2
  6
CONTINUOUS
 10
13.2877502463
 20
1.699336785
 11
13.336736215
 21
1.7483227537
  0
LINE
  5
493
100
AcDbEntity
  8
0
100
AcDbLine
 62
2
  6
CONTINUOUS
 10
13.372792935
 20
1.7843794737
 11
13.43814574
 21
1.8497322787
  0
LINE
  5
494
100
AcDbEntity
  8
0
100
AcDbLine
 62
2
  6
CONTINUOUS
 10
13.2891313142
 20
1.699336785
 11
13.336736215
 21
1.7469416858
  0
LINE
  5
495
100
AcDbEntity
  8
0
100
AcDbLine
 62
2
  6
CONTINUOUS
 10
13.372792935
 20
1.7829984058
 11
13.43814574
 21
1.8483512108
  0
LINE
  5
496
100
AcDbEntity
  8
0
100
AcDbLine
 62
2
  6
CONTINUOUS
 10
13.2905123821
 20
1.699336785
 11
13.336736215
 21
1.7455606179
  0
LINE
  5
497
100
AcDbEntity
  8
0
100
AcDbLine
 62
2
  6
CONTINUOUS
 10
13.372792935
 20
1.7816173379
 11
13.43814574
 21
1.8469701429
  0
LINE
  5
498
100
AcDbEntity
  8
0
100
AcDbLine
 62
2
  6
CONTINUOUS
 10
13.2918934501
 20
1.699336785
 11
13.336736215
 21
1.7441795499
  0
LINE
  5
499
100
AcDbEntity
  8
0
100
AcDbLine
 62
2
  6
CONTINUOUS
 10
13.372792935
 20
1.7802362699
 11
13.43814574
 21
1.8455890749
  0
LINE
  5
49A
100
AcDbEntity
  8
0
100
AcDbLine
 62
2
  6
CONTINUOUS
 10
13.293274518
 20
1.699336785
 11
13.336736215
 21
1.742798482
  0
LINE
  5
49B
100
AcDbEntity
  8
0
100
AcDbLine
 62
2
  6
CONTINUOUS
 10
13.372792935
 20
1.778855202
 11
13.43814574
 21
1.844208007
  0
LINE
  5
49C
100
AcDbEntity
  8
0
100
AcDbLine
 62
2
  6
CONTINUOUS
 10
13.2946555859
 20
1.699336785
 11
13.336736215
 21
1.7414174141
  0
LINE
  5
49D
100
AcDbEntity
  8
0
100
AcDbLine
 62
2
  6
CONTINUOUS
 10
13.372792935
 20
1.7774741341
 11
13.43814574
 21
1.8428269391
  0
LINE
  5
49E
100
AcDbEntity
  8
0
100
AcDbLine
 62
2
  6
CONTINUOUS
 10
13.2960366539
 20
1.699336785
 11
13.336736215
 21
1.7400363461
  0
LINE
  5
49F
100
AcDbEntity
  8
0
100
AcDbLine
 62
2
  6
CONTINUOUS
 10
13.372792935
 20
1.7760930661
 11
13.43814574
 21
1.8414458711
  0
LINE
  5
4A0
100
AcDbEntity
  8
0
100
AcDbLine
 62
2
  6
CONTINUOUS
 10
13.2974177218
 20
1.699336785
 11
13.336736215
 21
1.7386552782
  0
LINE
  5
4A1
100
AcDbEntity
  8
0
100
AcDbLine
 62
2
  6
CONTINUOUS
 10
13.372792935
 20
1.7747119982
 11
13.43814574
 21
1.8400648032
  0
LINE
  5
4A2
100
AcDbEntity
  8
0
100
AcDbLine
 62
2
  6
CONTINUOUS
 10
13.2987987897
 20
1.699336785
 11
13.336736215
 21
1.7372742103
  0
LINE
  5
4A3
100
AcDbEntity
  8
0
100
AcDbLine
 62
2
  6
CONTINUOUS
 10
13.372792935
 20
1.7733309303
 11
13.43814574
 21
1.8386837353
  0
LINE
  5
4A4
100
AcDbEntity
  8
0
100
AcDbLine
 62
2
  6
CONTINUOUS
 10
13.3001798576
 20
1.699336785
 11
13.336736215
 21
1.7358931424
  0
LINE
  5
4A5
100
AcDbEntity
  8
0
100
AcDbLine
 62
2
  6
CONTINUOUS
 10
13.372792935
 20
1.7719498624
 11
13.43814574
 21
1.8373026674
  0
LINE
  5
4A6
100
AcDbEntity
  8
0
100
AcDbLine
 62
2
  6
CONTINUOUS
 10
13.3015609256
 20
1.699336785
 11
13.336736215
 21
1.7345120744
  0
LINE
  5
4A7
100
AcDbEntity
  8
0
100
AcDbLine
 62
2
  6
CONTINUOUS
 10
13.372792935
 20
1.7705687944
 11
13.43814574
 21
1.8359215994
  0
LINE
  5
4A8
100
AcDbEntity
  8
0
100
AcDbLine
 62
2
  6
CONTINUOUS
 10
13.3029419935
 20
1.699336785
 11
13.336736215
 21
1.7331310065
  0
LINE
  5
4A9
100
AcDbEntity
  8
0
100
AcDbLine
 62
2
  6
CONTINUOUS
 10
13.372792935
 20
1.7691877265
 11
13.43814574
 21
1.8345405315
  0
LINE
  5
4AA
100
AcDbEntity
  8
0
100
AcDbLine
 62
2
  6
CONTINUOUS
 10
13.3043230614
 20
1.699336785
 11
13.336736215
 21
1.7317499386
  0
LINE
  5
4AB
100
AcDbEntity
  8
0
100
AcDbLine
 62
2
  6
CONTINUOUS
 10
13.372792935
 20
1.7678066586
 11
13.43814574
 21
1.8331594636
  0
LINE
  5
4AC
100
AcDbEntity
  8
0
100
AcDbLine
 62
2
  6
CONTINUOUS
 10
13.3057041294
 20
1.699336785
 11
13.336736215
 21
1.7303688706
  0
LINE
  5
4AD
100
AcDbEntity
  8
0
100
AcDbLine
 62
2
  6
CONTINUOUS
 10
13.372792935
 20
1.7664255906
 11
13.43814574
 21
1.8317783956
  0
LINE
  5
4AE
100
AcDbEntity
  8
0
100
AcDbLine
 62
2
  6
CONTINUOUS
 10
13.3070851973
 20
1.699336785
 11
13.336736215
 21
1.7289878027
  0
LINE
  5
4AF
100
AcDbEntity
  8
0
100
AcDbLine
 62
2
  6
CONTINUOUS
 10
13.372792935
 20
1.7650445227
 11
13.43814574
 21
1.8303973277
  0
LINE
  5
4B0
100
AcDbEntity
  8
0
100
AcDbLine
 62
2
  6
CONTINUOUS
 10
13.3084662652
 20
1.699336785
 11
13.336736215
 21
1.7276067348
  0
LINE
  5
4B1
100
AcDbEntity
  8
0
100
AcDbLine
 62
2
  6
CONTINUOUS
 10
13.3728735638
 20
1.7637440836
 11
13.43814574
 21
1.8290162598
  0
LINE
  5
4B2
100
AcDbEntity
  8
0
100
AcDbLine
 62
2
  6
CONTINUOUS
 10
13.3098473332
 20
1.699336785
 11
13.336736215
 21
1.7262256668
  0
LINE
  5
4B3
100
AcDbEntity
  8
0
100
AcDbLine
 62
2
  6
CONTINUOUS
 10
13.3729820816
 20
1.7624715334
 11
13.43814574
 21
1.8276351918
  0
LINE
  5
4B4
100
AcDbEntity
  8
0
100
AcDbLine
 62
2
  6
CONTINUOUS
 10
13.3112284011
 20
1.699336785
 11
13.336736215
 21
1.7248445989
  0
LINE
  5
4B5
100
AcDbEntity
  8
0
100
AcDbLine
 62
2
  6
CONTINUOUS
 10
13.3730905994
 20
1.7611989833
 11
13.43814574
 21
1.8262541239
  0
LINE
  5
4B6
100
AcDbEntity
  8
0
100
AcDbLine
 62
2
  6
CONTINUOUS
 10
13.312609469
 20
1.699336785
 11
13.336736215
 21
1.723463531
  0
LINE
  5
4B7
100
AcDbEntity
  8
0
100
AcDbLine
 62
2
  6
CONTINUOUS
 10
13.3731991171
 20
1.7599264331
 11
13.43814574
 21
1.824873056
  0
LINE
  5
4B8
100
AcDbEntity
  8
0
100
AcDbLine
 62
2
  6
CONTINUOUS
 10
13.313990537
 20
1.699336785
 11
13.336736215
 21
1.722082463
  0
LINE
  5
4B9
100
AcDbEntity
  8
0
100
AcDbLine
 62
2
  6
CONTINUOUS
 10
13.3733076349
 20
1.7586538829
 11
13.43814574
 21
1.823491988
  0
LINE
  5
4BA
100
AcDbEntity
  8
0
100
AcDbLine
 62
2
  6
CONTINUOUS
 10
13.3153716049
 20
1.699336785
 11
13.336736215
 21
1.7207013951
  0
LINE
  5
4BB
100
AcDbEntity
  8
0
100
AcDbLine
 62
2
  6
CONTINUOUS
 10
13.3734161527
 20
1.7573813328
 11
13.43814574
 21
1.8221109201
  0
LINE
  5
4BC
100
AcDbEntity
  8
0
100
AcDbLine
 62
2
  6
CONTINUOUS
 10
13.3167526728
 20
1.699336785
 11
13.336736215
 21
1.7193203272
  0
LINE
  5
4BD
100
AcDbEntity
  8
0
100
AcDbLine
 62
2
  6
CONTINUOUS
 10
13.3735246705
 20
1.7561087826
 11
13.43814574
 21
1.8207298522
  0
LINE
  5
4BE
100
AcDbEntity
  8
0
100
AcDbLine
 62
2
  6
CONTINUOUS
 10
13.3181337408
 20
1.699336785
 11
13.336736215
 21
1.7179392592
  0
LINE
  5
4BF
100
AcDbEntity
  8
0
100
AcDbLine
 62
2
  6
CONTINUOUS
 10
13.3736331882
 20
1.7548362325
 11
13.43814574
 21
1.8193487842
  0
LINE
  5
4C0
100
AcDbEntity
  8
0
100
AcDbLine
 62
2
  6
CONTINUOUS
 10
13.3195148087
 20
1.699336785
 11
13.336736215
 21
1.7165581913
  0
LINE
  5
4C1
100
AcDbEntity
  8
0
100
AcDbLine
 62
2
  6
CONTINUOUS
 10
13.3737616217
 20
1.753583598
 11
13.43814574
 21
1.8179677163
  0
LINE
  5
4C2
100
AcDbEntity
  8
0
100
AcDbLine
 62
2
  6
CONTINUOUS
 10
13.3208958766
 20
1.699336785
 11
13.336736215
 21
1.7151771234
  0
LINE
  5
4C3
100
AcDbEntity
  8
0
100
AcDbLine
 62
2
  6
CONTINUOUS
 10
13.374047781
 20
1.7524886894
 11
13.43814574
 21
1.8165866484
  0
LINE
  5
4C4
100
AcDbEntity
  8
0
100
AcDbLine
 62
2
  6
CONTINUOUS
 10
13.3222769446
 20
1.699336785
 11
13.336736215
 21
1.7137960554
  0
LINE
  5
4C5
100
AcDbEntity
  8
0
100
AcDbLine
 62
2
  6
CONTINUOUS
 10
13.3743339403
 20
1.7513937807
 11
13.43814574
 21
1.8152055804
  0
LINE
  5
4C6
100
AcDbEntity
  8
0
100
AcDbLine
 62
2
  6
CONTINUOUS
 10
13.3236580125
 20
1.699336785
 11
13.336736215
 21
1.7124149875
  0
LINE
  5
4C7
100
AcDbEntity
  8
0
100
AcDbLine
 62
2
  6
CONTINUOUS
 10
13.3746200996
 20
1.7502988721
 11
13.43814574
 21
1.8138245125
  0
LINE
  5
4C8
100
AcDbEntity
  8
0
100
AcDbLine
 62
2
  6
CONTINUOUS
 10
13.3250390804
 20
1.699336785
 11
13.336736215
 21
1.7110339196
  0
LINE
  5
4C9
100
AcDbEntity
  8
0
100
AcDbLine
 62
2
  6
CONTINUOUS
 10
13.3749062588
 20
1.7492039634
 11
13.43814574
 21
1.8124434446
  0
LINE
  5
4CA
100
AcDbEntity
  8
0
100
AcDbLine
 62
2
  6
CONTINUOUS
 10
13.3264201484
 20
1.699336785
 11
13.336736215
 21
1.7096528516
  0
LINE
  5
4CB
100
AcDbEntity
  8
0
100
AcDbLine
 62
2
  6
CONTINUOUS
 10
13.3751924181
 20
1.7481090548
 11
13.43814574
 21
1.8110623766
  0
LINE
  5
4CC
100
AcDbEntity
  8
0
100
AcDbLine
 62
2
  6
CONTINUOUS
 10
13.3278012163
 20
1.699336785
 11
13.336736215
 21
1.7082717837
  0
LINE
  5
4CD
100
AcDbEntity
  8
0
100
AcDbLine
 62
2
  6
CONTINUOUS
 10
13.3754785774
 20
1.7470141461
 11
13.43814574
 21
1.8096813087
  0
LINE
  5
4CE
100
AcDbEntity
  8
0
100
AcDbLine
 62
2
  6
CONTINUOUS
 10
13.3291822842
 20
1.699336785
 11
13.336736215
 21
1.7068907158
  0
LINE
  5
4CF
100
AcDbEntity
  8
0
100
AcDbLine
 62
2
  6
CONTINUOUS
 10
13.3757647367
 20
1.7459192374
 11
13.43814574
 21
1.8083002408
  0
LINE
  5
4D0
100
AcDbEntity
  8
0
100
AcDbLine
 62
2
  6
CONTINUOUS
 10
13.3305633522
 20
1.699336785
 11
13.336736215
 21
1.7055096478
  0
LINE
  5
4D1
100
AcDbEntity
  8
0
100
AcDbLine
 62
2
  6
CONTINUOUS
 10
13.3760508959
 20
1.7448243288
 11
13.43814574
 21
1.8069191728
  0
LINE
  5
4D2
100
AcDbEntity
  8
0
100
AcDbLine
 62
2
  6
CONTINUOUS
 10
13.3319444201
 20
1.699336785
 11
13.336736215
 21
1.7041285799
  0
LINE
  5
4D3
100
AcDbEntity
  8
0
100
AcDbLine
 62
2
  6
CONTINUOUS
 10
13.3763370552
 20
1.7437294201
 11
13.43814574
 21
1.8055381049
  0
LINE
  5
4D4
100
AcDbEntity
  8
0
100
AcDbLine
 62
2
  6
CONTINUOUS
 10
13.333325488
 20
1.699336785
 11
13.336736215
 21
1.702747512
  0
LINE
  5
4D5
100
AcDbEntity
  8
0
100
AcDbLine
 62
2
  6
CONTINUOUS
 10
13.3766748886
 20
1.7426861856
 11
13.43814574
 21
1.804157037
  0
LINE
  5
4D6
100
AcDbEntity
  8
0
100
AcDbLine
 62
2
  6
CONTINUOUS
 10
13.3347065559
 20
1.699336785
 11
13.336736215
 21
1.7013664441
  0
LINE
  5
4D7
100
AcDbEntity
  8
0
100
AcDbLine
 62
2
  6
CONTINUOUS
 10
13.3771058523
 20
1.7417360813
 11
13.43814574
 21
1.8027759691
  0
LINE
  5
4D8
100
AcDbEntity
  8
0
100
AcDbLine
 62
2
  6
CONTINUOUS
 10
13.3360876239
 20
1.699336785
 11
13.336736215
 21
1.6999853761
  0
LINE
  5
4D9
100
AcDbEntity
  8
0
100
AcDbLine
 62
2
  6
CONTINUOUS
 10
13.377536816
 20
1.7407859771
 11
13.43814574
 21
1.8013949011
  0
LINE
  5
4DA
100
AcDbEntity
  8
0
100
AcDbLine
 62
2
  6
CONTINUOUS
 10
13.3779677797
 20
1.7398358729
 11
13.43814574
 21
1.8000138332
  0
LINE
  5
4DB
100
AcDbEntity
  8
0
100
AcDbLine
 62
2
  6
CONTINUOUS
 10
13.3783987435
 20
1.7388857687
 11
13.43814574
 21
1.7986327653
  0
LINE
  5
4DC
100
AcDbEntity
  8
0
100
AcDbLine
 62
2
  6
CONTINUOUS
 10
13.3788297072
 20
1.7379356645
 11
13.43814574
 21
1.7972516973
  0
LINE
  5
4DD
100
AcDbEntity
  8
0
100
AcDbLine
 62
2
  6
CONTINUOUS
 10
13.3792606709
 20
1.7369855603
 11
13.43814574
 21
1.7958706294
  0
LINE
  5
4DE
100
AcDbEntity
  8
0
100
AcDbLine
 62
2
  6
CONTINUOUS
 10
13.3796916346
 20
1.7360354561
 11
13.43814574
 21
1.7944895615
  0
LINE
  5
4DF
100
AcDbEntity
  8
0
100
AcDbLine
 62
2
  6
CONTINUOUS
 10
13.3801225984
 20
1.7350853519
 11
13.43814574
 21
1.7931084935
  0
LINE
  5
4E0
100
AcDbEntity
  8
0
100
AcDbLine
 62
2
  6
CONTINUOUS
 10
13.3805535621
 20
1.7341352477
 11
13.43814574
 21
1.7917274256
  0
LINE
  5
4E1
100
AcDbEntity
  8
0
100
AcDbLine
 62
2
  6
CONTINUOUS
 10
13.3809845258
 20
1.7331851435
 11
13.43814574
 21
1.7903463577
  0
LINE
  5
4E2
100
AcDbEntity
  8
0
100
AcDbLine
 62
2
  6
CONTINUOUS
 10
13.3815034575
 20
1.7323230072
 11
13.43814574
 21
1.7889652897
  0
LINE
  5
4E3
100
AcDbEntity
  8
0
100
AcDbLine
 62
2
  6
CONTINUOUS
 10
13.3820613765
 20
1.7314998583
 11
13.43814574
 21
1.7875842218
  0
LINE
  5
4E4
100
AcDbEntity
  8
0
100
AcDbLine
 62
2
  6
CONTINUOUS
 10
13.3826192954
 20
1.7306767093
 11
13.43814574
 21
1.7862031539
  0
LINE
  5
4E5
100
AcDbEntity
  8
0
100
AcDbLine
 62
2
  6
CONTINUOUS
 10
13.3831772144
 20
1.7298535603
 11
13.43814574
 21
1.7848220859
  0
LINE
  5
4E6
100
AcDbEntity
  8
0
100
AcDbLine
 62
2
  6
CONTINUOUS
 10
13.3837351333
 20
1.7290304113
 11
13.43814574
 21
1.783441018
  0
LINE
  5
4E7
100
AcDbEntity
  8
0
100
AcDbLine
 62
2
  6
CONTINUOUS
 10
13.3842930523
 20
1.7282072624
 11
13.43814574
 21
1.7820599501
  0
LINE
  5
4E8
100
AcDbEntity
  8
0
100
AcDbLine
 62
2
  6
CONTINUOUS
 10
13.3848509713
 20
1.7273841134
 11
13.43814574
 21
1.7806788821
  0
LINE
  5
4E9
100
AcDbEntity
  8
0
100
AcDbLine
 62
2
  6
CONTINUOUS
 10
13.3854088902
 20
1.7265609644
 11
13.43814574
 21
1.7792978142
  0
LINE
  5
4EA
100
AcDbEntity
  8
0
100
AcDbLine
 62
2
  6
CONTINUOUS
 10
13.3859668092
 20
1.7257378155
 11
13.43814574
 21
1.7779167463
  0
LINE
  5
4EB
100
AcDbEntity
  8
0
100
AcDbLine
 62
2
  6
CONTINUOUS
 10
13.3865247281
 20
1.7249146665
 11
13.43814574
 21
1.7765356783
  0
LINE
  5
4EC
100
AcDbEntity
  8
0
100
AcDbLine
 62
2
  6
CONTINUOUS
 10
13.3870826471
 20
1.7240915175
 11
13.43814574
 21
1.7751546104
  0
LINE
  5
4ED
100
AcDbEntity
  8
0
100
AcDbLine
 62
2
  6
CONTINUOUS
 10
13.3876708318
 20
1.7232986343
 11
13.43814574
 21
1.7737735425
  0
LINE
  5
4EE
100
AcDbEntity
  8
0
100
AcDbLine
 62
2
  6
CONTINUOUS
 10
13.3883025113
 20
1.7225492459
 11
13.43814574
 21
1.7723924745
  0
LINE
  5
4EF
100
AcDbEntity
  8
0
100
AcDbLine
 62
2
  6
CONTINUOUS
 10
13.3889341908
 20
1.7217998574
 11
13.43814574
 21
1.7710114066
  0
LINE
  5
4F0
100
AcDbEntity
  8
0
100
AcDbLine
 62
2
  6
CONTINUOUS
 10
13.3896185123
 20
1.721103111
 11
13.43814574
 21
1.7696303387
  0
LINE
  5
4F1
100
AcDbEntity
  8
0
100
AcDbLine
 62
2
  6
CONTINUOUS
 10
13.3903226496
 20
1.7204261804
 11
13.43814574
 21
1.7682492708
  0
LINE
  5
4F2
100
AcDbEntity
  8
0
100
AcDbLine
 62
2
  6
CONTINUOUS
 10
13.3910267869
 20
1.7197492497
 11
13.43814574
 21
1.7668682028
  0
LINE
  5
4F3
100
AcDbEntity
  8
0
100
AcDbLine
 62
2
  6
CONTINUOUS
 10
13.3917309242
 20
1.7190723191
 11
13.43814574
 21
1.7654871349
  0
LINE
  5
4F4
100
AcDbEntity
  8
0
100
AcDbLine
 62
2
  6
CONTINUOUS
 10
13.3924350615
 20
1.7183953885
 11
13.43814574
 21
1.764106067
  0
LINE
  5
4F5
100
AcDbEntity
  8
0
100
AcDbLine
 62
2
  6
CONTINUOUS
 10
13.3931391988
 20
1.7177184578
 11
13.43814574
 21
1.762724999
  0
LINE
  5
4F6
100
AcDbEntity
  8
0
100
AcDbLine
 62
2
  6
CONTINUOUS
 10
13.3938433361
 20
1.7170415272
 11
13.43814574
 21
1.7613439311
  0
LINE
  5
4F7
100
AcDbEntity
  8
0
100
AcDbLine
 62
2
  6
CONTINUOUS
 10
13.3945474734
 20
1.7163645966
 11
13.43814574
 21
1.7599628632
  0
LINE
  5
4F8
100
AcDbEntity
  8
0
100
AcDbLine
 62
2
  6
CONTINUOUS
 10
13.3952516107
 20
1.715687666
 11
13.43814574
 21
1.7585817952
  0
LINE
  5
4F9
100
AcDbEntity
  8
0
100
AcDbLine
 62
2
  6
CONTINUOUS
 10
13.395955748
 20
1.7150107353
 11
13.43814574
 21
1.7572007273
  0
LINE
  5
4FA
100
AcDbEntity
  8
0
100
AcDbLine
 62
2
  6
CONTINUOUS
 10
13.3966598853
 20
1.7143338047
 11
13.43814574
 21
1.7558196594
  0
LINE
  5
4FB
100
AcDbEntity
  8
0
100
AcDbLine
 62
2
  6
CONTINUOUS
 10
13.3973932725
 20
1.7136861239
 11
13.43814574
 21
1.7544385914
  0
LINE
  5
4FC
100
AcDbEntity
  8
0
100
AcDbLine
 62
2
  6
CONTINUOUS
 10
13.398216347
 20
1.7131281305
 11
13.43814574
 21
1.7530575235
  0
LINE
  5
4FD
100
AcDbEntity
  8
0
100
AcDbLine
 62
2
  6
CONTINUOUS
 10
13.3990394215
 20
1.712570137
 11
13.43814574
 21
1.7516764556
  0
LINE
  5
4FE
100
AcDbEntity
  8
0
100
AcDbLine
 62
2
  6
CONTINUOUS
 10
13.3998624959
 20
1.7120121436
 11
13.43814574
 21
1.7502953876
  0
LINE
  5
4FF
100
AcDbEntity
  8
0
100
AcDbLine
 62
2
  6
CONTINUOUS
 10
13.4006855704
 20
1.7114541501
 11
13.43814574
 21
1.7489143197
  0
LINE
  5
500
100
AcDbEntity
  8
0
100
AcDbLine
 62
2
  6
CONTINUOUS
 10
13.4015086449
 20
1.7108961567
 11
13.43814574
 21
1.7475332518
  0
LINE
  5
501
100
AcDbEntity
  8
0
100
AcDbLine
 62
2
  6
CONTINUOUS
 10
13.4023317194
 20
1.7103381632
 11
13.43814574
 21
1.7461521838
  0
LINE
  5
502
100
AcDbEntity
  8
0
100
AcDbLine
 62
2
  6
CONTINUOUS
 10
13.4031547939
 20
1.7097801698
 11
13.43814574
 21
1.7447711159
  0
LINE
  5
503
100
AcDbEntity
  8
0
100
AcDbLine
 62
2
  6
CONTINUOUS
 10
13.4039778684
 20
1.7092221764
 11
13.43814574
 21
1.743390048
  0
LINE
  5
504
100
AcDbEntity
  8
0
100
AcDbLine
 62
2
  6
CONTINUOUS
 10
13.4048009429
 20
1.7086641829
 11
13.43814574
 21
1.74200898
  0
LINE
  5
505
100
AcDbEntity
  8
0
100
AcDbLine
 62
2
  6
CONTINUOUS
 10
13.4056240173
 20
1.7081061895
 11
13.43814574
 21
1.7406279121
  0
LINE
  5
506
100
AcDbEntity
  8
0
100
AcDbLine
 62
2
  6
CONTINUOUS
 10
13.406456084
 20
1.7075571882
 11
13.43814574
 21
1.7392468442
  0
LINE
  5
507
100
AcDbEntity
  8
0
100
AcDbLine
 62
2
  6
CONTINUOUS
 10
13.4074065834
 20
1.7071266197
 11
13.43814574
 21
1.7378657762
  0
LINE
  5
508
100
AcDbEntity
  8
0
100
AcDbLine
 62
2
  6
CONTINUOUS
 10
13.4083570829
 20
1.7066960512
 11
13.43814574
 21
1.7364847083
  0
LINE
  5
509
100
AcDbEntity
  8
0
100
AcDbLine
 62
2
  6
CONTINUOUS
 10
13.4093075823
 20
1.7062654826
 11
13.43814574
 21
1.7351036404
  0
LINE
  5
50A
100
AcDbEntity
  8
0
100
AcDbLine
 62
2
  6
CONTINUOUS
 10
13.4102580817
 20
1.7058349141
 11
13.43814574
 21
1.7337225725
  0
LINE
  5
50B
100
AcDbEntity
  8
0
100
AcDbLine
 62
2
  6
CONTINUOUS
 10
13.4112085811
 20
1.7054043456
 11
13.43814574
 21
1.7323415045
  0
LINE
  5
50C
100
AcDbEntity
  8
0
100
AcDbLine
 62
2
  6
CONTINUOUS
 10
13.4121590805
 20
1.7049737771
 11
13.43814574
 21
1.7309604366
  0
LINE
  5
50D
100
AcDbEntity
  8
0
100
AcDbLine
 62
2
  6
CONTINUOUS
 10
13.4131095799
 20
1.7045432085
 11
13.43814574
 21
1.7295793687
  0
LINE
  5
50E
100
AcDbEntity
  8
0
100
AcDbLine
 62
2
  6
CONTINUOUS
 10
13.4140600793
 20
1.70411264
 11
13.43814574
 21
1.7281983007
  0
LINE
  5
50F
100
AcDbEntity
  8
0
100
AcDbLine
 62
2
  6
CONTINUOUS
 10
13.4150105787
 20
1.7036820715
 11
13.43814574
 21
1.7268172328
  0
LINE
  5
510
100
AcDbEntity
  8
0
100
AcDbLine
 62
2
  6
CONTINUOUS
 10
13.4159610781
 20
1.703251503
 11
13.43814574
 21
1.7254361649
  0
LINE
  5
511
100
AcDbEntity
  8
0
100
AcDbLine
 62
2
  6
CONTINUOUS
 10
13.4169855444
 20
1.7028949013
 11
13.43814574
 21
1.7240550969
  0
LINE
  5
512
100
AcDbEntity
  8
0
100
AcDbLine
 62
2
  6
CONTINUOUS
 10
13.4180815407
 20
1.7026098297
 11
13.43814574
 21
1.722674029
  0
LINE
  5
513
100
AcDbEntity
  8
0
100
AcDbLine
 62
2
  6
CONTINUOUS
 10
13.4191775371
 20
1.7023247581
 11
13.43814574
 21
1.7212929611
  0
LINE
  5
514
100
AcDbEntity
  8
0
100
AcDbLine
 62
2
  6
CONTINUOUS
 10
13.4202735334
 20
1.7020396866
 11
13.43814574
 21
1.7199118931
  0
LINE
  5
515
100
AcDbEntity
  8
0
100
AcDbLine
 62
2
  6
CONTINUOUS
 10
13.4213695298
 20
1.701754615
 11
13.43814574
 21
1.7185308252
  0
LINE
  5
516
100
AcDbEntity
  8
0
100
AcDbLine
 62
2
  6
CONTINUOUS
 10
13.4224655261
 20
1.7014695434
 11
13.43814574
 21
1.7171497573
  0
LINE
  5
517
100
AcDbEntity
  8
0
100
AcDbLine
 62
2
  6
CONTINUOUS
 10
13.4235615225
 20
1.7011844718
 11
13.43814574
 21
1.7157686893
  0
LINE
  5
518
100
AcDbEntity
  8
0
100
AcDbLine
 62
2
  6
CONTINUOUS
 10
13.4246575188
 20
1.7008994002
 11
13.43814574
 21
1.7143876214
  0
LINE
  5
519
100
AcDbEntity
  8
0
100
AcDbLine
 62
2
  6
CONTINUOUS
 10
13.4257535152
 20
1.7006143286
 11
13.43814574
 21
1.7130065535
  0
LINE
  5
51A
100
AcDbEntity
  8
0
100
AcDbLine
 62
2
  6
CONTINUOUS
 10
13.4268495115
 20
1.700329257
 11
13.43814574
 21
1.7116254855
  0
LINE
  5
51B
100
AcDbEntity
  8
0
100
AcDbLine
 62
2
  6
CONTINUOUS
 10
13.4280866488
 20
1.7001853264
 11
13.43814574
 21
1.7102444176
  0
LINE
  5
51C
100
AcDbEntity
  8
0
100
AcDbLine
 62
2
  6
CONTINUOUS
 10
13.4293602788
 20
1.7000778885
 11
13.43814574
 21
1.7088633497
  0
LINE
  5
51D
100
AcDbEntity
  8
0
100
AcDbLine
 62
2
  6
CONTINUOUS
 10
13.4306339088
 20
1.6999704506
 11
13.43814574
 21
1.7074822817
  0
LINE
  5
51E
100
AcDbEntity
  8
0
100
AcDbLine
 62
2
  6
CONTINUOUS
 10
13.4319075388
 20
1.6998630126
 11
13.43814574
 21
1.7061012138
  0
LINE
  5
51F
100
AcDbEntity
  8
0
100
AcDbLine
 62
2
  6
CONTINUOUS
 10
13.4331811689
 20
1.6997555747
 11
13.43814574
 21
1.7047201459
  0
LINE
  5
520
100
AcDbEntity
  8
0
100
AcDbLine
 62
2
  6
CONTINUOUS
 10
13.4344547989
 20
1.6996481368
 11
13.43814574
 21
1.7033390779
  0
LINE
  5
521
100
AcDbEntity
  8
0
100
AcDbLine
 62
2
  6
CONTINUOUS
 10
13.4357284289
 20
1.6995406989
 11
13.43814574
 21
1.70195801
  0
LINE
  5
522
100
AcDbEntity
  8
0
100
AcDbLine
 62
2
  6
CONTINUOUS
 10
13.4370020589
 20
1.699433261
 11
13.43814574
 21
1.7005769421
  0
LWPOLYLINE
  5
523
100
AcDbEntity
  8
0
100
AcDbPolyline
 62
7
  6
CONTINUOUS
 90
2
 70
0
 43
0.0200000008
 10
16.75
 20
0.258589
 10
16.75
 20
10.758589
  0
LINE
  5
524
100
AcDbEntity
  8
0
100
AcDbLine
 62
7
  6
CONTINUOUS
 10
4.0670250051
 20
3.3290646686
 11
4.2090250051
 21
3.3290646686
  0
LINE
  5
525
100
AcDbEntity
  8
0
100
AcDbLine
 62
7
  6
CONTINUOUS
 10
4.7130250051
 20
3.3290646686
 11
4.8550250051
 21
3.3290646686
  0
LINE
  5
526
100
AcDbEntity
  8
0
100
AcDbLine
 62
7
  6
CONTINUOUS
 10
4.0670250051
 20
3.3469907635
 11
4.2090250051
 21
3.3469907635
  0
LINE
  5
527
100
AcDbEntity
  8
0
100
AcDbLine
 62
7
  6
CONTINUOUS
 10
4.7130250051
 20
3.3469907635
 11
4.8550250051
 21
3.3469907635
  0
LINE
  5
528
100
AcDbEntity
  8
0
100
AcDbLine
 62
7
  6
CONTINUOUS
 10
4.2150250051
 20
3.4020646686
 11
4.7130250051
 21
3.4020646686
  0
LINE
  5
529
100
AcDbEntity
  8
0
100
AcDbLine
 62
7
  6
CONTINUOUS
 10
4.0670250051
 20
3.4198338994
 11
4.2090250051
 21
3.4198338994
  0
LINE
  5
52A
100
AcDbEntity
  8
0
100
AcDbLine
 62
7
  6
CONTINUOUS
 10
4.7130250051
 20
3.4198338994
 11
4.8550250051
 21
3.4198338994
  0
LINE
  5
52B
100
AcDbEntity
  8
0
100
AcDbLine
 62
7
  6
CONTINUOUS
 10
4.0670250051
 20
3.4390646686
 11
4.2090250051
 21
3.4390646686
  0
LINE
  5
52C
100
AcDbEntity
  8
0
100
AcDbLine
 62
7
  6
CONTINUOUS
 10
4.7130250051
 20
3.4390646686
 11
4.8550250051
 21
3.4390646686
  0
LINE
  5
52D
100
AcDbEntity
  8
0
100
AcDbLine
 62
7
  6
CONTINUOUS
 10
4.3748045327
 20
3.4669780544
 11
4.3472454776
 21
3.4669780544
  0
LINE
  5
52E
100
AcDbEntity
  8
0
100
AcDbLine
 62
7
  6
CONTINUOUS
 10
4.3125013831
 20
3.5123520702
 11
4.4095486272
 21
3.535777267
  0
LINE
  5
52F
100
AcDbEntity
  8
0
100
AcDbLine
 62
7
  6
CONTINUOUS
 10
4.2663777296
 20
3.510285141
 11
4.3493124067
 21
3.510285141
  0
LINE
  5
530
100
AcDbEntity
  8
0
100
AcDbLine
 62
7
  6
CONTINUOUS
 10
4.3727376036
 20
3.510285141
 11
4.4556722806
 21
3.510285141
  0
LINE
  5
531
100
AcDbEntity
  8
0
100
AcDbLine
 62
7
  6
CONTINUOUS
 10
4.3125013831
 20
3.5123520702
 11
4.3493124067
 21
3.5123520702
  0
LINE
  5
532
100
AcDbEntity
  8
0
100
AcDbLine
 62
7
  6
CONTINUOUS
 10
4.3727376036
 20
3.5123520702
 11
4.4095486272
 21
3.5123520702
  0
LINE
  5
533
100
AcDbEntity
  8
DEFAULT_1
100
AcDbLine
 62
7
  6
CENTER
 10
4.3610250051
 20
3.5240646686
 11
4.1270250051
 21
3.5240646686
  0
LINE
  5
534
100
AcDbEntity
  8
DEFAULT_1
100
AcDbLine
 62
7
  6
CENTER
 10
4.3610250051
 20
3.5240646686
 11
4.5950250051
 21
3.5240646686
  0
LINE
  5
535
100
AcDbEntity
  8
0
100
AcDbLine
 62
7
  6
CONTINUOUS
 10
4.4095486272
 20
3.535777267
 11
4.3727376036
 21
3.535777267
  0
LINE
  5
536
100
AcDbEntity
  8
0
100
AcDbLine
 62
7
  6
CONTINUOUS
 10
4.3493124067
 20
3.535777267
 11
4.3125013831
 21
3.535777267
  0
LINE
  5
537
100
AcDbEntity
  8
0
100
AcDbLine
 62
7
  6
CONTINUOUS
 10
4.2663777296
 20
3.5378441962
 11
4.3493124067
 21
3.5378441962
  0
LINE
  5
538
100
AcDbEntity
  8
0
100
AcDbLine
 62
7
  6
CONTINUOUS
 10
4.3727376036
 20
3.5378441962
 11
4.4556722806
 21
3.5378441962
  0
LINE
  5
539
100
AcDbEntity
  8
0
100
AcDbLine
 62
7
  6
CONTINUOUS
 10
4.2150250051
 20
3.5620646686
 11
4.2588633685
 21
3.5620646686
  0
LINE
  5
53A
100
AcDbEntity
  8
0
100
AcDbLine
 62
7
  6
CONTINUOUS
 10
4.5620250051
 20
3.5620646686
 11
4.7130250051
 21
3.5620646686
  0
LINE
  5
53B
100
AcDbEntity
  8
0
100
AcDbLine
 62
7
  6
CONTINUOUS
 10
4.3472454776
 20
3.5811512828
 11
4.3748045327
 21
3.5811512828
  0
LINE
  5
53C
100
AcDbEntity
  8
0
100
AcDbLine
 62
7
  6
CONTINUOUS
 10
4.0670250051
 20
3.6560646686
 11
4.2090250051
 21
3.6560646686
  0
LINE
  5
53D
100
AcDbEntity
  8
0
100
AcDbLine
 62
7
  6
CONTINUOUS
 10
4.7130250051
 20
3.6560646686
 11
4.8550250051
 21
3.6560646686
  0
LINE
  5
53E
100
AcDbEntity
  8
0
100
AcDbLine
 62
7
  6
CONTINUOUS
 10
4.3125013831
 20
3.535777267
 11
4.4095486272
 21
3.5123520702
  0
LINE
  5
53F
100
AcDbEntity
  8
0
100
AcDbLine
 62
7
  6
CONTINUOUS
 10
4.2090250051
 20
3.6713446187
 11
4.7130250051
 21
3.6713446187
  0
LINE
  5
540
100
AcDbEntity
  8
0
100
AcDbLine
 62
7
  6
CONTINUOUS
 10
4.0670250051
 20
3.7757734232
 11
4.8550250051
 21
3.7757734232
  0
LINE
  5
541
100
AcDbEntity
  8
0
100
AcDbLine
 62
7
  6
CONTINUOUS
 10
4.0670250051
 20
3.9515346686
 11
4.8550250051
 21
3.9515346686
  0
LINE
  5
542
100
AcDbEntity
  8
0
100
AcDbLine
 62
7
  6
CONTINUOUS
 10
4.0670250051
 20
3.9710646686
 11
4.8550250051
 21
3.9710646686
  0
LINE
  5
543
100
AcDbEntity
  8
0
100
AcDbLine
 62
7
  6
CONTINUOUS
 10
4.3493124067
 20
8.3332620702
 11
4.3727376036
 21
8.356687267
  0
LINE
  5
544
100
AcDbEntity
  8
0
100
AcDbLine
 62
7
  6
CONTINUOUS
 10
4.8550250051
 20
4.0669746686
 11
4.8667435953
 21
4.0669746686
  0
LINE
  5
545
100
AcDbEntity
  8
0
100
AcDbLine
 62
7
  6
CONTINUOUS
 10
4.0670250051
 20
4.0910646686
 11
4.8550250051
 21
4.0910646686
  0
LINE
  5
546
100
AcDbEntity
  8
0
100
AcDbLine
 62
7
  6
CONTINUOUS
 10
4.3727376036
 20
3.5123520702
 11
4.3493124067
 21
3.535777267
  0
LINE
  5
547
100
AcDbEntity
  8
0
100
AcDbLine
 62
7
  6
CONTINUOUS
 10
4.8550250051
 20
4.2310646686
 11
4.0670250051
 21
4.2310646686
  0
LINE
  5
548
100
AcDbEntity
  8
0
100
AcDbLine
 62
7
  6
CONTINUOUS
 10
4.3510250051
 20
4.2710646686
 11
4.5710250051
 21
4.2710646686
  0
LINE
  5
549
100
AcDbEntity
  8
0
100
AcDbLine
 62
7
  6
CONTINUOUS
 10
4.3510250051
 20
4.2780646686
 11
4.5710250051
 21
4.2780646686
  0
LINE
  5
54A
100
AcDbEntity
  8
0
100
AcDbLine
 62
7
  6
CONTINUOUS
 10
4.0670250051
 20
4.2880646686
 11
4.8550250051
 21
4.2880646686
  0
LINE
  5
54B
100
AcDbEntity
  8
0
100
AcDbLine
 62
7
  6
CONTINUOUS
 10
4.0670250051
 20
4.3310646686
 11
4.8550250051
 21
4.3310646686
  0
LINE
  5
54C
100
AcDbEntity
  8
0
100
AcDbLine
 62
7
  6
CONTINUOUS
 10
4.0970250051
 20
4.3469746686
 11
4.8250250051
 21
4.3469746686
  0
LINE
  5
54D
100
AcDbEntity
  8
0
100
AcDbLine
 62
7
  6
CONTINUOUS
 10
4.2220250051
 20
4.5469746686
 11
4.7000250051
 21
4.5469746686
  0
LINE
  5
54E
100
AcDbEntity
  8
0
100
AcDbLine
 62
7
  6
CONTINUOUS
 10
4.2370250051
 20
4.5619746686
 11
4.6850250051
 21
4.5619746686
  0
LINE
  5
54F
100
AcDbEntity
  8
0
100
AcDbLine
 62
7
  6
CONTINUOUS
 10
4.0601746114
 20
5.0072065584
 11
4.0670250051
 21
5.0072065584
  0
LINE
  5
550
100
AcDbEntity
  8
0
100
AcDbLine
 62
7
  6
CONTINUOUS
 10
4.3472454776
 20
8.2878880544
 11
4.3748045327
 21
8.4020612828
  0
LINE
  5
551
100
AcDbEntity
  8
0
100
AcDbLine
 62
7
  6
CONTINUOUS
 10
4.6850250051
 20
5.0619746686
 11
4.2370250051
 21
5.0619746686
  0
LINE
  5
552
100
AcDbEntity
  8
0
100
AcDbLine
 62
7
  6
CONTINUOUS
 10
4.7000250051
 20
5.0769746686
 11
4.2220250051
 21
5.0769746686
  0
LINE
  5
553
100
AcDbEntity
  8
0
100
AcDbLine
 62
7
  6
CONTINUOUS
 10
4.0601746114
 20
5.1272065584
 11
4.0670250051
 21
5.1272065584
  0
LINE
  5
554
100
AcDbEntity
  8
0
100
AcDbLine
 62
7
  6
CONTINUOUS
 10
4.2220250051
 20
5.3419746686
 11
4.7000250051
 21
5.3419746686
  0
LINE
  5
555
100
AcDbEntity
  8
0
100
AcDbLine
 62
7
  6
CONTINUOUS
 10
4.2370250051
 20
5.3569746686
 11
4.6850250051
 21
5.3569746686
  0
LINE
  5
556
100
AcDbEntity
  8
0
100
AcDbLine
 62
7
  6
CONTINUOUS
 10
4.3748045327
 20
3.4669780544
 11
4.3472454776
 21
3.5811512828
  0
LINE
  5
557
100
AcDbEntity
  8
0
100
AcDbLine
 62
7
  6
CONTINUOUS
 10
4.0601746114
 20
5.0072065584
 11
4.0601746114
 21
5.1272065584
  0
LINE
  5
558
100
AcDbEntity
  8
0
100
AcDbLine
 62
7
  6
CONTINUOUS
 10
4.0670250051
 20
3.3290646686
 11
4.0670250051
 21
8.4669746686
  0
LINE
  5
559
100
AcDbEntity
  8
0
100
AcDbLine
 62
7
  6
CONTINUOUS
 10
4.0770250051
 20
8.4369746686
 11
4.0770250051
 21
4.3669746686
  0
LINE
  5
55A
100
AcDbEntity
  8
0
100
AcDbLine
 62
7
  6
CONTINUOUS
 10
4.2090250051
 20
3.3290646686
 11
4.2090250051
 21
3.6713446187
  0
LINE
  5
55B
100
AcDbEntity
  8
0
100
AcDbLine
 62
7
  6
CONTINUOUS
 10
4.2150250051
 20
3.6713446187
 11
4.2150250051
 21
3.4020646686
  0
LINE
  5
55C
100
AcDbEntity
  8
0
100
AcDbLine
 62
7
  6
CONTINUOUS
 10
4.2220250051
 20
7.4619746686
 11
4.2220250051
 21
6.9319746686
  0
LINE
  5
55D
100
AcDbEntity
  8
0
100
AcDbLine
 62
7
  6
CONTINUOUS
 10
4.2220250051
 20
6.6669746686
 11
4.2220250051
 21
6.1369746686
  0
LINE
  5
55E
100
AcDbEntity
  8
0
100
AcDbLine
 62
7
  6
CONTINUOUS
 10
4.2220250051
 20
5.8719746686
 11
4.2220250051
 21
5.3419746686
  0
LINE
  5
55F
100
AcDbEntity
  8
0
100
AcDbLine
 62
7
  6
CONTINUOUS
 10
4.2220250051
 20
5.0769746686
 11
4.2220250051
 21
4.5469746686
  0
LINE
  5
560
100
AcDbEntity
  8
0
100
AcDbLine
 62
7
  6
CONTINUOUS
 10
4.2370250051
 20
7.4469746686
 11
4.2370250051
 21
6.9469746686
  0
LINE
  5
561
100
AcDbEntity
  8
0
100
AcDbLine
 62
7
  6
CONTINUOUS
 10
4.2370250051
 20
6.6519746686
 11
4.2370250051
 21
6.1519746686
  0
LINE
  5
562
100
AcDbEntity
  8
0
100
AcDbLine
 62
7
  6
CONTINUOUS
 10
4.2370250051
 20
5.8569746686
 11
4.2370250051
 21
5.3569746686
  0
LINE
  5
563
100
AcDbEntity
  8
0
100
AcDbLine
 62
7
  6
CONTINUOUS
 10
4.2370250051
 20
5.0619746686
 11
4.2370250051
 21
4.5619746686
  0
LINE
  5
564
100
AcDbEntity
  8
0
100
AcDbLine
 62
7
  6
CONTINUOUS
 10
4.3120250051
 20
3.6713446187
 11
4.3120250051
 21
3.6214299602
  0
LINE
  5
565
100
AcDbEntity
  8
0
100
AcDbLine
 62
7
  6
CONTINUOUS
 10
4.3125013831
 20
3.5123520702
 11
4.3125013831
 21
3.535777267
  0
LINE
  5
566
100
AcDbEntity
  8
0
100
AcDbLine
 62
7
  6
CONTINUOUS
 10
4.3125013831
 20
8.3332620702
 11
4.3125013831
 21
8.356687267
  0
LINE
  5
567
100
AcDbEntity
  8
0
100
AcDbLine
 62
7
  6
CONTINUOUS
 10
4.3472454776
 20
3.4669780544
 11
4.3472454776
 21
3.510285141
  0
LINE
  5
568
100
AcDbEntity
  8
0
100
AcDbLine
 62
7
  6
CONTINUOUS
 10
4.3472454776
 20
3.5378441962
 11
4.3472454776
 21
3.5811512828
  0
LINE
  5
569
100
AcDbEntity
  8
0
100
AcDbLine
 62
7
  6
CONTINUOUS
 10
4.3472454776
 20
8.2878880544
 11
4.3472454776
 21
8.331195141
  0
LINE
  5
56A
100
AcDbEntity
  8
0
100
AcDbLine
 62
7
  6
CONTINUOUS
 10
4.3472454776
 20
8.3587541962
 11
4.3472454776
 21
8.4020612828
  0
LINE
  5
56B
100
AcDbEntity
  8
0
100
AcDbLine
 62
7
  6
CONTINUOUS
 10
4.3493124067
 20
8.3587541962
 11
4.3493124067
 21
8.356687267
  0
LINE
  5
56C
100
AcDbEntity
  8
0
100
AcDbLine
 62
7
  6
CONTINUOUS
 10
4.3493124067
 20
3.5378441962
 11
4.3493124067
 21
3.535777267
  0
LINE
  5
56D
100
AcDbEntity
  8
0
100
AcDbLine
 62
7
  6
CONTINUOUS
 10
4.3493124067
 20
3.510285141
 11
4.3493124067
 21
3.5123520702
  0
LINE
  5
56E
100
AcDbEntity
  8
0
100
AcDbLine
 62
7
  6
CONTINUOUS
 10
4.3493124067
 20
8.331195141
 11
4.3493124067
 21
8.3332620702
  0
LINE
  5
56F
100
AcDbEntity
  8
0
100
AcDbLine
 62
7
  6
CONTINUOUS
 10
4.3510250051
 20
4.2310646686
 11
4.3510250051
 21
4.2780646686
  0
LINE
  5
570
100
AcDbEntity
  8
DEFAULT_1
100
AcDbLine
 62
7
  6
CENTER
 10
4.3610250051
 20
8.3449746686
 11
4.3610250051
 21
8.1014746686
  0
LINE
  5
571
100
AcDbEntity
  8
DEFAULT_1
100
AcDbLine
 62
7
  6
CENTER
 10
4.3610250051
 20
3.5240646686
 11
4.3610250051
 21
3.2900646686
  0
LINE
  5
572
100
AcDbEntity
  8
DEFAULT_1
100
AcDbLine
 62
7
  6
CENTER
 10
4.3610250051
 20
3.5240646686
 11
4.3610250051
 21
3.7580646686
  0
LINE
  5
573
100
AcDbEntity
  8
DEFAULT_1
100
AcDbLine
 62
7
  6
CENTER
 10
4.3610250051
 20
8.3449746686
 11
4.3610250051
 21
8.5884746686
  0
LINE
  5
574
100
AcDbEntity
  8
0
100
AcDbLine
 62
7
  6
CONTINUOUS
 10
4.3727376036
 20
8.3587541962
 11
4.3727376036
 21
8.356687267
  0
LINE
  5
575
100
AcDbEntity
  8
0
100
AcDbLine
 62
7
  6
CONTINUOUS
 10
4.3727376036
 20
3.5378441962
 11
4.3727376036
 21
3.535777267
  0
LINE
  5
576
100
AcDbEntity
  8
0
100
AcDbLine
 62
7
  6
CONTINUOUS
 10
4.3727376036
 20
3.510285141
 11
4.3727376036
 21
3.5123520702
  0
LINE
  5
577
100
AcDbEntity
  8
0
100
AcDbLine
 62
7
  6
CONTINUOUS
 10
4.3727376036
 20
8.331195141
 11
4.3727376036
 21
8.3332620702
  0
LINE
  5
578
100
AcDbEntity
  8
0
100
AcDbLine
 62
7
  6
CONTINUOUS
 10
4.3748045327
 20
8.4020612828
 11
4.3748045327
 21
8.3587541962
  0
LINE
  5
579
100
AcDbEntity
  8
0
100
AcDbLine
 62
7
  6
CONTINUOUS
 10
4.3748045327
 20
8.331195141
 11
4.3748045327
 21
8.2878880544
  0
LINE
  5
57A
100
AcDbEntity
  8
0
100
AcDbLine
 62
7
  6
CONTINUOUS
 10
4.3748045327
 20
3.5811512828
 11
4.3748045327
 21
3.5378441962
  0
LINE
  5
57B
100
AcDbEntity
  8
0
100
AcDbLine
 62
7
  6
CONTINUOUS
 10
4.3748045327
 20
3.510285141
 11
4.3748045327
 21
3.4669780544
  0
LINE
  5
57C
100
AcDbEntity
  8
0
100
AcDbLine
 62
7
  6
CONTINUOUS
 10
4.4095486272
 20
3.5123520702
 11
4.4095486272
 21
3.535777267
  0
LINE
  5
57D
100
AcDbEntity
  8
0
100
AcDbLine
 62
7
  6
CONTINUOUS
 10
4.4095486272
 20
8.3332620702
 11
4.4095486272
 21
8.356687267
  0
LINE
  5
57E
100
AcDbEntity
  8
0
100
AcDbLine
 62
7
  6
CONTINUOUS
 10
4.6850250051
 20
5.8569746686
 11
4.2370250051
 21
5.8569746686
  0
LINE
  5
57F
100
AcDbEntity
  8
0
100
AcDbLine
 62
7
  6
CONTINUOUS
 10
4.7000250051
 20
5.8719746686
 11
4.2220250051
 21
5.8719746686
  0
LINE
  5
580
100
AcDbEntity
  8
0
100
AcDbLine
 62
7
  6
CONTINUOUS
 10
4.5620250051
 20
3.6713446187
 11
4.5620250051
 21
3.5620646686
  0
LINE
  5
581
100
AcDbEntity
  8
0
100
AcDbLine
 62
7
  6
CONTINUOUS
 10
4.5710250051
 20
4.2310646686
 11
4.5710250051
 21
4.2780646686
  0
LINE
  5
582
100
AcDbEntity
  8
0
100
AcDbLine
 62
7
  6
CONTINUOUS
 10
4.6850250051
 20
4.5619746686
 11
4.6850250051
 21
5.0619746686
  0
LINE
  5
583
100
AcDbEntity
  8
0
100
AcDbLine
 62
7
  6
CONTINUOUS
 10
4.6850250051
 20
5.3569746686
 11
4.6850250051
 21
5.8569746686
  0
LINE
  5
584
100
AcDbEntity
  8
0
100
AcDbLine
 62
7
  6
CONTINUOUS
 10
4.6850250051
 20
6.1519746686
 11
4.6850250051
 21
6.6519746686
  0
LINE
  5
585
100
AcDbEntity
  8
0
100
AcDbLine
 62
7
  6
CONTINUOUS
 10
4.6850250051
 20
6.9469746686
 11
4.6850250051
 21
7.4469746686
  0
LINE
  5
586
100
AcDbEntity
  8
0
100
AcDbLine
 62
7
  6
CONTINUOUS
 10
4.7000250051
 20
4.5469746686
 11
4.7000250051
 21
5.0769746686
  0
LINE
  5
587
100
AcDbEntity
  8
0
100
AcDbLine
 62
7
  6
CONTINUOUS
 10
4.7000250051
 20
5.3419746686
 11
4.7000250051
 21
5.8719746686
  0
LINE
  5
588
100
AcDbEntity
  8
0
100
AcDbLine
 62
7
  6
CONTINUOUS
 10
4.7000250051
 20
6.1369746686
 11
4.7000250051
 21
6.6669746686
  0
LINE
  5
589
100
AcDbEntity
  8
0
100
AcDbLine
 62
7
  6
CONTINUOUS
 10
4.7000250051
 20
6.9319746686
 11
4.7000250051
 21
7.4619746686
  0
LINE
  5
58A
100
AcDbEntity
  8
0
100
AcDbLine
 62
7
  6
CONTINUOUS
 10
4.7130250051
 20
3.3290646686
 11
4.7130250051
 21
3.6713446187
  0
LINE
  5
58B
100
AcDbEntity
  8
0
100
AcDbLine
 62
7
  6
CONTINUOUS
 10
4.2220250051
 20
6.1369746686
 11
4.7000250051
 21
6.1369746686
  0
LINE
  5
58C
100
AcDbEntity
  8
0
100
AcDbLine
 62
7
  6
CONTINUOUS
 10
4.2370250051
 20
6.1519746686
 11
4.6850250051
 21
6.1519746686
  0
LINE
  5
58D
100
AcDbEntity
  8
0
100
AcDbLine
 62
9
  6
CONTINUOUS
 10
4.8430250051
 20
8.4669746686
 11
4.8430250051
 21
8.4444387702
  0
LINE
  5
58E
100
AcDbEntity
  8
0
100
AcDbLine
 62
9
  6
CONTINUOUS
 10
4.8430250051
 20
4.359510567
 11
4.8430250051
 21
4.3310646686
  0
LINE
  5
58F
100
AcDbEntity
  8
0
100
AcDbLine
 62
7
  6
CONTINUOUS
 10
4.8450250051
 20
4.3669746686
 11
4.8450250051
 21
8.4369746686
  0
LINE
  5
590
100
AcDbEntity
  8
0
100
AcDbLine
 62
7
  6
CONTINUOUS
 10
4.8550250051
 20
3.3290646686
 11
4.8550250051
 21
8.4669746686
  0
LINE
  5
591
100
AcDbEntity
  8
0
100
AcDbLine
 62
9
  6
CONTINUOUS
 10
4.8579702241
 20
4.0669746686
 11
4.8579702241
 21
8.0669746686
  0
LINE
  5
592
100
AcDbEntity
  8
0
100
AcDbLine
 62
9
  6
CONTINUOUS
 10
4.8665792522
 20
4.0669746686
 11
4.8665792522
 21
8.0669746686
  0
LINE
  5
593
100
AcDbEntity
  8
0
100
AcDbLine
 62
7
  6
CONTINUOUS
 10
4.8667435953
 20
4.0669746686
 11
4.8667435953
 21
8.0669746686
  0
LINE
  5
594
100
AcDbEntity
  8
0
100
AcDbLine
 62
7
  6
CONTINUOUS
 10
4.3472454776
 20
3.4669780544
 11
4.3748045327
 21
3.5811512828
  0
LINE
  5
595
100
AcDbEntity
  8
0
100
AcDbLine
 62
7
  6
CONTINUOUS
 10
4.3748045327
 20
8.2878880544
 11
4.3472454776
 21
8.4020612828
  0
LINE
  5
596
100
AcDbEntity
  8
0
100
AcDbLine
 62
7
  6
CONTINUOUS
 10
4.6850250051
 20
6.6519746686
 11
4.2370250051
 21
6.6519746686
  0
LINE
  5
597
100
AcDbEntity
  8
0
100
AcDbLine
 62
7
  6
CONTINUOUS
 10
4.7000250051
 20
6.6669746686
 11
4.2220250051
 21
6.6669746686
  0
LINE
  5
598
100
AcDbEntity
  8
0
100
AcDbLine
 62
7
  6
CONTINUOUS
 10
4.2220250051
 20
6.9319746686
 11
4.7000250051
 21
6.9319746686
  0
LINE
  5
599
100
AcDbEntity
  8
0
100
AcDbLine
 62
7
  6
CONTINUOUS
 10
4.2370250051
 20
6.9469746686
 11
4.6850250051
 21
6.9469746686
  0
LINE
  5
59A
100
AcDbEntity
  8
0
100
AcDbLine
 62
7
  6
CONTINUOUS
 10
4.6850250051
 20
7.4469746686
 11
4.2370250051
 21
7.4469746686
  0
LINE
  5
59B
100
AcDbEntity
  8
0
100
AcDbLine
 62
7
  6
CONTINUOUS
 10
4.7000250051
 20
7.4619746686
 11
4.2220250051
 21
7.4619746686
  0
LINE
  5
59C
100
AcDbEntity
  8
0
100
AcDbLine
 62
7
  6
CONTINUOUS
 10
4.3493124067
 20
3.5123520702
 11
4.3727376036
 21
3.535777267
  0
LINE
  5
59D
100
AcDbEntity
  8
0
100
AcDbLine
 62
7
  6
CONTINUOUS
 10
4.3727376036
 20
8.3332620702
 11
4.3493124067
 21
8.356687267
  0
LINE
  5
59E
100
AcDbEntity
  8
0
100
AcDbLine
 62
7
  6
CONTINUOUS
 10
4.8550250051
 20
8.0669746686
 11
4.8667435953
 21
8.0669746686
  0
LINE
  5
59F
100
AcDbEntity
  8
0
100
AcDbLine
 62
7
  6
CONTINUOUS
 10
4.3125013831
 20
8.3332620702
 11
4.4095486272
 21
8.356687267
  0
LINE
  5
5A0
100
AcDbEntity
  8
0
100
AcDbLine
 62
7
  6
CONTINUOUS
 10
4.4792789691
 20
8.2159746686
 11
4.2427710411
 21
8.2159746686
  0
LINE
  5
5A1
100
AcDbEntity
  8
0
100
AcDbLine
 62
7
  6
CONTINUOUS
 10
4.4647747039
 20
8.2264746686
 11
4.2572753063
 21
8.2264746686
  0
LINE
  5
5A2
100
AcDbEntity
  8
0
100
AcDbLine
 62
7
  6
CONTINUOUS
 10
4.3748045327
 20
8.2878880544
 11
4.3472454776
 21
8.2878880544
  0
LINE
  5
5A3
100
AcDbEntity
  8
0
100
AcDbLine
 62
7
  6
CONTINUOUS
 10
4.2663777296
 20
8.331195141
 11
4.3493124067
 21
8.331195141
  0
LINE
  5
5A4
100
AcDbEntity
  8
0
100
AcDbLine
 62
7
  6
CONTINUOUS
 10
4.3727376036
 20
8.331195141
 11
4.4556722806
 21
8.331195141
  0
LINE
  5
5A5
100
AcDbEntity
  8
0
100
AcDbLine
 62
7
  6
CONTINUOUS
 10
4.3125013831
 20
8.3332620702
 11
4.3493124067
 21
8.3332620702
  0
LINE
  5
5A6
100
AcDbEntity
  8
0
100
AcDbLine
 62
7
  6
CONTINUOUS
 10
4.3727376036
 20
8.3332620702
 11
4.4095486272
 21
8.3332620702
  0
LINE
  5
5A7
100
AcDbEntity
  8
DEFAULT_1
100
AcDbLine
 62
7
  6
CENTER
 10
4.3610250051
 20
8.3449746686
 11
4.1175250051
 21
8.3449746686
  0
LINE
  5
5A8
100
AcDbEntity
  8
DEFAULT_1
100
AcDbLine
 62
7
  6
CENTER
 10
4.3610250051
 20
8.3449746686
 11
4.6045250051
 21
8.3449746686
  0
LINE
  5
5A9
100
AcDbEntity
  8
0
100
AcDbLine
 62
7
  6
CONTINUOUS
 10
4.4095486272
 20
8.356687267
 11
4.3727376036
 21
8.356687267
  0
LINE
  5
5AA
100
AcDbEntity
  8
0
100
AcDbLine
 62
7
  6
CONTINUOUS
 10
4.3493124067
 20
8.356687267
 11
4.3125013831
 21
8.356687267
  0
LINE
  5
5AB
100
AcDbEntity
  8
0
100
AcDbLine
 62
7
  6
CONTINUOUS
 10
4.2663777296
 20
8.3587541962
 11
4.3493124067
 21
8.3587541962
  0
LINE
  5
5AC
100
AcDbEntity
  8
0
100
AcDbLine
 62
7
  6
CONTINUOUS
 10
4.3727376036
 20
8.3587541962
 11
4.4556722806
 21
8.3587541962
  0
LINE
  5
5AD
100
AcDbEntity
  8
0
100
AcDbLine
 62
7
  6
CONTINUOUS
 10
4.3472454776
 20
8.4020612828
 11
4.3748045327
 21
8.4020612828
  0
LINE
  5
5AE
100
AcDbEntity
  8
0
100
AcDbLine
 62
7
  6
CONTINUOUS
 10
4.8250250051
 20
8.4569746686
 11
4.4954906141
 21
8.4569746686
  0
LINE
  5
5AF
100
AcDbEntity
  8
0
100
AcDbLine
 62
7
  6
CONTINUOUS
 10
4.2265593961
 20
8.4569746686
 11
4.0970250051
 21
8.4569746686
  0
LINE
  5
5B0
100
AcDbEntity
  8
0
100
AcDbLine
 62
7
  6
CONTINUOUS
 10
4.2572753063
 20
8.4634746686
 11
4.4647747039
 21
8.4634746686
  0
LINE
  5
5B1
100
AcDbEntity
  8
0
100
AcDbLine
 62
7
  6
CONTINUOUS
 10
4.8550250051
 20
8.4669746686
 11
4.0670250051
 21
8.4669746686
  0
LINE
  5
5B2
100
AcDbEntity
  8
0
100
AcDbLine
 62
7
  6
CONTINUOUS
 10
4.3125013831
 20
8.356687267
 11
4.4095486272
 21
8.3332620702
  0
LINE
  5
5B3
100
AcDbEntity
  8
0
100
AcDbLine
 62
7
  6
CONTINUOUS
 10
6.4001335849
 20
4.0910646686
 11
6.4001335849
 21
3.9710646686
  0
LINE
  5
5B4
100
AcDbEntity
  8
0
100
AcDbLine
 62
7
  6
CONTINUOUS
 10
7.6740943654
 20
3.4198338994
 11
7.4901335849
 21
3.5198338994
  0
LINE
  5
5B5
100
AcDbEntity
  8
0
100
AcDbLine
 62
7
  6
CONTINUOUS
 10
7.4001335849
 20
3.6560646686
 11
7.4201335849
 21
3.4390646686
  0
LINE
  5
5B6
100
AcDbEntity
  8
0
100
AcDbLine
 62
7
  6
CONTINUOUS
 10
7.2296889998
 20
4.1735100293
 11
7.2290355398
 21
4.183488656
  0
LINE
  5
5B7
100
AcDbEntity
  8
0
100
AcDbLine
 62
7
  6
CONTINUOUS
 10
8.308204451
 20
8.3449746686
 11
8.2669101778
 21
8.2957620702
  0
LINE
  5
5B8
100
AcDbEntity
  8
0
100
AcDbLine
 62
7
  6
CONTINUOUS
 10
7.4201335849
 20
3.4390646686
 11
7.4701335849
 21
3.4198338994
  0
LINE
  5
5B9
100
AcDbEntity
  8
0
100
AcDbLine
 62
7
  6
CONTINUOUS
 10
7.6595257382
 20
3.3469907635
 11
7.7061335849
 21
3.3290646686
  0
LINE
  5
5BA
100
AcDbEntity
  8
0
100
AcDbLine
 62
7
  6
CONTINUOUS
 10
7.9073670394
 20
3.5685463076
 11
7.9151335849
 21
3.5620646686
  0
LINE
  5
5BB
100
AcDbEntity
  8
0
100
AcDbLine
 62
7
  6
CONTINUOUS
 10
7.5851335849
 20
4.2880646686
 11
7.6451335849
 21
4.2180646686
  0
LINE
  5
5BC
100
AcDbEntity
  8
0
100
AcDbLine
 62
7
  6
CONTINUOUS
 10
8.348204451
 20
3.5240646686
 11
8.3069101778
 21
3.573277267
  0
LINE
  5
5BD
100
AcDbEntity
  8
0
100
AcDbLine
 62
7
  6
CONTINUOUS
 10
7.6188554396
 20
4.1989949699
 11
7.6182019795
 21
4.2089735966
  0
LINE
  5
5BE
100
AcDbEntity
  8
0
100
AcDbLine
 62
7
  6
CONTINUOUS
 10
7.6501335849
 20
4.2256024522
 11
7.6501335849
 21
4.2110646686
  0
LINE
  5
5BF
100
AcDbEntity
  8
0
100
AcDbLine
 62
7
  6
CONTINUOUS
 10
8.1641335849
 20
7.5885823638
 11
8.1701335849
 21
7.5989746686
  0
LINE
  5
5C0
100
AcDbEntity
  8
0
100
AcDbLine
 62
7
  6
CONTINUOUS
 10
6.4001335849
 20
3.9710646686
 11
6.4621335849
 21
3.9515346686
  0
LINE
  5
5C1
100
AcDbEntity
  8
0
100
AcDbLine
 62
7
  6
CONTINUOUS
 10
7.0201057926
 20
3.7757734232
 11
7.4001335849
 21
3.6560646686
  0
LINE
  5
5C2
100
AcDbEntity
  8
0
100
AcDbLine
 62
7
  6
CONTINUOUS
 10
8.2011335849
 20
3.7520646686
 11
7.8201335849
 21
4.0926820893
  0
LINE
  5
5C3
100
AcDbEntity
  8
0
100
AcDbLine
 62
7
  6
CONTINUOUS
 10
7.7951335849
 20
8.2264746686
 11
7.7951335849
 21
8.4634746686
  0
LINE
  5
5C4
100
AcDbEntity
  8
0
100
AcDbLine
 62
7
  6
CONTINUOUS
 10
7.8001335849
 20
3.9960646686
 11
7.8001335849
 21
4.1060646686
  0
LINE
  5
5C5
100
AcDbEntity
  8
0
100
AcDbLine
 62
7
  6
CONTINUOUS
 10
7.8001335849
 20
4.1860646686
 11
7.8001335849
 21
4.2210646686
  0
LINE
  5
5C6
100
AcDbEntity
  8
0
100
AcDbLine
 62
7
  6
CONTINUOUS
 10
7.8201335849
 20
4.0210646686
 11
7.8201335849
 21
4.2310646686
  0
LINE
  5
5C7
100
AcDbEntity
  8
0
100
AcDbLine
 62
7
  6
CONTINUOUS
 10
7.8437160811
 20
3.4408679037
 11
7.8437160811
 21
3.4508745907
  0
LINE
  5
5C8
100
AcDbEntity
  8
0
100
AcDbLine
 62
7
  6
CONTINUOUS
 10
7.8579899994
 20
3.4293319825
 11
7.8579899994
 21
3.4697383028
  0
LINE
  5
5C9
100
AcDbEntity
  8
0
100
AcDbLine
 62
7
  6
CONTINUOUS
 10
7.9001335849
 20
4.3469746686
 11
7.9001335849
 21
8.4569746686
  0
LINE
  5
5CA
100
AcDbEntity
  8
0
100
AcDbLine
 62
7
  6
CONTINUOUS
 10
7.9101335849
 20
4.0210646686
 11
7.9101335849
 21
4.3310646686
  0
LINE
  5
5CB
100
AcDbEntity
  8
0
100
AcDbLine
 62
7
  6
CONTINUOUS
 10
7.9151335849
 20
3.5620646686
 11
7.9151335849
 21
3.4020646686
  0
LINE
  5
5CC
100
AcDbEntity
  8
0
100
AcDbLine
 62
7
  6
CONTINUOUS
 10
7.9151335849
 20
4.0239746686
 11
7.9151335849
 21
8.4669746686
  0
LINE
  5
5CD
100
AcDbEntity
  8
0
100
AcDbLine
 62
7
  6
CONTINUOUS
 10
7.9271335849
 20
8.4669746686
 11
7.9271335849
 21
4.0239746686
  0
LINE
  5
5CE
100
AcDbEntity
  8
0
100
AcDbLine
 62
7
  6
CONTINUOUS
 10
7.9331335849
 20
8.4669746686
 11
7.9331335849
 21
4.0239746686
  0
LINE
  5
5CF
100
AcDbEntity
  8
0
100
AcDbLine
 62
7
  6
CONTINUOUS
 10
7.9351335849
 20
3.721058291
 11
7.9351335849
 21
3.821780418
  0
LINE
  5
5D0
100
AcDbEntity
  8
0
100
AcDbLine
 62
7
  6
CONTINUOUS
 10
7.9451335849
 20
4.0239746686
 11
7.9451335849
 21
8.4669746686
  0
LINE
  5
5D1
100
AcDbEntity
  8
0
100
AcDbLine
 62
7
  6
CONTINUOUS
 10
7.9611335849
 20
8.4669746686
 11
7.9611335849
 21
8.1169746686
  0
LINE
  5
5D2
100
AcDbEntity
  8
0
100
AcDbLine
 62
7
  6
CONTINUOUS
 10
7.9651335849
 20
7.5451337969
 11
7.9651335849
 21
4.4648155403
  0
LINE
  5
5D3
100
AcDbEntity
  8
0
100
AcDbLine
 62
7
  6
CONTINUOUS
 10
7.9743298083
 20
4.0239746686
 11
7.9743298083
 21
4.4646843935
  0
LINE
  5
5D4
100
AcDbEntity
  8
0
100
AcDbLine
 62
7
  6
CONTINUOUS
 10
7.9743298083
 20
7.5452649437
 11
7.9743298083
 21
8.1169746686
  0
LINE
  5
5D5
100
AcDbEntity
  8
0
100
AcDbLine
 62
7
  6
CONTINUOUS
 10
7.9761335849
 20
4.0669746686
 11
7.9761335849
 21
8.0669746686
  0
LINE
  5
5D6
100
AcDbEntity
  8
0
100
AcDbLine
 62
7
  6
CONTINUOUS
 10
7.9850883002
 20
4.0669746686
 11
7.9850883002
 21
8.0669746686
  0
LINE
  5
5D7
100
AcDbEntity
  8
0
100
AcDbLine
 62
7
  6
CONTINUOUS
 10
7.9851335849
 20
8.1169746686
 11
7.9851335849
 21
8.0669746686
  0
LINE
  5
5D8
100
AcDbEntity
  8
0
100
AcDbLine
 62
7
  6
CONTINUOUS
 10
7.9851335849
 20
4.0669746686
 11
7.9851335849
 21
4.0239746686
  0
LINE
  5
5D9
100
AcDbEntity
  8
0
100
AcDbLine
 62
7
  6
CONTINUOUS
 10
7.9951335849
 20
8.1169746686
 11
7.9951335849
 21
8.0669746686
  0
LINE
  5
5DA
100
AcDbEntity
  8
0
100
AcDbLine
 62
7
  6
CONTINUOUS
 10
7.9951335849
 20
4.0669746686
 11
7.9951335849
 21
4.0239746686
  0
LINE
  5
5DB
100
AcDbEntity
  8
0
100
AcDbLine
 62
7
  6
CONTINUOUS
 10
8.0131335849
 20
3.4020646686
 11
8.0131335849
 21
3.7520646686
  0
LINE
  5
5DC
100
AcDbEntity
  8
0
100
AcDbLine
 62
7
  6
CONTINUOUS
 10
8.0151335849
 20
4.0239746686
 11
8.0151335849
 21
4.0210646686
  0
LINE
  5
5DD
100
AcDbEntity
  8
0
100
AcDbLine
 62
7
  6
CONTINUOUS
 10
8.0151335849
 20
8.1169746686
 11
8.0151335849
 21
8.4669746686
  0
LINE
  5
5DE
100
AcDbEntity
  8
0
100
AcDbLine
 62
7
  6
CONTINUOUS
 10
7.4901335849
 20
3.5198338994
 11
7.4701335849
 21
3.4198338994
  0
LINE
  5
5DF
100
AcDbEntity
  8
0
100
AcDbLine
 62
7
  6
CONTINUOUS
 10
7.9151335849
 20
3.4260331725
 11
7.8579899994
 21
3.4293319825
  0
LINE
  5
5E0
100
AcDbEntity
  8
0
100
AcDbLine
 62
7
  6
CONTINUOUS
 10
7.7382998328
 20
4.2680646686
 11
7.8201335849
 21
4.2310646686
  0
LINE
  5
5E1
100
AcDbEntity
  8
0
100
AcDbLine
 62
7
  6
CONTINUOUS
 10
7.7061335849
 20
4.2680646686
 11
7.8001335849
 21
4.2210646686
  0
LINE
  5
5E2
100
AcDbEntity
  8
0
100
AcDbLine
 62
7
  6
CONTINUOUS
 10
8.9011335849
 20
3.8558646686
 11
8.8511335849
 21
3.9058646686
  0
LINE
  5
5E3
100
AcDbEntity
  8
0
100
AcDbLine
 62
7
  6
CONTINUOUS
 10
8.066997731
 20
4.0669746686
 11
8.066997731
 21
8.0669746686
  0
LINE
  5
5E4
100
AcDbEntity
  8
0
100
AcDbLine
 62
7
  6
CONTINUOUS
 10
8.0732694387
 20
4.0669746686
 11
8.0732694387
 21
8.0669746686
  0
LINE
  5
5E5
100
AcDbEntity
  8
0
100
AcDbLine
 62
7
  6
CONTINUOUS
 10
8.1188343723
 20
8.394187267
 11
8.1188343723
 21
8.2957620702
  0
LINE
  5
5E6
100
AcDbEntity
  8
0
100
AcDbLine
 62
7
  6
CONTINUOUS
 10
8.1451335849
 20
8.1169746686
 11
8.1451335849
 21
8.0669746686
  0
LINE
  5
5E7
100
AcDbEntity
  8
0
100
AcDbLine
 62
7
  6
CONTINUOUS
 10
8.1451335849
 20
4.0669746686
 11
8.1451335849
 21
4.0239746686
  0
LINE
  5
5E8
100
AcDbEntity
  8
0
100
AcDbLine
 62
7
  6
CONTINUOUS
 10
8.1551335849
 20
8.1169746686
 11
8.1551335849
 21
8.0669746686
  0
LINE
  5
5E9
100
AcDbEntity
  8
0
100
AcDbLine
 62
7
  6
CONTINUOUS
 10
8.1551335849
 20
4.0669746686
 11
8.1551335849
 21
4.0239746686
  0
LINE
  5
5EA
100
AcDbEntity
  8
0
100
AcDbLine
 62
7
  6
CONTINUOUS
 10
8.1551788695
 20
4.0669746686
 11
8.1551788695
 21
8.0669746686
  0
LINE
  5
5EB
100
AcDbEntity
  8
0
100
AcDbLine
 62
7
  6
CONTINUOUS
 10
8.1588343723
 20
3.573277267
 11
8.1588343723
 21
3.4748520702
  0
LINE
  5
5EC
100
AcDbEntity
  8
0
100
AcDbLine
 62
7
  6
CONTINUOUS
 10
8.1641335849
 20
4.0669746686
 11
8.1641335849
 21
8.0669746686
  0
LINE
  5
5ED
100
AcDbEntity
  8
0
100
AcDbLine
 62
7
  6
CONTINUOUS
 10
8.1701335849
 20
7.7869746686
 11
8.1701335849
 21
7.5989746686
  0
LINE
  5
5EE
100
AcDbEntity
  8
0
100
AcDbLine
 62
7
  6
CONTINUOUS
 10
8.2011335849
 20
3.7520646686
 11
8.2011335849
 21
4.3310646686
  0
LINE
  5
5EF
100
AcDbEntity
  8
0
100
AcDbLine
 62
7
  6
CONTINUOUS
 10
8.2276335849
 20
7.6369746686
 11
8.2276335849
 21
7.7489746686
  0
LINE
  5
5F0
100
AcDbEntity
  8
0
100
AcDbLine
 62
7
  6
CONTINUOUS
 10
8.2669101778
 20
8.394187267
 11
8.2669101778
 21
8.2957620702
  0
LINE
  5
5F1
100
AcDbEntity
  8
0
100
AcDbLine
 62
7
  6
CONTINUOUS
 10
8.3069101778
 20
3.573277267
 11
8.3069101778
 21
3.4748520702
  0
LINE
  5
5F2
100
AcDbEntity
  8
0
100
AcDbLine
 62
7
  6
CONTINUOUS
 10
7.6595257382
 20
3.3469907635
 11
7.6740943654
 21
3.4198338994
  0
LINE
  5
5F3
100
AcDbEntity
  8
0
100
AcDbLine
 62
7
  6
CONTINUOUS
 10
7.9151335849
 20
3.4020646686
 11
8.0131335849
 21
3.4020646686
  0
LINE
  5
5F4
100
AcDbEntity
  8
0
100
AcDbLine
 62
7
  6
CONTINUOUS
 10
8.3069101778
 20
3.4748520702
 11
8.1588343723
 21
3.4748520702
  0
LINE
  5
5F5
100
AcDbEntity
  8
0
100
AcDbLine
 62
7
  6
CONTINUOUS
 10
8.1588343723
 20
3.4890252985
 11
8.0131335849
 21
3.4890252985
  0
LINE
  5
5F6
100
AcDbEntity
  8
0
100
AcDbLine
 62
7
  6
CONTINUOUS
 10
8.1588343723
 20
3.5591040387
 11
8.0131335849
 21
3.5591040387
  0
LINE
  5
5F7
100
AcDbEntity
  8
0
100
AcDbLine
 62
7
  6
CONTINUOUS
 10
8.3069101778
 20
3.573277267
 11
8.1588343723
 21
3.573277267
  0
LINE
  5
5F8
100
AcDbEntity
  8
0
100
AcDbLine
 62
7
  6
CONTINUOUS
 10
8.3851335849
 20
4.0680646686
 11
8.3851335849
 21
4.3310646686
  0
LINE
  5
5F9
100
AcDbEntity
  8
0
100
AcDbLine
 62
7
  6
CONTINUOUS
 10
8.3901335849
 20
7.5743246686
 11
8.3901335849
 21
7.7923246686
  0
LINE
  5
5FA
100
AcDbEntity
  8
0
100
AcDbLine
 62
7
  6
CONTINUOUS
 10
6.4001335849
 20
4.0910646686
 11
6.5201335849
 21
4.2310646686
  0
LINE
  5
5FB
100
AcDbEntity
  8
0
100
AcDbLine
 62
7
  6
CONTINUOUS
 10
8.0131335849
 20
3.7520646686
 11
8.2011335849
 21
3.7520646686
  0
LINE
  5
5FC
100
AcDbEntity
  8
0
100
AcDbLine
 62
7
  6
CONTINUOUS
 10
8.2011335849
 20
3.7908646686
 11
8.8511335849
 21
3.7908646686
  0
LINE
  5
5FD
100
AcDbEntity
  8
0
100
AcDbLine
 62
7
  6
CONTINUOUS
 10
8.2011335849
 20
3.9058646686
 11
8.8511335849
 21
3.9058646686
  0
LINE
  5
5FE
100
AcDbEntity
  8
0
100
AcDbLine
 62
7
  6
CONTINUOUS
 10
8.7751335849
 20
4.5078246686
 11
8.7751335849
 21
5.1028246686
  0
LINE
  5
5FF
100
AcDbEntity
  8
0
100
AcDbLine
 62
7
  6
CONTINUOUS
 10
8.7751335849
 20
5.3028246686
 11
8.7751335849
 21
5.8978246686
  0
LINE
  5
600
100
AcDbEntity
  8
0
100
AcDbLine
 62
7
  6
CONTINUOUS
 10
8.7751335849
 20
6.0978246686
 11
8.7751335849
 21
6.6928246686
  0
LINE
  5
601
100
AcDbEntity
  8
0
100
AcDbLine
 62
7
  6
CONTINUOUS
 10
8.7751335849
 20
6.8928246686
 11
8.7751335849
 21
7.4878246686
  0
LINE
  5
602
100
AcDbEntity
  8
0
100
AcDbLine
 62
7
  6
CONTINUOUS
 10
8.8511335849
 20
3.9058646686
 11
8.8511335849
 21
3.7908646686
  0
LINE
  5
603
100
AcDbEntity
  8
0
100
AcDbLine
 62
7
  6
CONTINUOUS
 10
8.9011335849
 20
3.8558646686
 11
8.9011335849
 21
3.8408646686
  0
LINE
  5
604
100
AcDbEntity
  8
0
100
AcDbLine
 62
7
  6
CONTINUOUS
 10
8.2011335849
 20
3.9653246686
 11
14.3361335849
 21
3.9653246686
  0
LINE
  5
605
100
AcDbEntity
  8
0
100
AcDbLine
 62
7
  6
CONTINUOUS
 10
8.2011335849
 20
4.0210646686
 11
7.9101335849
 21
4.0210646686
  0
LINE
  5
606
100
AcDbEntity
  8
0
100
AcDbLine
 62
7
  6
CONTINUOUS
 10
7.8201335849
 20
4.0210646686
 11
7.8001335849
 21
4.0210646686
  0
LINE
  5
607
100
AcDbEntity
  8
0
100
AcDbLine
 62
7
  6
CONTINUOUS
 10
7.9151335849
 20
4.0239746686
 11
8.1551335688
 21
4.0239746686
  0
LINE
  5
608
100
AcDbEntity
  8
0
100
AcDbLine
 62
7
  6
CONTINUOUS
 10
7.1351335849
 20
4.0360646686
 11
7.5601335849
 21
4.0360646686
  0
LINE
  5
609
100
AcDbEntity
  8
0
100
AcDbLine
 62
7
  6
CONTINUOUS
 10
7.9761335851
 20
4.0669746686
 11
8.1641335846
 21
4.0669746686
  0
LINE
  5
60A
100
AcDbEntity
  8
0
100
AcDbLine
 62
7
  6
CONTINUOUS
 10
8.2011335849
 20
4.0680646686
 11
8.3851335849
 21
4.0680646686
  0
LINE
  5
60B
100
AcDbEntity
  8
0
100
AcDbLine
 62
7
  6
CONTINUOUS
 10
13.9683383093
 20
4.0868915977
 11
14.7813304352
 21
4.0868915977
  0
LINE
  5
60C
100
AcDbEntity
  8
0
100
AcDbLine
 62
7
  6
CONTINUOUS
 10
13.9604642935
 20
4.1026396292
 11
14.7380233486
 21
4.1026396292
  0
LINE
  5
60D
100
AcDbEntity
  8
0
100
AcDbLine
 62
7
  6
CONTINUOUS
 10
7.6782998328
 20
4.2680646686
 11
7.7382998328
 21
4.2680646686
  0
LINE
  5
60E
100
AcDbEntity
  8
0
100
AcDbLine
 62
7
  6
CONTINUOUS
 10
7.6451335849
 20
4.2180646686
 11
7.6782998328
 21
4.2680646686
  0
LINE
  5
60F
100
AcDbEntity
  8
0
100
AcDbLine
 62
7
  6
CONTINUOUS
 10
7.8001335849
 20
4.1860646686
 11
7.131122051
 21
4.0957952521
  0
LINE
  5
610
100
AcDbEntity
  8
0
100
AcDbLine
 62
7
  6
CONTINUOUS
 10
7.2296889998
 20
4.1735100293
 11
7.6188554396
 21
4.1989949699
  0
LINE
  5
611
100
AcDbEntity
  8
0
100
AcDbLine
 62
7
  6
CONTINUOUS
 10
6.7436981658
 20
4.1517058688
 11
7.2290355398
 21
4.183488656
  0
LINE
  5
612
100
AcDbEntity
  8
0
100
AcDbLine
 62
7
  6
CONTINUOUS
 10
7.6182019795
 20
4.2089735966
 11
7.6501335849
 21
4.2110646686
  0
LINE
  5
613
100
AcDbEntity
  8
0
100
AcDbLine
 62
7
  6
CONTINUOUS
 10
7.9101335849
 20
4.3310646686
 11
7.6801335849
 21
4.3310646686
  0
LINE
  5
614
100
AcDbEntity
  8
0
100
AcDbLine
 62
7
  6
CONTINUOUS
 10
8.1641335849
 20
4.3310646686
 11
8.3851335849
 21
4.3310646686
  0
LINE
  5
615
100
AcDbEntity
  8
0
100
AcDbLine
 62
7
  6
CONTINUOUS
 10
7.9151335849
 20
4.3469746686
 11
7.9001335849
 21
4.3469746686
  0
LINE
  5
616
100
AcDbEntity
  8
0
100
AcDbLine
 62
7
  6
CONTINUOUS
 10
7.9151335849
 20
4.3669746686
 11
7.9001335849
 21
4.3669746686
  0
LINE
  5
617
100
AcDbEntity
  8
0
100
AcDbLine
 62
7
  6
CONTINUOUS
 10
7.9651335849
 20
4.5078246686
 11
7.9761335849
 21
4.5078246686
  0
LINE
  5
618
100
AcDbEntity
  8
0
100
AcDbLine
 62
7
  6
CONTINUOUS
 10
8.1641335849
 20
4.5078246686
 11
8.7751335849
 21
4.5078246686
  0
LINE
  5
619
100
AcDbEntity
  8
0
100
AcDbLine
 62
7
  6
CONTINUOUS
 10
14.4348737423
 20
4.9472065584
 11
14.7813304352
 21
4.9472065584
  0
LINE
  5
61A
100
AcDbEntity
  8
0
100
AcDbLine
 62
7
  6
CONTINUOUS
 10
8.1641335849
 20
7.7973669734
 11
8.1701335849
 21
7.7869746686
  0
LINE
  5
61B
100
AcDbEntity
  8
0
100
AcDbLine
 62
7
  6
CONTINUOUS
 10
14.4348737423
 20
5.0072065584
 11
14.8561335849
 21
5.0072065584
  0
LINE
  5
61C
100
AcDbEntity
  8
0
100
AcDbLine
 62
7
  6
CONTINUOUS
 10
8.7751335849
 20
5.1028246686
 11
8.1641335849
 21
5.1028246686
  0
LINE
  5
61D
100
AcDbEntity
  8
0
100
AcDbLine
 62
7
  6
CONTINUOUS
 10
7.9761335849
 20
5.1028246686
 11
7.9651335849
 21
5.1028246686
  0
LINE
  5
61E
100
AcDbEntity
  8
0
100
AcDbLine
 62
7
  6
CONTINUOUS
 10
14.4348737423
 20
5.1272065584
 11
14.8561335849
 21
5.1272065584
  0
LINE
  5
61F
100
AcDbEntity
  8
0
100
AcDbLine
 62
7
  6
CONTINUOUS
 10
14.4348737423
 20
5.1872065584
 11
14.7813304352
 21
5.1872065584
  0
LINE
  5
620
100
AcDbEntity
  8
0
100
AcDbLine
 62
7
  6
CONTINUOUS
 10
7.9651335849
 20
5.3028246686
 11
7.9761335849
 21
5.3028246686
  0
LINE
  5
621
100
AcDbEntity
  8
0
100
AcDbLine
 62
7
  6
CONTINUOUS
 10
8.1641335849
 20
5.3028246686
 11
8.7751335849
 21
5.3028246686
  0
LINE
  5
622
100
AcDbEntity
  8
0
100
AcDbLine
 62
7
  6
CONTINUOUS
 10
8.348204451
 20
3.5240646686
 11
8.3069101778
 21
3.4748520702
  0
LINE
  5
623
100
AcDbEntity
  8
0
100
AcDbLine
 62
7
  6
CONTINUOUS
 10
8.7751335849
 20
5.8978246686
 11
8.1641335849
 21
5.8978246686
  0
LINE
  5
624
100
AcDbEntity
  8
0
100
AcDbLine
 62
7
  6
CONTINUOUS
 10
7.9761335849
 20
5.8978246686
 11
7.9651335849
 21
5.8978246686
  0
LINE
  5
625
100
AcDbEntity
  8
0
100
AcDbLine
 62
7
  6
CONTINUOUS
 10
8.308204451
 20
8.3449746686
 11
8.2669101778
 21
8.394187267
  0
LINE
  5
626
100
AcDbEntity
  8
0
100
AcDbLine
 62
7
  6
CONTINUOUS
 10
8.9011335849
 20
3.8408646686
 11
8.8511335849
 21
3.7908646686
  0
LINE
  5
627
100
AcDbEntity
  8
0
100
AcDbLine
 62
7
  6
CONTINUOUS
 10
7.6801335849
 20
4.3310646686
 11
7.5851335849
 21
4.2880646686
  0
LINE
  5
628
100
AcDbEntity
  8
0
100
AcDbLine
 62
7
  6
CONTINUOUS
 10
13.9604642935
 20
6.0317734875
 11
14.7380233486
 21
6.0317734875
  0
LINE
  5
629
100
AcDbEntity
  8
0
100
AcDbLine
 62
7
  6
CONTINUOUS
 10
13.9683383093
 20
6.047521519
 11
14.7813304352
 21
6.047521519
  0
LINE
  5
62A
100
AcDbEntity
  8
0
100
AcDbLine
 62
7
  6
CONTINUOUS
 10
7.9651335849
 20
6.0978246686
 11
7.9761335849
 21
6.0978246686
  0
LINE
  5
62B
100
AcDbEntity
  8
0
100
AcDbLine
 62
7
  6
CONTINUOUS
 10
8.1641335849
 20
6.0978246686
 11
8.7751335849
 21
6.0978246686
  0
LINE
  5
62C
100
AcDbEntity
  8
0
100
AcDbLine
 62
7
  6
CONTINUOUS
 10
7.5601335849
 20
4.0360646686
 11
7.8001335849
 21
4.1060646686
  0
LINE
  5
62D
100
AcDbEntity
  8
0
100
AcDbLine
 62
7
  6
CONTINUOUS
 10
8.7751335849
 20
6.6928246686
 11
8.1641335849
 21
6.6928246686
  0
LINE
  5
62E
100
AcDbEntity
  8
0
100
AcDbLine
 62
7
  6
CONTINUOUS
 10
7.9761335849
 20
6.6928246686
 11
7.9651335849
 21
6.6928246686
  0
LINE
  5
62F
100
AcDbEntity
  8
0
100
AcDbLine
 62
7
  6
CONTINUOUS
 10
7.9651335849
 20
6.8928246686
 11
7.9761335849
 21
6.8928246686
  0
LINE
  5
630
100
AcDbEntity
  8
0
100
AcDbLine
 62
7
  6
CONTINUOUS
 10
8.1641335849
 20
6.8928246686
 11
8.7751335849
 21
6.8928246686
  0
LINE
  5
631
100
AcDbEntity
  8
0
100
AcDbLine
 62
7
  6
CONTINUOUS
 10
8.7751335849
 20
7.4878246686
 11
8.1641335849
 21
7.4878246686
  0
LINE
  5
632
100
AcDbEntity
  8
0
100
AcDbLine
 62
7
  6
CONTINUOUS
 10
7.9761335849
 20
7.4878246686
 11
7.9651335849
 21
7.4878246686
  0
LINE
  5
633
100
AcDbEntity
  8
0
100
AcDbLine
 62
7
  6
CONTINUOUS
 10
7.9761335849
 20
7.4999746686
 11
7.9651335849
 21
7.4999746686
  0
LINE
  5
634
100
AcDbEntity
  8
0
100
AcDbLine
 62
7
  6
CONTINUOUS
 10
8.1641335849
 20
7.5743246686
 11
8.3901335849
 21
7.5743246686
  0
LINE
  5
635
100
AcDbEntity
  8
0
100
AcDbLine
 62
7
  6
CONTINUOUS
 10
8.2276335849
 20
7.6369746686
 11
8.1701335849
 21
7.6369746686
  0
LINE
  5
636
100
AcDbEntity
  8
0
100
AcDbLine
 62
7
  6
CONTINUOUS
 10
8.2276335849
 20
7.7489746686
 11
8.1701335849
 21
7.7489746686
  0
LINE
  5
637
100
AcDbEntity
  8
0
100
AcDbLine
 62
7
  6
CONTINUOUS
 10
8.1670447609
 20
7.7923246686
 11
8.3901335849
 21
7.7923246686
  0
LINE
  5
638
100
AcDbEntity
  8
0
100
AcDbLine
 62
7
  6
CONTINUOUS
 10
14.3361335849
 20
7.9023246686
 11
8.1641335849
 21
7.9023246686
  0
LINE
  5
639
100
AcDbEntity
  8
0
100
AcDbLine
 62
7
  6
CONTINUOUS
 10
14.9073146872
 20
5.0868915977
 11
14.8561335849
 21
5.1272065584
  0
LINE
  5
63A
100
AcDbEntity
  8
0
100
AcDbLine
 62
7
  6
CONTINUOUS
 10
7.9761335851
 20
8.0669746686
 11
8.1641335846
 21
8.0669746686
  0
LINE
  5
63B
100
AcDbEntity
  8
0
100
AcDbLine
 62
7
  6
CONTINUOUS
 10
7.9611335849
 20
8.1169746686
 11
8.1551335688
 21
8.1169746686
  0
LINE
  5
63C
100
AcDbEntity
  8
0
100
AcDbLine
 62
7
  6
CONTINUOUS
 10
8.0151335849
 20
8.1324746686
 11
7.9611335849
 21
8.1324746686
  0
LINE
  5
63D
100
AcDbEntity
  8
0
100
AcDbLine
 62
7
  6
CONTINUOUS
 10
7.9001335849
 20
8.2264746686
 11
7.7951335849
 21
8.2264746686
  0
LINE
  5
63E
100
AcDbEntity
  8
0
100
AcDbLine
 62
7
  6
CONTINUOUS
 10
8.2669101778
 20
8.2957620702
 11
8.1188343723
 21
8.2957620702
  0
LINE
  5
63F
100
AcDbEntity
  8
0
100
AcDbLine
 62
7
  6
CONTINUOUS
 10
8.1188343723
 20
8.3099352985
 11
8.0151335849
 21
8.3099352985
  0
LINE
  5
640
100
AcDbEntity
  8
0
100
AcDbLine
 62
7
  6
CONTINUOUS
 10
7.7930636448
 20
8.331195141
 11
7.7951335849
 21
8.331195141
  0
LINE
  5
641
100
AcDbEntity
  8
0
100
AcDbLine
 62
7
  6
CONTINUOUS
 10
7.7951335849
 20
8.3587541962
 11
7.7930636448
 21
8.3587541962
  0
LINE
  5
642
100
AcDbEntity
  8
0
100
AcDbLine
 62
7
  6
CONTINUOUS
 10
8.1188343723
 20
8.3800140387
 11
8.0151335849
 21
8.3800140387
  0
LINE
  5
643
100
AcDbEntity
  8
0
100
AcDbLine
 62
7
  6
CONTINUOUS
 10
8.2669101778
 20
8.394187267
 11
8.1188343723
 21
8.394187267
  0
LINE
  5
644
100
AcDbEntity
  8
0
100
AcDbLine
 62
7
  6
CONTINUOUS
 10
7.9151335849
 20
8.4369746686
 11
7.9001335849
 21
8.4369746686
  0
LINE
  5
645
100
AcDbEntity
  8
0
100
AcDbLine
 62
7
  6
CONTINUOUS
 10
7.9151335849
 20
8.4569746686
 11
7.9001335849
 21
8.4569746686
  0
LINE
  5
646
100
AcDbEntity
  8
0
100
AcDbLine
 62
7
  6
CONTINUOUS
 10
7.9151335849
 20
8.4634746686
 11
7.7951335849
 21
8.4634746686
  0
LINE
  5
647
100
AcDbEntity
  8
0
100
AcDbLine
 62
7
  6
CONTINUOUS
 10
7.9151335849
 20
8.4669746686
 11
8.0151335849
 21
8.4669746686
  0
LINE
  5
648
100
AcDbEntity
  8
0
100
AcDbLine
 62
7
  6
CONTINUOUS
 10
13.9604642935
 20
4.1026396292
 11
13.9604642935
 21
6.0317734875
  0
LINE
  5
649
100
AcDbEntity
  8
0
100
AcDbLine
 62
7
  6
CONTINUOUS
 10
13.9683383093
 20
4.0868915977
 11
13.9683383093
 21
4.1026396292
  0
LINE
  5
64A
100
AcDbEntity
  8
0
100
AcDbLine
 62
7
  6
CONTINUOUS
 10
13.9683383093
 20
6.0317734875
 11
13.9683383093
 21
6.047521519
  0
LINE
  5
64B
100
AcDbEntity
  8
0
100
AcDbLine
 62
7
  6
CONTINUOUS
 10
14.9073146872
 20
5.047521519
 11
14.8561335849
 21
5.0072065584
  0
LINE
  5
64C
100
AcDbEntity
  8
0
100
AcDbLine
 62
7
  6
CONTINUOUS
 10
14.4151335849
 20
4.0443246686
 11
14.4151335849
 21
4.0868915977
  0
LINE
  5
64D
100
AcDbEntity
  8
0
100
AcDbLine
 62
7
  6
CONTINUOUS
 10
14.4151335849
 20
6.047521519
 11
14.4151335849
 21
7.8233246686
  0
LINE
  5
64E
100
AcDbEntity
  8
0
100
AcDbLine
 62
7
  6
CONTINUOUS
 10
14.4348737423
 20
4.9472065584
 11
14.4348737423
 21
5.1872065584
  0
LINE
  5
64F
100
AcDbEntity
  8
0
100
AcDbLine
 62
7
  6
CONTINUOUS
 10
14.4151335849
 20
4.0443246686
 11
14.3361335849
 21
3.9653246686
  0
LINE
  5
650
100
AcDbEntity
  8
0
100
AcDbLine
 62
7
  6
CONTINUOUS
 10
14.6848737423
 20
5.0072065584
 11
14.6848737423
 21
5.1272065584
  0
LINE
  5
651
100
AcDbEntity
  8
0
100
AcDbLine
 62
7
  6
CONTINUOUS
 10
14.7018737423
 20
5.0072065584
 11
14.7018737423
 21
5.1272065584
  0
LINE
  5
652
100
AcDbEntity
  8
0
100
AcDbLine
 62
7
  6
CONTINUOUS
 10
14.7380233486
 20
4.1026396292
 11
14.7380233486
 21
4.9472065584
  0
LINE
  5
653
100
AcDbEntity
  8
0
100
AcDbLine
 62
7
  6
CONTINUOUS
 10
14.7380233486
 20
5.1872065584
 11
14.7380233486
 21
6.0317734875
  0
LINE
  5
654
100
AcDbEntity
  8
0
100
AcDbLine
 62
7
  6
CONTINUOUS
 10
14.7458973644
 20
4.0868915977
 11
14.7458973644
 21
4.9472065584
  0
LINE
  5
655
100
AcDbEntity
  8
0
100
AcDbLine
 62
7
  6
CONTINUOUS
 10
14.7458973644
 20
5.1872065584
 11
14.7458973644
 21
6.047521519
  0
LINE
  5
656
100
AcDbEntity
  8
0
100
AcDbLine
 62
7
  6
CONTINUOUS
 10
14.7613304352
 20
4.0868915977
 11
14.7613304352
 21
4.9472065584
  0
LINE
  5
657
100
AcDbEntity
  8
0
100
AcDbLine
 62
7
  6
CONTINUOUS
 10
14.7613304352
 20
5.1872065584
 11
14.7613304352
 21
6.047521519
  0
LINE
  5
658
100
AcDbEntity
  8
0
100
AcDbLine
 62
7
  6
CONTINUOUS
 10
14.7813304352
 20
4.0868915977
 11
14.7813304352
 21
5.0072065584
  0
LINE
  5
659
100
AcDbEntity
  8
0
100
AcDbLine
 62
7
  6
CONTINUOUS
 10
14.7813304352
 20
5.1272065584
 11
14.7813304352
 21
6.047521519
  0
LINE
  5
65A
100
AcDbEntity
  8
0
100
AcDbLine
 62
7
  6
CONTINUOUS
 10
14.8103146872
 20
5.0072065584
 11
14.8103146872
 21
5.1272065584
  0
LINE
  5
65B
100
AcDbEntity
  8
0
100
AcDbLine
 62
7
  6
CONTINUOUS
 10
14.9073146872
 20
5.047521519
 11
14.9073146872
 21
5.0868915977
  0
LINE
  5
65C
100
AcDbEntity
  8
0
100
AcDbLine
 62
7
  6
CONTINUOUS
 10
14.3361335849
 20
7.9023246686
 11
14.4151335849
 21
7.8233246686
  0
CIRCLE
  5
65D
100
AcDbEntity
  8
0
100
AcDbCircle
 62
7
  6
CONTINUOUS
 10
11.8647879778
 20
0.6418595933
 40
0.2171153234
  0
CIRCLE
  5
65E
100
AcDbEntity
  8
0
100
AcDbCircle
 62
7
  6
CONTINUOUS
 10
11.8642255163
 20
0.6411685692
 40
0.1050049063
  0
CIRCLE
  5
65F
100
AcDbEntity
  8
0
100
AcDbCircle
 62
2
  6
CONTINUOUS
 10
0.9659258599
 20
10.6561893149
 40
0.040272
  0
ARC
  5
660
100
AcDbEntity
  8
0
100
AcDbCircle
 62
7
  6
CONTINUOUS
 10
4.3610250051
 20
8.3449746686
 40
0.175
100
AcDbArc
 50
312.5114037779
 51
39.7918194996
  0
ARC
  5
661
100
AcDbEntity
  8
0
100
AcDbCircle
 62
7
  6
CONTINUOUS
 10
4.3610250051
 20
8.3449746686
 40
0.175
100
AcDbArc
 50
140.2081805004
 51
227.4885962221
  0
ARC
  5
662
100
AcDbEntity
  8
0
100
AcDbCircle
 62
7
  6
CONTINUOUS
 10
4.3610250051
 20
8.3449746686
 40
0.1575
100
AcDbArc
 50
131.2029536038
 51
228.7970463962
  0
ARC
  5
663
100
AcDbEntity
  8
0
100
AcDbCircle
 62
7
  6
CONTINUOUS
 10
4.3610250051
 20
8.3449746686
 40
0.1575
100
AcDbArc
 50
311.2029536038
 51
48.7970463962
  0
ARC
  5
664
100
AcDbEntity
  8
0
100
AcDbCircle
 62
7
  6
CONTINUOUS
 10
4.3610250051
 20
3.5240646686
 40
0.109
100
AcDbArc
 50
116.7142570434
 51
159.5968330883
  0
CIRCLE
  5
665
100
AcDbEntity
  8
0
100
AcDbCircle
 62
7
  6
CONTINUOUS
 10
4.3610250051
 20
8.3449746686
 40
0.1025
  0
CIRCLE
  5
666
100
AcDbEntity
  8
0
100
AcDbCircle
 62
7
  6
CONTINUOUS
 10
4.3610250051
 20
3.5240646686
 40
0.0980314961
  0
CIRCLE
  5
667
100
AcDbEntity
  8
0
100
AcDbCircle
 62
7
  6
CONTINUOUS
 10
4.3610250051
 20
8.3449746686
 40
0.0980314961
  0
ARC
  5
668
100
AcDbEntity
  8
0
100
AcDbCircle
 62
7
  6
CONTINUOUS
 10
4.3610250051
 20
3.5240646686
 40
0.0956450842
100
AcDbArc
 50
171.7166074907
 51
188.2833925093
  0
ARC
  5
669
100
AcDbEntity
  8
0
100
AcDbCircle
 62
7
  6
CONTINUOUS
 10
4.3610250051
 20
3.5240646686
 40
0.0956450842
100
AcDbArc
 50
351.7166074907
 51
8.2833925093
  0
ARC
  5
66A
100
AcDbEntity
  8
0
100
AcDbCircle
 62
7
  6
CONTINUOUS
 10
4.3610250051
 20
8.3449746686
 40
0.0956450842
100
AcDbArc
 50
171.7166074907
 51
188.2833925093
  0
ARC
  5
66B
100
AcDbEntity
  8
0
100
AcDbCircle
 62
7
  6
CONTINUOUS
 10
4.3610250051
 20
8.3449746686
 40
0.0956450842
100
AcDbArc
 50
351.7166074907
 51
8.2833925093
  0
ARC
  5
66C
100
AcDbEntity
  8
0
100
AcDbCircle
 62
9
  6
CONTINUOUS
 10
4.3610250051
 20
3.5240646686
 40
0.0947326861
100
AcDbArc
 50
8.3637410249
 51
171.6362589751
  0
ARC
  5
66D
100
AcDbEntity
  8
0
100
AcDbCircle
 62
9
  6
CONTINUOUS
 10
4.3610250051
 20
3.5240646686
 40
0.0947326861
100
AcDbArc
 50
188.3637410249
 51
351.6362589751
  0
ARC
  5
66E
100
AcDbEntity
  8
0
100
AcDbCircle
 62
9
  6
CONTINUOUS
 10
4.3610250051
 20
8.3449746686
 40
0.0947326861
100
AcDbArc
 50
8.3637410249
 51
171.6362589751
  0
ARC
  5
66F
100
AcDbEntity
  8
0
100
AcDbCircle
 62
9
  6
CONTINUOUS
 10
4.3610250051
 20
8.3449746686
 40
0.0947326861
100
AcDbArc
 50
188.3637410249
 51
351.6362589751
  0
ARC
  5
670
100
AcDbEntity
  8
0
100
AcDbCircle
 62
9
  6
CONTINUOUS
 10
4.3610250051
 20
3.5240646686
 40
0.0831967649
100
AcDbArc
 50
9.5335881645
 51
170.4664118355
  0
ARC
  5
671
100
AcDbEntity
  8
0
100
AcDbCircle
 62
9
  6
CONTINUOUS
 10
4.3610250051
 20
3.5240646686
 40
0.0831967649
100
AcDbArc
 50
189.5335881645
 51
350.4664118355
  0
ARC
  5
672
100
AcDbEntity
  8
0
100
AcDbCircle
 62
9
  6
CONTINUOUS
 10
4.3610250051
 20
8.3449746686
 40
0.0831967649
100
AcDbArc
 50
9.5335881645
 51
170.4664118355
  0
ARC
  5
673
100
AcDbEntity
  8
0
100
AcDbCircle
 62
9
  6
CONTINUOUS
 10
4.3610250051
 20
8.3449746686
 40
0.0831967649
100
AcDbArc
 50
189.5335881645
 51
350.4664118355
  0
ARC
  5
674
100
AcDbEntity
  8
0
100
AcDbCircle
 62
7
  6
CONTINUOUS
 10
4.0970250051
 20
8.4369746686
 40
0.02
100
AcDbArc
 50
90.0
 51
180.0
  0
ARC
  5
675
100
AcDbEntity
  8
0
100
AcDbCircle
 62
7
  6
CONTINUOUS
 10
4.0970250051
 20
4.3669746686
 40
0.02
100
AcDbArc
 50
180.0
 51
270.0
  0
ARC
  5
676
100
AcDbEntity
  8
0
100
AcDbCircle
 62
7
  6
CONTINUOUS
 10
4.8250250051
 20
4.3669746686
 40
0.02
100
AcDbArc
 50
270.0
 51
360.0
  0
ARC
  5
677
100
AcDbEntity
  8
0
100
AcDbCircle
 62
7
  6
CONTINUOUS
 10
4.8250250051
 20
8.4369746686
 40
0.02
100
AcDbArc
 50
0.0
 51
90.0
  0
ARC
  5
678
100
AcDbEntity
  8
0
100
AcDbCircle
 62
7
  6
CONTINUOUS
 10
6.1388020849
 20
1.9515346686
 40
2.0259672403
100
AcDbArc
 50
64.2144561714
 51
80.8166891821
  0
ARC
  5
679
100
AcDbEntity
  8
0
100
AcDbCircle
 62
7
  6
CONTINUOUS
 10
7.4851335849
 20
3.721058291
 40
0.45
100
AcDbArc
 50
299.4136378764
 51
360.0
  0
ARC
  5
67A
100
AcDbEntity
  8
0
100
AcDbCircle
 62
7
  6
CONTINUOUS
 10
8.1454534667
 20
3.5240646686
 40
0.3129970472
100
AcDbArc
 50
193.9513989506
 51
195.4149025358
  0
ARC
  5
67B
100
AcDbEntity
  8
0
100
AcDbCircle
 62
7
  6
CONTINUOUS
 10
8.1054534667
 20
8.3449746686
 40
0.312693582
100
AcDbArc
 50
172.9431936381
 51
177.4743180906
  0
ARC
  5
67C
100
AcDbEntity
  8
0
100
AcDbCircle
 62
7
  6
CONTINUOUS
 10
8.1054534667
 20
8.3449746686
 40
0.312693582
100
AcDbArc
 50
182.5256819094
 51
187.0613002831
  0
ARC
  5
67D
100
AcDbEntity
  8
0
100
AcDbCircle
 62
7
  6
CONTINUOUS
 10
6.7240943654
 20
4.4510646686
 40
0.3
100
AcDbArc
 50
227.1665719339
 51
273.746719802
  0
ARC
  5
67E
100
AcDbEntity
  8
0
100
AcDbCircle
 62
7
  6
CONTINUOUS
 10
7.7551335849
 20
3.821780418
 40
0.18
100
AcDbArc
 50
0.0
 51
75.5224878141
  0
CIRCLE
  5
67F
100
AcDbEntity
  8
0
100
AcDbCircle
 62
7
  6
CONTINUOUS
 10
8.6571335849
 20
4.1835246686
 40
0.0625
  0
CIRCLE
  5
680
100
AcDbEntity
  8
0
100
AcDbCircle
 62
7
  6
CONTINUOUS
 10
13.8021335849
 20
7.7173246686
 40
0.0625
  0
CIRCLE
  5
681
100
AcDbEntity
  8
0
100
AcDbCircle
 62
7
  6
CONTINUOUS
 10
8.5371335849
 20
7.6834646686
 40
0.0625
  0
ARC
  5
682
100
AcDbEntity
  8
0
100
AcDbCircle
 62
7
  6
CONTINUOUS
 10
8.2561335849
 20
7.6833246686
 40
0.0492125984
100
AcDbArc
 50
234.4575414182
 51
125.5424585818
  0
CIRCLE
  5
683
100
AcDbEntity
  8
0
100
AcDbCircle
 62
7
  6
CONTINUOUS
 10
8.2561335849
 20
4.1834646686
 40
0.0492125984
  0
CIRCLE
  5
684
100
AcDbEntity
  8
0
100
AcDbCircle
 62
7
  6
CONTINUOUS
 10
7.7631335849
 20
3.8710646686
 40
0.0365
  0
CIRCLE
  5
685
100
AcDbEntity
  8
0
100
AcDbCircle
 62
7
  6
CONTINUOUS
 10
7.7631335849
 20
3.8710646686
 40
0.035
  0
ARC
  5
686
100
AcDbEntity
  8
0
100
AcDbCircle
 62
7
  6
CONTINUOUS
 10
7.1351335849
 20
4.0660646686
 40
0.03
100
AcDbArc
 50
97.6844827598
 51
270.0
  0
ARC
  5
687
100
AcDbEntity
  8
0
100
AcDbCircle
 62
7
  6
CONTINUOUS
 10
7.8588975976
 20
3.4450538387
 40
0.0157480315
100
AcDbArc
 50
195.4149025358
 51
266.69607104
  0
ARC
  5
688
100
AcDbEntity
  8
0
100
AcDbCircle
 62
7
  6
CONTINUOUS
 10
13.9624327974
 20
4.1223246686
 40
0.0078740157
100
AcDbArc
 50
104.4775121859
 51
255.5224878141
  0
ARC
  5
689
100
AcDbEntity
  8
0
100
AcDbCircle
 62
7
  6
CONTINUOUS
 10
13.9624327974
 20
6.0120884481
 40
0.0078740157
100
AcDbArc
 50
104.4775121859
 51
255.5224878141
  0
SPLINE
  5
68A
100
AcDbEntity
  8
0
100
AcDbSpline
 62
7
  6
CONTINUOUS
 70
0
 71
3
 72
15
 73
11
 74
0
 42
0.0000001
 43
0.0000001
 44
0.0000000001
 40
0.0
 40
0.0
 40
0.0
 40
0.0
 40
0.1304723015
 40
0.2590921437
 40
0.3859169256
 40
0.5110656059
 40
0.6347340468
 40
0.7572038357
 40
0.8788291616
 40
1.0
 40
1.0
 40
1.0
 40
1.0
 10
8.1641667207
 20
7.634205515
 30
0.0
 10
8.1646269803
 20
7.6332869285
 30
0.0
 10
8.1655050386
 20
7.631444458
 30
0.0
 10
8.166689415
 20
7.6286445528
 30
0.0
 10
8.1677191016
 20
7.6258284382
 30
0.0
 10
8.168582346
 20
7.6229974069
 30
0.0
 10
8.1692672085
 20
7.6201530326
 30
0.0
 10
8.1697646581
 20
7.617297851
 30
0.0
 10
8.1700658993
 20
7.6144351067
 30
0.0
 10
8.1701335849
 20
7.612522477
 30
0.0
 10
8.1701335849
 20
7.6115682806
 30
0.0
  0
SPLINE
  5
68B
100
AcDbEntity
  8
0
100
AcDbSpline
 62
7
  6
CONTINUOUS
 70
0
 71
3
 72
15
 73
11
 74
0
 42
0.0000001
 43
0.0000001
 44
0.0000000001
 40
0.0
 40
0.0
 40
0.0
 40
0.0
 40
0.1211708384
 40
0.2427961643
 40
0.3652659532
 40
0.4889343941
 40
0.6140830744
 40
0.7409078563
 40
0.8695276985
 40
1.0
 40
1.0
 40
1.0
 40
1.0
 10
8.1701335849
 20
7.6115682806
 30
0.0
 10
8.1701335849
 20
7.6106140843
 30
0.0
 10
8.1700658993
 20
7.6087014546
 30
0.0
 10
8.1697646581
 20
7.6058387103
 30
0.0
 10
8.1692672085
 20
7.6029835287
 30
0.0
 10
8.168582346
 20
7.6001391543
 30
0.0
 10
8.1677191016
 20
7.5973081231
 30
0.0
 10
8.166689415
 20
7.5944920085
 30
0.0
 10
8.1655050386
 20
7.5916921033
 30
0.0
 10
8.1646269803
 20
7.5898496328
 30
0.0
 10
8.1641667207
 20
7.5889310463
 30
0.0
  0
SPLINE
  5
68C
100
AcDbEntity
  8
0
100
AcDbSpline
 62
7
  6
CONTINUOUS
 70
0
 71
3
 72
11
 73
7
 74
0
 42
0.0000001
 43
0.0000001
 44
0.0000000001
 40
0.0
 40
0.0
 40
0.0
 40
0.0
 40
0.2500019602
 40
0.5000020727
 40
0.7500006852
 40
1.0
 40
1.0
 40
1.0
 40
1.0
 10
8.1641667207
 20
7.7382491373
 30
0.0
 10
8.1650937516
 20
7.734548799
 30
0.0
 10
8.166774709
 20
7.7271030352
 30
0.0
 10
8.1686761448
 20
7.7158114103
 30
0.0
 10
8.1698639
 20
7.7044212377
 30
0.0
 10
8.1701335849
 20
7.6967893221
 30
0.0
 10
8.1701335849
 20
7.6929746686
 30
0.0
  0
SPLINE
  5
68D
100
AcDbEntity
  8
0
100
AcDbSpline
 62
7
  6
CONTINUOUS
 70
0
 71
3
 72
11
 73
7
 74
0
 42
0.0000001
 43
0.0000001
 44
0.0000000001
 40
0.0
 40
0.0
 40
0.0
 40
0.0
 40
0.2499993148
 40
0.4999979273
 40
0.7499980398
 40
1.0
 40
1.0
 40
1.0
 40
1.0
 10
8.1701335849
 20
7.6929746686
 30
0.0
 10
8.1701335849
 20
7.6891600151
 30
0.0
 10
8.1698639
 20
7.6815280995
 30
0.0
 10
8.1686761448
 20
7.6701379269
 30
0.0
 10
8.166774709
 20
7.658846302
 30
0.0
 10
8.1650937516
 20
7.6514005382
 30
0.0
 10
8.1641667207
 20
7.6477001999
 30
0.0
  0
SPLINE
  5
68E
100
AcDbEntity
  8
0
100
AcDbSpline
 62
7
  6
CONTINUOUS
 70
0
 71
3
 72
15
 73
11
 74
0
 42
0.0000001
 43
0.0000001
 44
0.0000000001
 40
0.0
 40
0.0
 40
0.0
 40
0.0
 40
0.1211708384
 40
0.2427961643
 40
0.3652659532
 40
0.4889343941
 40
0.6140830744
 40
0.7409078563
 40
0.8695276985
 40
1.0
 40
1.0
 40
1.0
 40
1.0
 10
8.1701335849
 20
7.7743810566
 30
0.0
 10
8.1701335849
 20
7.7734268602
 30
0.0
 10
8.1700658993
 20
7.7715142305
 30
0.0
 10
8.1697646581
 20
7.7686514862
 30
0.0
 10
8.1692672085
 20
7.7657963046
 30
0.0
 10
8.168582346
 20
7.7629519303
 30
0.0
 10
8.1677191016
 20
7.760120899
 30
0.0
 10
8.166689415
 20
7.7573047844
 30
0.0
 10
8.1655050386
 20
7.7545048792
 30
0.0
 10
8.1646269803
 20
7.7526624087
 30
0.0
 10
8.1641667207
 20
7.7517438222
 30
0.0
  0
SPLINE
  5
68F
100
AcDbEntity
  8
0
100
AcDbSpline
 62
7
  6
CONTINUOUS
 70
0
 71
3
 72
15
 73
11
 74
0
 42
0.0000001
 43
0.0000001
 44
0.0000000001
 40
0.0
 40
0.0
 40
0.0
 40
0.0
 40
0.1304723015
 40
0.2590921437
 40
0.3859169256
 40
0.5110656059
 40
0.6347340468
 40
0.7572038357
 40
0.8788291616
 40
1.0
 40
1.0
 40
1.0
 40
1.0
 10
8.1641667207
 20
7.7970182909
 30
0.0
 10
8.1646269803
 20
7.7960997044
 30
0.0
 10
8.1655050386
 20
7.7942572339
 30
0.0
 10
8.166689415
 20
7.7914573287
 30
0.0
 10
8.1677191016
 20
7.7886412141
 30
0.0
 10
8.168582346
 20
7.7858101828
 30
0.0
 10
8.1692672085
 20
7.7829658085
 30
0.0
 10
8.1697646581
 20
7.7801106269
 30
0.0
 10
8.1700658993
 20
7.7772478826
 30
0.0
 10
8.1701335849
 20
7.7753352529
 30
0.0
 10
8.1701335849
 20
7.7743810566
 30
0.0
  0
SPLINE
  5
690
100
AcDbEntity
  8
0
100
AcDbSpline
 62
7
  6
CONTINUOUS
 70
0
 71
3
 72
9
 73
5
 74
0
 42
0.0000001
 43
0.0000001
 44
0.0000000001
 40
0.0
 40
0.0
 40
0.0
 40
0.0
 40
0.499247149
 40
1.0
 40
1.0
 40
1.0
 40
1.0
 10
7.9651335849
 20
7.5451337969
 30
0.0
 10
7.9666451345
 20
7.5454037103
 30
0.0
 10
7.9697225053
 20
7.5456886765
 30
0.0
 10
7.972806302
 20
7.5454903468
 30
0.0
 10
7.9743298083
 20
7.5452649437
 30
0.0
  0
SPLINE
  5
691
100
AcDbEntity
  8
0
100
AcDbSpline
 62
7
  6
CONTINUOUS
 70
0
 71
3
 72
9
 73
5
 74
0
 42
0.0000001
 43
0.0000001
 44
0.0000000001
 40
0.0
 40
0.0
 40
0.0
 40
0.0
 40
0.5007594246
 40
1.0
 40
1.0
 40
1.0
 40
1.0
 10
7.9743298083
 20
4.4646843935
 30
0.0
 10
7.972806282
 20
4.4644589874
 30
0.0
 10
7.9697224846
 20
4.464260661
 30
0.0
 10
7.9666451146
 20
4.4645456304
 30
0.0
 10
7.9651335849
 20
4.4648155403
 30
0.0
  0
ELLIPSE
  5
692
100
AcDbEntity
  8
0
100
AcDbEllipse
 62
7
  6
CONTINUOUS
 10
7.7431913432
 20
4.5099746686
 30
0.0
 11
0.3523928353
 21
0.0
 31
0.0
 40
0.1702645287
 41
-0.8554069754
 42
-0.8485945703
  0
ELLIPSE
  5
693
100
AcDbEntity
  8
0
100
AcDbEllipse
 62
7
  6
CONTINUOUS
 10
7.7431913432
 20
7.4999746686
 30
0.0
 11
0.3523928353
 21
0.0
 31
0.0
 40
0.1702645287
 41
0.8485945701
 42
0.8554069754
  0
ENDSEC
  0
SECTION
  2
OBJECTS
  0
DICTIONARY
  5
C
100
AcDbDictionary
280
0
281
1
  3
ACAD_GROUP
350
D
  3
ACAD_MLINESTYLE
350
17
  3
ACAD_LAYOUT
350
1A
  3
ACAD_PLOTSETTINGS
350
19
  3
ACAD_PLOTSTYLENAME
350
E
  3
ACAD_TABLESTYLE
350
       694
  0
DICTIONARY
  5
D
102
{ACAD_REACTORS
330
C
102
}
100
AcDbDictionary
280
0
281
1
  0
ACDBDICTIONARYWDFLT
  5
E
102
{ACAD_REACTORS
330
C
102
}
100
AcDbDictionary
281
1
  3
Normal
350
F
100
AcDbDictionaryWithDefault
340
F
  0
DICTIONARY
  5
17
102
{ACAD_REACTORS
330
C
102
}
100
AcDbDictionary
280
0
281
1
  3
Standard
350
18
  0
DICTIONARY
  5
694
330
C
100
AcDbDictionary
281
1
  3
Standard
350
       697
  3
Standard1
350
       698
  0
DICTIONARY
  5
19
102
{ACAD_REACTORS
330
C
102
}
100
AcDbDictionary
281
1
  0
DICTIONARY
  5
1A
102
{ACAD_REACTORS
330
C
102
}
100
AcDbDictionary
281
1
  3
Model
350
695
  3
Layout1
350
696
  0
ACDBPLACEHOLDER
  5
F
102
{ACAD_REACTORS
330
E
102
}
  0
MLINESTYLE
  5
18
102
{ACAD_REACTORS
330
17
102
}
100
AcDbMlineStyle
  2
STANDARD
 70
0
  3

 62
256
 51
90.0
 52
90.0
 71
2
 49
0.5
 62
256
  6
BYLAYER
 49
-0.5
 62
256
  6
BYLAYER
  0
LAYOUT
  5
695
102
{ACAD_REACTORS
330
1A
102
}
100
AcDbPlotSettings
  1

  2
none_device
  4
ANSI_B_(17.00_x_11.00_Inches)
  6

 40
0.0
 41
0.0
 42
0.0
 43
0.0
 44
431.8
 45
279.4
 46
0.0
 47
0.0
 48
0.0
 49
0.0
140
0.0
141
0.0
142
1.0
143
1.0
 70
1024
 72
0
 73
0
 74
0
  7

 75
0
147
1.0
148
0.0
149
0.0
100
AcDbLayout
  1
Model
 70
0
 71
0
 10
0.0
 20
0.0
 11
17.0
 21
11.0
 12
0.0
 22
0.0
 32
0.0
 14
0.0
 24
0.0
 34
0.0
 15
0.0
 25
0.0
 35
0.0
146
0.0
 13
0.0
 23
0.0
 33
0.0
 16
1.0
 26
0.0
 36
0.0
 17
0.0
 27
1.0
 37
0.0
 76
0
330
213
345
0
346
0
  0
LAYOUT
  5
696
102
{ACAD_REACTORS
330
1A
102
}
100
AcDbPlotSettings
  1

  2
none_device
  4
ANSI_B_(17.00_x_11.00_Inches)
  6

 40
0.0
 41
0.0
 42
0.0
 43
0.0
 44
431.8
 45
279.4
 46
0.0
 47
0.0
 48
0.0
 49
0.0
140
0.0
141
0.0
142
1.0
143
1.0
 70
0
 72
0
 73
0
 74
0
  7

 75
0
147
1.0
148
0.0
149
0.0
100
AcDbLayout
  1
Layout1
 70
0
 71
1
 10
0.0
 20
0.0
 11
17.0
 21
11.0
 12
0.0
 22
0.0
 32
0.0
 14
0.0
 24
0.0
 34
0.0
 15
0.0
 25
0.0
 35
0.0
146
0.0
 13
0.0
 23
0.0
 33
0.0
 16
1.0
 26
0.0
 36
0.0
 17
0.0
 27
1.0
 37
0.0
 76
0
330
214
345
0
346
0
  0
TABLESTYLE
  5
697
102
{ACAD_REACTORS
330
694
330
2CC
330
2CD
330
2CE
102
}
330
694
100
AcDbTableStyle
  3
Standard
 70
0
 71
0
 40
0.06
 41
0.06
280
1
281
1
  7
Standard
140
0.18
170
1
 62
0
 63
7
283
0
  7
Standard
140
0.18
170
1
 62
0
 63
7
283
0
  7
Standard
140
0.18
170
1
 62
0
 63
7
283
0
  0
TABLESTYLE
  5
698
102
{ACAD_REACTORS
330
694
102
}
330
694
100
AcDbTableStyle
  3
Standard1
 70
1
 71
0
 40
0.06
 41
0.06
280
1
281
1
  7
Standard
140
0.18
170
1
 62
0
 63
7
283
0
  7
Standard
140
0.18
170
1
 62
0
 63
7
283
0
  7
Standard
140
0.18
170
1
 62
0
 63
7
283
0
  0
ENDSEC
  0
EOF
