999
DXF file: C:\Users\jjorden\Desktop\cu_ism-7413.dxf
999
Pro/ENGINEER 2021063 by Parametric Technology Corporation
  0
SECTION
  2
HEADER
  9
$ACADVER
  1
AC1032
  9
$DWGCODEPAGE
  3
ANSI_1252
  9
$EXTMAX
 10
34.0
 20
22.0
 30
0.0
  9
$EXTMIN
 10
0.0
 20
0.0
 30
0.0
  9
$LIMMIN
 10
0.0
 20
0.0
  9
$LIMMAX
 10
34.0
 20
22.0
  9
$VIEWCTR
 10
17.0
 20
11.0
  9
$VIEWSIZE
 40
22.0
  9
$CLAYER
  8
0
  9
$LTSCALE
 40
1.87
  9
$CELTYPE
  6
BYLAYER
  9
$DIMSCALE
 40
1.0
  9
$DIMASZ
 40
0.18
  9
$DIMEXO
 40
0.0625
  9
$DIMDLI
 40
1.292
  9
$DIMEXE
 40
0.125
  9
$DIMCEN
 40
0.306
  9
$DIMLFAC
 40
1.0
  9
$DIMBLK
  1
_FILLED
  9
$DIMALT
 70
1
  9
$DIMALTD
 70
1
  9
$DIMALTTD
 70
2
  9
$DIMALTF
 40
25.4
  9
$DIMTXT
 40
0.125
  9
$DIMTOL
 70
1
  9
$DIMLIM
 70
0
  9
$DIMTFAC
 40
1.0
  9
$DIMTP
 40
0.02
  9
$DIMTM
 40
0.02
  9
$DIMGAP
 40
0.09
  9
$DIMDSEP
 70
46
  9
$AUNITS
 70
0
  9
$PDMODE
 70
3
  9
$PDSIZE
 40
0.3125
  9
$HANDSEED
  5
814
  9
$TILEMODE
 70
1
  9
$MEASUREMENT
 70
0
  9
$INSUNITS
 70
1
  0
ENDSEC
  0
SECTION
  2
CLASSES
  0
CLASS
  1
ACDBDICTIONARYWDFLT
  2
AcDbDictionaryWithDefault
  3
AutoCAD 2000
 90
0
 91
1
280
0
281
0
  0
CLASS
  1
ACDBPLACEHOLDER
  2
AcDbPlaceHolder
  3
AutoCAD 2000
 90
0
 91
1
280
0
281
0
  0
CLASS
  1
LAYOUT
  2
AcDbLayout
  3
AutoCAD 2000
 90
0
 91
0
280
0
281
0
  0
CLASS
  1
TABLESTYLE
  2
AcDbTableStyle
  3
ObjectDBX Classes
 90
2047
 91
1
280
0
281
0
  0
CLASS
  1
ACAD_TABLE
  2
AcDbTable
  3
ObjectDBX Classes
 90
1025
 91
6
280
0
281
1
  0
ENDSEC
  0
SECTION
  2
TABLES
  0
TABLE
  2
VPORT
  5
8
100
AcDbSymbolTable
 70
2
  0
VPORT
  5
1F4
100
AcDbSymbolTableRecord
100
AcDbViewportTableRecord
  2
*ACTIVE
 70
0
 10
0.0
 20
0.0
 11
1.0
 21
1.0
 12
17.0
 22
11.0
 13
0.0
 23
0.0
 14
1.0
 24
1.0
 15
0.0
 25
0.0
 16
0.0
 26
0.0
 36
1.0
 17
0.0
 27
0.0
 37
0.0
 40
22.0
 41
1.5454545455
 42
50.0
 43
0.0
 44
0.0
 50
0.0
 51
0.0
 71
0
 72
100
 73
1
 74
1
 75
0
 76
0
 77
0
 78
0
  0
ENDTAB
  0
TABLE
  2
LTYPE
  5
5
100
AcDbSymbolTable
 70
6
  0
LTYPE
  5
14
100
AcDbSymbolTableRecord
100
AcDbLinetypeTableRecord
  2
BYBLOCK
 70
0
  3

 72
65
 73
0
 40
0.0
  0
LTYPE
  5
15
100
AcDbSymbolTableRecord
100
AcDbLinetypeTableRecord
  2
BYLAYER
 70
0
  3

 72
65
 73
0
 40
0.0
  0
LTYPE
  5
16
100
AcDbSymbolTableRecord
100
AcDbLinetypeTableRecord
  2
CONTINUOUS
 70
64
  3
Solid line
 72
65
 73
0
 40
0.0
  0
LTYPE
  5
1F5
100
AcDbSymbolTableRecord
100
AcDbLinetypeTableRecord
  2
CENTER
 70
64
  3
____ _ ____ _ ____ _ ____ _ ____ _ ____ _ ____
 72
65
 73
4
 40
0.6
 49
0.375
 74
0
 49
-0.075
 74
0
 49
0.075
 74
0
 49
-0.075
 74
0
  0
LTYPE
  5
1F6
100
AcDbSymbolTableRecord
100
AcDbLinetypeTableRecord
  2
HIDDEN
 70
64
  3
- - - - - - - - - - - - - - - - - - - -
 72
65
 73
2
 40
0.2
 49
0.1
 74
0
 49
-0.1
 74
0
  0
LTYPE
  5
1F7
100
AcDbSymbolTableRecord
100
AcDbLinetypeTableRecord
  2
PHANTOM
 70
64
  3
_____ _ _ _____ _ _ _____ _ _ _____
 72
65
 73
6
 40
0.8
 49
0.45
 74
0
 49
-0.05
 74
0
 49
0.1
 74
0
 49
-0.05
 74
0
 49
0.1
 74
0
 49
-0.05
 74
0
  0
LTYPE
  5
1F8
100
AcDbSymbolTableRecord
100
AcDbLinetypeTableRecord
  2
DOT
 70
64
  3
. . . . . . . . . . . . . . . . . . . .
 72
65
 73
2
 40
0.2
 49
0.1
 74
0
 49
-0.1
 74
0
  0
LTYPE
  5
1F9
100
AcDbSymbolTableRecord
100
AcDbLinetypeTableRecord
  2
DASHED
 70
64
  3
- - - - - - - - - - - - - - - - - - - -
 72
65
 73
2
 40
0.2
 49
0.1
 74
0
 49
-0.1
 74
0
  0
ENDTAB
  0
TABLE
  2
LAYER
  5
2
100
AcDbSymbolTable
 70
36
  0
LAYER
  5
10
100
AcDbSymbolTableRecord
100
AcDbLayerTableRecord
  2
0
 70
0
 62
7
  6
CONTINUOUS
370
-3
390
F
  0
LAYER
  5
1FA
100
AcDbSymbolTableRecord
100
AcDbLayerTableRecord
  2
DEFAULT_1
 70
0
 62
7
  6
CENTER
370
-3
390
F
  0
LAYER
  5
1FB
100
AcDbSymbolTableRecord
100
AcDbLayerTableRecord
  2
DEFAULT_2
 70
0
 62
8
  6
HIDDEN
370
-3
390
F
  0
LAYER
  5
1FC
100
AcDbSymbolTableRecord
100
AcDbLayerTableRecord
  2
DEFAULT_3
 70
0
 62
7
  6
PHANTOM
370
-3
390
F
  0
LAYER
  5
1FD
100
AcDbSymbolTableRecord
100
AcDbLayerTableRecord
  2
COOR_SYS
 70
0
 62
7
  6
CONTINUOUS
370
-3
390
F
  0
LAYER
  5
1FE
100
AcDbSymbolTableRecord
100
AcDbLayerTableRecord
  2
DETAIL
 70
0
 62
7
  6
CONTINUOUS
370
-3
390
F
  0
LAYER
  5
1FF
100
AcDbSymbolTableRecord
100
AcDbLayerTableRecord
  2
DIMENSIONS
 70
0
 62
7
  6
CONTINUOUS
370
-3
390
F
  0
LAYER
  5
200
100
AcDbSymbolTableRecord
100
AcDbLayerTableRecord
  2
NOTE
 70
0
 62
7
  6
CONTINUOUS
370
-3
390
F
  0
ENDTAB
  0
TABLE
  2
STYLE
  5
3
100
AcDbSymbolTable
 70
1
  0
STYLE
  5
11
100
AcDbSymbolTableRecord
100
AcDbTextStyleTableRecord
  2
STANDARD
 70
0
 40
0.0
 41
0.8
 50
0.0
 71
0
 42
0.2
  3
txt
  4

  0
STYLE
  5
201
100
AcDbSymbolTableRecord
100
AcDbTextStyleTableRecord
  2
TEXTSTYLE_1
 70
0
 40
0.0
 41
0.8
 50
0.0
 71
0
 42
0.2
  3
gdt
  4

  0
STYLE
  5
202
100
AcDbSymbolTableRecord
100
AcDbTextStyleTableRecord
  2
TEXTSTYLE_2
 70
0
 40
0.0
 41
1.0
 50
0.0
 71
0
 42
0.2
  3
txt
  4

  0
STYLE
  5
203
100
AcDbSymbolTableRecord
100
AcDbTextStyleTableRecord
  2
TEXTSTYLE_3
 70
0
 40
0.0
 41
0.9
 50
0.0
 71
0
 42
0.2
  3
txt
  4

  0
ENDTAB
  0
TABLE
  2
VIEW
  5
6
100
AcDbSymbolTable
 70
0
  0
ENDTAB
  0
TABLE
  2
UCS
  5
7
100
AcDbSymbolTable
 70
0
  0
ENDTAB
  0
TABLE
  2
APPID
  5
9
100
AcDbSymbolTable
 70
1
  0
APPID
  5
204
100
AcDbSymbolTableRecord
100
AcDbRegAppTableRecord
  2
ACAD
 70
0
  0
ENDTAB
  0
TABLE
  2
BLOCK_RECORD
  5
1
100
AcDbSymbolTable
 70
0
  0
BLOCK_RECORD
  5
205
100
AcDbSymbolTableRecord
100
AcDbBlockTableRecord
  2
*Model_Space
  0
BLOCK_RECORD
  5
206
100
AcDbSymbolTableRecord
100
AcDbBlockTableRecord
  2
*Paper_Space
  0
BLOCK_RECORD
  5
207
100
AcDbSymbolTableRecord
100
AcDbBlockTableRecord
  2
_FILLED
  0
BLOCK_RECORD
  5
208
100
AcDbSymbolTableRecord
100
AcDbBlockTableRecord
  2
*D0
  0
BLOCK_RECORD
  5
209
100
AcDbSymbolTableRecord
100
AcDbBlockTableRecord
  2
*D1
  0
BLOCK_RECORD
  5
20A
100
AcDbSymbolTableRecord
100
AcDbBlockTableRecord
  2
*D2
  0
BLOCK_RECORD
  5
20B
100
AcDbSymbolTableRecord
100
AcDbBlockTableRecord
  2
*D3
  0
BLOCK_RECORD
  5
20C
100
AcDbSymbolTableRecord
100
AcDbBlockTableRecord
  2
*D4
  0
BLOCK_RECORD
  5
20D
100
AcDbSymbolTableRecord
100
AcDbBlockTableRecord
  2
*D5
  0
BLOCK_RECORD
  5
20E
100
AcDbSymbolTableRecord
100
AcDbBlockTableRecord
  2
*D6
  0
BLOCK_RECORD
  5
20F
100
AcDbSymbolTableRecord
100
AcDbBlockTableRecord
  2
*D7
  0
BLOCK_RECORD
  5
210
100
AcDbSymbolTableRecord
100
AcDbBlockTableRecord
  2
*D8
  0
BLOCK_RECORD
  5
211
100
AcDbSymbolTableRecord
100
AcDbBlockTableRecord
  2
*D9
  0
BLOCK_RECORD
  5
212
100
AcDbSymbolTableRecord
100
AcDbBlockTableRecord
  2
*D10
  0
BLOCK_RECORD
  5
213
100
AcDbSymbolTableRecord
100
AcDbBlockTableRecord
  2
*D11
  0
BLOCK_RECORD
  5
214
100
AcDbSymbolTableRecord
100
AcDbBlockTableRecord
  2
*D12
  0
BLOCK_RECORD
  5
215
100
AcDbSymbolTableRecord
100
AcDbBlockTableRecord
  2
*D13
  0
BLOCK_RECORD
  5
216
100
AcDbSymbolTableRecord
100
AcDbBlockTableRecord
  2
*D14
  0
BLOCK_RECORD
  5
217
100
AcDbSymbolTableRecord
100
AcDbBlockTableRecord
  2
*D15
  0
BLOCK_RECORD
  5
218
100
AcDbSymbolTableRecord
100
AcDbBlockTableRecord
  2
CUSTOM_NOTE_BL5
  0
BLOCK_RECORD
  5
219
100
AcDbSymbolTableRecord
100
AcDbBlockTableRecord
  2
CUSTOM_NOTE_BL4
  0
BLOCK_RECORD
  5
21A
100
AcDbSymbolTableRecord
100
AcDbBlockTableRecord
  2
CUSTOM_NOTE_BL3
  0
BLOCK_RECORD
  5
21B
100
AcDbSymbolTableRecord
100
AcDbBlockTableRecord
  2
NOTES_HEADER_BL2
  0
BLOCK_RECORD
  5
21C
100
AcDbSymbolTableRecord
100
AcDbBlockTableRecord
  2
METRIC_BL1
  0
BLOCK_RECORD
  5
21D
100
AcDbSymbolTableRecord
100
AcDbBlockTableRecord
  2
CUSTOM_NOTE_BL0
  0
BLOCK_RECORD
  5
21E
100
AcDbSymbolTableRecord
100
AcDbBlockTableRecord
  2
*T1
  0
BLOCK_RECORD
  5
21F
100
AcDbSymbolTableRecord
100
AcDbBlockTableRecord
  2
*T2
  0
BLOCK_RECORD
  5
220
100
AcDbSymbolTableRecord
100
AcDbBlockTableRecord
  2
*T3
  0
BLOCK_RECORD
  5
221
100
AcDbSymbolTableRecord
100
AcDbBlockTableRecord
  2
*T4
  0
BLOCK_RECORD
  5
222
100
AcDbSymbolTableRecord
100
AcDbBlockTableRecord
  2
*T5
  0
BLOCK_RECORD
  5
223
100
AcDbSymbolTableRecord
100
AcDbBlockTableRecord
  2
*T6
  0
ENDTAB
  0
TABLE
  2
DIMSTYLE
  5
A
100
AcDbSymbolTable
 70
1
100
AcDbDimStyleTable
 71
0
  0
DIMSTYLE
105
224
100
AcDbSymbolTableRecord
100
AcDbDimStyleTableRecord
  2
STANDARD
 70
0
  3

  4

 40
1.0
 41
0.18
 42
0.0625
 43
0.38
 44
0.125
 45
0.0
 46
0.0
 47
0.02
 48
0.02
140
0.125
141
0.09
142
0.0
143
1.0
144
1.0
145
0.0
146
1.0
147
0.09
 71
1
 72
0
 73
1
 74
1
 75
0
 76
0
 77
0
 78
8
 79
2
170
1
171
1
172
0
173
0
174
0
175
0
176
0
177
0
178
0
270
2
179
2
271
2
272
2
273
2
274
2
275
0
280
0
281
0
282
0
283
1
284
8
285
0
286
0
287
3
288
0
340
11
278
46
341
207
342
207
343
207
344
207
  0
DIMSTYLE
105
225
100
AcDbSymbolTableRecord
100
AcDbDimStyleTableRecord
  2
DIMSTYLE_1
 70
0
  3

  4

 40
1.0
 41
0.18
 42
0.0625
 43
0.38
 44
0.125
 45
0.0
 46
0.0
 47
0.2
 48
0.2
140
0.125
141
0.09
142
0.0
143
1.0
144
1.0
145
0.0
146
1.0
147
0.0625
 71
1
 72
0
 73
1
 74
1
 75
0
 76
0
 77
0
 78
8
 79
2
170
1
171
3
172
0
173
0
174
0
175
0
176
0
177
0
178
0
270
2
179
2
271
2
272
2
273
2
274
3
275
0
280
0
281
0
282
0
283
1
284
8
285
0
286
0
287
3
288
0
340
11
278
46
341
207
342
207
343
207
344
207
  0
DIMSTYLE
105
226
100
AcDbSymbolTableRecord
100
AcDbDimStyleTableRecord
  2
DIMSTYLE_2
 70
0
  3

  4

 40
1.0
 41
0.18
 42
0.0625
 43
0.38
 44
0.125
 45
0.0
 46
0.0
 47
1.0
 48
1.0
140
0.125
141
0.09
142
0.0
143
1.0
144
1.0
145
0.0
146
1.0
147
0.0625
 71
0
 72
0
 73
1
 74
1
 75
0
 76
0
 77
0
 78
8
 79
2
170
1
171
2
172
0
173
0
174
0
175
0
176
0
177
0
178
0
270
2
179
2
271
1
272
1
273
2
274
2
275
0
280
0
281
0
282
0
283
1
284
8
285
0
286
0
287
3
288
0
340
11
278
46
341
207
342
207
343
207
344
207
  0
DIMSTYLE
105
227
100
AcDbSymbolTableRecord
100
AcDbDimStyleTableRecord
  2
DIMSTYLE_3
 70
0
  3
<>
  4

 40
1.0
 41
0.18
 42
0.0625
 43
0.38
 44
0.125
 45
0.0
 46
0.0
 47
0.5
 48
0.5
140
0.125
141
0.09
142
0.0
143
1.0
144
1.0
145
0.0
146
1.0
147
0.09
 71
1
 72
0
 73
1
 74
1
 75
0
 76
0
 77
0
 78
8
 79
2
170
1
171
2
172
0
173
0
174
0
175
0
176
0
177
0
178
0
270
2
179
2
271
1
272
1
273
2
274
2
275
0
280
0
281
0
282
0
283
1
284
8
285
0
286
0
287
3
288
1
340
11
278
46
289
1
341
207
342
207
343
207
344
207
  0
DIMSTYLE
105
228
100
AcDbSymbolTableRecord
100
AcDbDimStyleTableRecord
  2
DIMSTYLE_4
 70
0
  3
<>
  4

 40
1.0
 41
0.18
 42
0.0625
 43
0.38
 44
0.125
 45
0.0
 46
0.0
 47
0.3
 48
0.0
140
0.125
141
0.09
142
0.0
143
1.0
144
1.0
145
0.0
146
1.0
147
0.09
 71
1
 72
0
 73
1
 74
1
 75
0
 76
0
 77
0
 78
8
 79
2
170
1
171
2
172
0
173
0
174
0
175
0
176
0
177
0
178
0
270
2
179
2
271
1
272
1
273
2
274
2
275
0
280
0
281
0
282
0
283
1
284
8
285
0
286
0
287
3
288
1
340
11
278
46
289
1
341
207
342
207
343
207
344
207
  0
DIMSTYLE
105
229
100
AcDbSymbolTableRecord
100
AcDbDimStyleTableRecord
  2
DIMSTYLE_5
 70
0
  3

  4

 40
1.0
 41
0.18
 42
0.0625
 43
0.38
 44
0.125
 45
0.0
 46
0.0
 47
0.1
 48
0.1
140
0.125
141
0.09
142
0.0
143
1.0
144
1.0
145
0.0
146
1.0
147
0.0625
 71
1
 72
0
 73
1
 74
1
 75
0
 76
0
 77
0
 78
8
 79
2
170
1
171
3
172
0
173
0
174
0
175
0
176
0
177
0
178
0
270
2
179
2
271
2
272
2
273
2
274
3
275
0
280
0
281
0
282
0
283
1
284
8
285
0
286
0
287
3
288
0
340
11
278
46
341
207
342
207
343
207
344
207
  0
DIMSTYLE
105
22A
100
AcDbSymbolTableRecord
100
AcDbDimStyleTableRecord
  2
DIMSTYLE_6
 70
0
  3

  4

 40
1.0
 41
0.18
 42
0.0625
 43
0.38
 44
0.125
 45
0.0
 46
0.0
 47
0.0
 48
-0.013
140
0.125
141
0.09
142
0.0
143
1.0
144
1.0
145
0.0
146
1.0
147
0.0625
 71
1
 72
0
 73
1
 74
1
 75
0
 76
0
 77
0
 78
8
 79
2
170
1
171
2
172
0
173
0
174
0
175
0
176
0
177
0
178
0
270
2
179
2
271
1
272
3
273
2
274
4
275
0
280
0
281
0
282
0
283
1
284
8
285
0
286
0
287
3
288
0
340
11
278
46
341
207
342
207
343
207
344
207
  0
DIMSTYLE
105
22B
100
AcDbSymbolTableRecord
100
AcDbDimStyleTableRecord
  2
DIMSTYLE_7
 70
0
  3

  4

 40
1.0
 41
0.18
 42
0.0625
 43
0.38
 44
0.125
 45
0.0
 46
0.0
 47
0.5
 48
0.5
140
0.125
141
0.09
142
0.0
143
1.0
144
1.0
145
0.0
146
1.0
147
0.0625
 71
1
 72
0
 73
1
 74
1
 75
0
 76
0
 77
0
 78
8
 79
2
170
1
171
2
172
0
173
0
174
0
175
0
176
0
177
0
178
0
270
2
179
2
271
1
272
1
273
2
274
2
275
0
280
0
281
0
282
0
283
1
284
8
285
0
286
0
287
3
288
0
340
11
278
46
341
207
342
207
343
207
344
207
  0
DIMSTYLE
105
22C
100
AcDbSymbolTableRecord
100
AcDbDimStyleTableRecord
  2
DIMSTYLE_8
 70
0
  3

  4

 40
1.0
 41
0.18
 42
0.0625
 43
0.38
 44
0.125
 45
0.0
 46
0.0
 47
1.0
 48
1.0
140
0.125
141
0.09
142
0.0
143
1.0
144
1.0
145
0.0
146
1.0
147
0.0625
 71
1
 72
0
 73
1
 74
1
 75
0
 76
0
 77
0
 78
8
 79
2
170
1
171
2
172
0
173
0
174
0
175
0
176
0
177
0
178
0
270
2
179
2
271
1
272
1
273
2
274
2
275
0
280
0
281
0
282
0
283
1
284
8
285
0
286
0
287
3
288
0
340
11
278
46
341
207
342
207
343
207
344
207
  0
DIMSTYLE
105
22D
100
AcDbSymbolTableRecord
100
AcDbDimStyleTableRecord
  2
DIMSTYLE_9
 70
0
  3

  4

 40
1.0
 41
0.18
 42
0.0625
 43
0.38
 44
0.125
 45
0.0
 46
0.0
 47
0.2
 48
0.2
140
0.125
141
0.09
142
0.0
143
1.0
144
1.0
145
0.0
146
1.0
147
0.0625
 71
1
 72
0
 73
1
 74
1
 75
0
 76
0
 77
0
 78
8
 79
2
170
1
171
2
172
0
173
0
174
0
175
0
176
0
177
0
178
0
270
2
179
2
271
1
272
1
273
2
274
2
275
0
280
0
281
0
282
0
283
1
284
8
285
0
286
0
287
3
288
0
340
11
278
46
341
207
342
207
343
207
344
207
  0
DIMSTYLE
105
22E
100
AcDbSymbolTableRecord
100
AcDbDimStyleTableRecord
  2
DIMSTYLE_10
 70
0
  3

  4

 40
1.0
 41
0.18
 42
0.0625
 43
0.38
 44
0.125
 45
0.0
 46
0.0
 47
0.1
 48
0.1
140
0.125
141
0.09
142
0.0
143
1.0
144
1.0
145
0.0
146
1.0
147
0.0625
 71
0
 72
0
 73
1
 74
1
 75
0
 76
0
 77
0
 78
8
 79
2
170
1
171
2
172
0
173
0
174
0
175
0
176
0
177
0
178
0
270
2
179
2
271
1
272
1
273
2
274
2
275
0
280
0
281
0
282
0
283
1
284
8
285
0
286
0
287
3
288
0
340
11
278
46
341
207
342
207
343
207
344
207
  0
ENDTAB
  0
ENDSEC
  0
SECTION
  2
BLOCKS
  0
BLOCK
  5
20
100
AcDbEntity
  8
0
100
AcDbBlockBegin
  2
*Model_Space
 70
0
 10
0.0
 20
0.0
 30
0.0
  3
*Model_Space
  1

  0
ENDBLK
  5
21
100
AcDbEntity
  8
0
100
AcDbBlockEnd
  0
BLOCK
  5
1C
100
AcDbEntity
  8
0
100
AcDbBlockBegin
  2
*Paper_Space
 70
0
 10
0.0
 20
0.0
 30
0.0
  3
*Paper_Space
  1

  0
ENDBLK
  5
1D
100
AcDbEntity
  8
0
100
AcDbBlockEnd
  0
BLOCK
  5
22F
100
AcDbEntity
  8
DETAIL
100
AcDbBlockBegin
 62
2
  6
CONTINUOUS
  2
CUSTOM_NOTE_BL5
 70
64
 10
3.3750529031
 20
3.46875
  3
CUSTOM_NOTE_BL5
  1

  0
TEXT
  5
230
100
AcDbEntity
  8
DETAIL
100
AcDbText
 62
2
  6
CONTINUOUS
 10
0.9376058062
 20
3.6872715643
  7
STANDARD
 40
0.125
  1
4.
 41
0.8
 72
0
100
AcDbText
  0
TEXT
  5
231
100
AcDbEntity
  8
DETAIL
100
AcDbText
 62
2
  6
CONTINUOUS
 10
1.3125
 20
3.6875
  7
STANDARD
 40
0.125
  1
POWER SUPPLY:
 41
0.8
 72
0
100
AcDbText
  0
TEXT
  5
232
100
AcDbEntity
  8
DETAIL
100
AcDbText
 62
2
  6
CONTINUOUS
 10
1.3125
 20
3.5
  7
STANDARD
 40
0.125
  1
   EXTERNAL 12 - 48 VDC POWER SUPPLY REQUIRED
 41
0.8
 72
0
100
AcDbText
  0
TEXT
  5
233
100
AcDbEntity
  8
DETAIL
100
AcDbText
 62
2
  6
CONTINUOUS
 10
1.3125
 20
3.3125
  7
STANDARD
 40
0.125
  1
   UNDER-VOLTAGE ALARM: 11 VDC
 41
0.8
 72
0
100
AcDbText
  0
TEXT
  5
234
100
AcDbEntity
  8
DETAIL
100
AcDbText
 62
2
  6
CONTINUOUS
 10
1.3125
 20
3.125
  7
STANDARD
 40
0.125
  1
   OVER-VOLTAGE SHUTDOWN: 52 VDC
 41
0.8
 72
0
100
AcDbText
  0
ENDBLK
  5
235
100
AcDbEntity
  8
0
  6
BYBLOCK
 62
0
100
AcDbBlockEnd
  0
BLOCK
  5
236
100
AcDbEntity
  8
DETAIL
100
AcDbBlockBegin
 62
2
  6
CONTINUOUS
  2
CUSTOM_NOTE_BL4
 70
64
 10
4.0750529031
 20
2.53125
  3
CUSTOM_NOTE_BL4
  1

  0
TEXT
  5
237
100
AcDbEntity
  8
DETAIL
100
AcDbText
 62
2
  6
CONTINUOUS
 10
0.9376058062
 20
2.7497715643
  7
STANDARD
 40
0.125
  1
3.
 41
0.8
 72
0
100
AcDbText
  0
TEXT
  5
238
100
AcDbEntity
  8
DETAIL
100
AcDbText
 62
2
  6
CONTINUOUS
 10
1.3125
 20
2.75
  7
STANDARD
 40
0.125
  1
MICRO-STEP RESOLUTION:  
 41
0.8
 72
0
100
AcDbText
  0
TEXT
  5
239
100
AcDbEntity
  8
DETAIL
100
AcDbText
 62
2
  6
CONTINUOUS
 10
1.3125
 20
2.5625
  7
STANDARD
 40
0.125
  1
   DIP-SWITCH SELECTABLE 200, 400, 800, 1000, 1600, 2000,
 41
0.8
 72
0
100
AcDbText
  0
TEXT
  5
23A
100
AcDbEntity
  8
DETAIL
100
AcDbText
 62
2
  6
CONTINUOUS
 10
1.3125
 20
2.375
  7
STANDARD
 40
0.125
  1
   3200, 4000, 5000, 6400, 8000, 10000, 12800, 20000, 25000
 41
0.8
 72
0
100
AcDbText
  0
TEXT
  5
23B
100
AcDbEntity
  8
DETAIL
100
AcDbText
 62
2
  6
CONTINUOUS
 10
1.3125
 20
2.1875
  7
STANDARD
 40
0.125
  1
   OR 25600 STEPS/REV.
 41
0.8
 72
0
100
AcDbText
  0
ENDBLK
  5
23C
100
AcDbEntity
  8
0
  6
BYBLOCK
 62
0
100
AcDbBlockEnd
  0
BLOCK
  5
23D
100
AcDbEntity
  8
DETAIL
100
AcDbBlockBegin
 62
2
  6
CONTINUOUS
  2
CUSTOM_NOTE_BL3
 70
64
 10
3.3250529031
 20
1.78125
  3
CUSTOM_NOTE_BL3
  1

  0
TEXT
  5
23E
100
AcDbEntity
  8
DETAIL
100
AcDbText
 62
2
  6
CONTINUOUS
 10
0.9376058062
 20
1.8122715643
  7
STANDARD
 40
0.125
  1
2.
 41
0.8
 72
0
100
AcDbText
  0
TEXT
  5
23F
100
AcDbEntity
  8
DETAIL
100
AcDbText
 62
2
  6
CONTINUOUS
 10
1.3125
 20
1.8125
  7
STANDARD
 40
0.125
  1
OUTPUT TORQUE:
 41
0.8
 72
0
100
AcDbText
  0
TEXT
  5
240
100
AcDbEntity
  8
DETAIL
100
AcDbText
 62
2
  6
CONTINUOUS
 10
1.3125
 20
1.625
  7
STANDARD
 40
0.125
  1
   UP TO 68 OZ-IN WITH SUITABLE POWER SUPPLY
 41
0.8
 72
0
100
AcDbText
  0
ENDBLK
  5
241
100
AcDbEntity
  8
0
  6
BYBLOCK
 62
0
100
AcDbBlockEnd
  0
BLOCK
  5
242
100
AcDbEntity
  8
DETAIL
100
AcDbBlockBegin
 62
2
  6
CONTINUOUS
  2
NOTES_HEADER_BL2
 70
64
 10
3.1215
 20
0.9375
  3
NOTES_HEADER_BL2
  1

  0
TEXT
  5
243
100
AcDbEntity
  8
DETAIL
100
AcDbText
 62
2
  6
CONTINUOUS
 10
0.9375
 20
0.8595
  7
STANDARD
 40
0.156
  1
NOTES:  UNLESS OTHERWISE SPECIFIED.
 41
0.8
 72
0
100
AcDbText
  0
ENDBLK
  5
244
100
AcDbEntity
  8
0
  6
BYBLOCK
 62
0
100
AcDbBlockEnd
  0
BLOCK
  5
245
100
AcDbEntity
  8
0
100
AcDbBlockBegin
 62
2
  6
CONTINUOUS
  2
METRIC_BL1
 70
64
 10
26.9779212774
 20
3.2618725197
  3
METRIC_BL1
  1

  0
TEXT
  5
246
100
AcDbEntity
  8
0
100
AcDbText
 62
2
  6
CONTINUOUS
 10
26.499240712
 20
3.16076408
  7
STANDARD
 40
0.2
  1
METRIC
 41
0.8
 72
0
100
AcDbText
  0
LWPOLYLINE
  5
247
100
AcDbEntity
  8
0
100
AcDbPolyline
 62
7
  6
CONTINUOUS
 90
2
 70
0
 43
0.0309090909
 10
26.2979212774
 20
3.4418725197
 10
27.6579212774
 20
3.4418725197
  0
LWPOLYLINE
  5
248
100
AcDbEntity
  8
0
100
AcDbPolyline
 62
7
  6
CONTINUOUS
 90
2
 70
0
 43
0.0309090909
 10
26.2979212774
 20
3.0818725197
 10
27.6579212774
 20
3.0818725197
  0
LWPOLYLINE
  5
249
100
AcDbEntity
  8
0
100
AcDbPolyline
 62
7
  6
CONTINUOUS
 90
2
 70
0
 43
0.0309090909
 10
27.6579212774
 20
3.4418725197
 10
27.6579212774
 20
3.0818725197
  0
LWPOLYLINE
  5
24A
100
AcDbEntity
  8
0
100
AcDbPolyline
 62
7
  6
CONTINUOUS
 90
2
 70
0
 43
0.0309090909
 10
26.2979212774
 20
3.4418725197
 10
26.2979212774
 20
3.0818725197
  0
ENDBLK
  5
24B
100
AcDbEntity
  8
0
  6
BYBLOCK
 62
0
100
AcDbBlockEnd
  0
BLOCK
  5
24C
100
AcDbEntity
  8
0
100
AcDbBlockBegin
 62
2
  6
CONTINUOUS
  2
CUSTOM_NOTE_BL0
 70
64
 10
3.6250529031
 20
1.3123857822
  3
CUSTOM_NOTE_BL0
  1

  0
TEXT
  5
24D
100
AcDbEntity
  8
0
100
AcDbText
 62
2
  6
CONTINUOUS
 10
0.9376058062
 20
1.2497715643
  7
STANDARD
 40
0.125
  1
1.
 41
0.8
 72
0
100
AcDbText
  0
TEXT
  5
24E
100
AcDbEntity
  8
0
100
AcDbText
 62
2
  6
CONTINUOUS
 10
1.3125
 20
1.25
  7
STANDARD
 40
0.125
  1
REFER TO PRODUCT MANUAL ON NI.COM FOR MORE DETAILS
 41
0.8
 72
0
100
AcDbText
  0
ENDBLK
  5
24F
100
AcDbEntity
  8
0
  6
BYBLOCK
 62
0
100
AcDbBlockEnd
  0
BLOCK
  5
250
100
AcDbEntity
  8
0
100
AcDbBlockBegin
  2
_FILLED
 70
64
 10
0.0
 20
0.0
  3
_FILLED
  1

  0
SOLID
  5
251
100
AcDbEntity
  8
0
  6
BYBLOCK
 62
0
100
AcDbTrace
 10
0.0
 20
0.0
 11
-1.0
 21
0.1736111111
 12
-1.0
 22
-0.1736111111
 13
-1.0
 23
-0.1736111111
  0
ENDBLK
  5
252
100
AcDbEntity
  8
0
  6
BYBLOCK
 62
0
100
AcDbBlockEnd
  0
BLOCK
  5
253
100
AcDbEntity
  8
DIMENSIONS
100
AcDbBlockBegin
 62
2
  6
CONTINUOUS
  2
*D0
 70
65
 10
0.0
 20
0.0
  3
*D0
  1

  0
TEXT
  5
254
100
AcDbEntity
  8
DIMENSIONS
100
AcDbText
 62
2
  6
CONTINUOUS
 10
27.106476365
 20
7.760495108
  7
STANDARD
 40
0.125
  1
47.14
 41
0.8
 72
1
 11
27.356476365
 21
7.760495108
100
AcDbText
  0
TEXT
  5
255
100
AcDbEntity
  8
DIMENSIONS
100
AcDbText
 62
2
  6
CONTINUOUS
 10
27.606476365
 20
7.760495108
  7
TEXTSTYLE_1
 40
0.125
  1
`
 41
1.0
 72
1
 11
27.6793930317
 21
7.760495108
100
AcDbText
  0
TEXT
  5
256
100
AcDbEntity
  8
DIMENSIONS
100
AcDbText
 62
2
  6
CONTINUOUS
 10
27.7523096983
 20
7.760495108
  7
STANDARD
 40
0.125
  1
0.2
 41
0.8
 72
1
 11
27.9023096983
 21
7.760495108
100
AcDbText
  0
TEXT
  5
257
100
AcDbEntity
  8
DIMENSIONS
100
AcDbText
 62
2
  6
CONTINUOUS
 10
28.1773096983
 20
7.760495108
  7
STANDARD
 40
0.125
  1
[
 41
0.8
 72
1
 11
28.2273096983
 21
7.760495108
100
AcDbText
  0
TEXT
  5
258
100
AcDbEntity
  8
DIMENSIONS
100
AcDbText
 62
2
  6
CONTINUOUS
 10
28.2773096983
 20
7.760495108
  7
STANDARD
 40
0.125
  1
1.856
 41
0.8
 72
1
 11
28.5273096983
 21
7.760495108
100
AcDbText
  0
TEXT
  5
259
100
AcDbEntity
  8
DIMENSIONS
100
AcDbText
 62
2
  6
CONTINUOUS
 10
28.7773096983
 20
7.760495108
  7
TEXTSTYLE_1
 40
0.125
  1
`
 41
1.0
 72
1
 11
28.850226365
 21
7.760495108
100
AcDbText
  0
TEXT
  5
25A
100
AcDbEntity
  8
DIMENSIONS
100
AcDbText
 62
2
  6
CONTINUOUS
 10
28.9231430317
 20
7.760495108
  7
STANDARD
 40
0.125
  1
.007
 41
0.8
 72
1
 11
29.1231430317
 21
7.760495108
100
AcDbText
  0
TEXT
  5
25B
100
AcDbEntity
  8
DIMENSIONS
100
AcDbText
 62
2
  6
CONTINUOUS
 10
29.3231430317
 20
7.760495108
  7
STANDARD
 40
0.125
  1
]
 41
0.8
 72
1
 11
29.3731430317
 21
7.760495108
100
AcDbText
  0
LINE
  5
25C
100
AcDbEntity
  8
DIMENSIONS
100
AcDbLine
 62
2
  6
CONTINUOUS
 10
26.699164029
 20
8.750947864
 11
28.3898096983
 21
8.750947864
  0
LINE
  5
25D
100
AcDbEntity
  8
DIMENSIONS
100
AcDbLine
 62
2
  6
CONTINUOUS
 10
26.699164029
 20
6.8950423521
 11
28.3898096983
 21
6.8950423521
  0
LINE
  5
25E
100
AcDbEntity
  8
DIMENSIONS
100
AcDbLine
 62
2
  6
CONTINUOUS
 10
28.2648096983
 20
8.750947864
 11
28.2648096983
 21
7.947995108
  0
LINE
  5
25F
100
AcDbEntity
  8
DIMENSIONS
100
AcDbLine
 62
2
  6
CONTINUOUS
 10
28.2648096983
 20
6.8950423521
 11
28.2648096983
 21
7.697995108
  0
INSERT
  5
260
100
AcDbEntity
  8
DIMENSIONS
100
AcDbBlockReference
 62
2
  6
CONTINUOUS
  2
_FILLED
 10
28.2648096983
 20
8.750947864
 41
0.18
 42
0.18
 43
0.18
 50
90.0
  0
INSERT
  5
261
100
AcDbEntity
  8
DIMENSIONS
100
AcDbBlockReference
 62
2
  6
CONTINUOUS
  2
_FILLED
 10
28.2648096983
 20
6.8950423521
 41
0.18
 42
0.18
 43
0.18
 50
270.0
  0
ENDBLK
  5
262
100
AcDbEntity
  8
0
  6
BYBLOCK
 62
0
100
AcDbBlockEnd
  0
BLOCK
  5
263
100
AcDbEntity
  8
DIMENSIONS
100
AcDbBlockBegin
 62
2
  6
CONTINUOUS
  2
*D1
 70
65
 10
0.0
 20
0.0
  3
*D1
  1

  0
TEXT
  5
264
100
AcDbEntity
  8
DIMENSIONS
100
AcDbText
 62
2
  6
CONTINUOUS
 10
27.0532526382
 20
5.3584887264
  7
STANDARD
 40
0.125
  1
47.14
 41
0.8
 72
0
100
AcDbText
  0
TEXT
  5
265
100
AcDbEntity
  8
DIMENSIONS
100
AcDbText
 62
2
  6
CONTINUOUS
 10
27.5532526382
 20
5.3584887264
  7
TEXTSTYLE_1
 40
0.125
  1
`
 41
1.0
 72
0
100
AcDbText
  0
TEXT
  5
266
100
AcDbEntity
  8
DIMENSIONS
100
AcDbText
 62
2
  6
CONTINUOUS
 10
27.6990859715
 20
5.3584887264
  7
STANDARD
 40
0.125
  1
0.2
 41
0.8
 72
0
100
AcDbText
  0
TEXT
  5
267
100
AcDbEntity
  8
DIMENSIONS
100
AcDbText
 62
2
  6
CONTINUOUS
 10
28.1240859715
 20
5.3584887264
  7
STANDARD
 40
0.125
  1
[
 41
0.8
 72
0
100
AcDbText
  0
TEXT
  5
268
100
AcDbEntity
  8
DIMENSIONS
100
AcDbText
 62
2
  6
CONTINUOUS
 10
28.2240859715
 20
5.3584887264
  7
STANDARD
 40
0.125
  1
1.856
 41
0.8
 72
0
100
AcDbText
  0
TEXT
  5
269
100
AcDbEntity
  8
DIMENSIONS
100
AcDbText
 62
2
  6
CONTINUOUS
 10
28.7240859715
 20
5.3584887264
  7
TEXTSTYLE_1
 40
0.125
  1
`
 41
1.0
 72
0
100
AcDbText
  0
TEXT
  5
26A
100
AcDbEntity
  8
DIMENSIONS
100
AcDbText
 62
2
  6
CONTINUOUS
 10
28.8699193048
 20
5.3584887264
  7
STANDARD
 40
0.125
  1
.007
 41
0.8
 72
0
100
AcDbText
  0
TEXT
  5
26B
100
AcDbEntity
  8
DIMENSIONS
100
AcDbText
 62
2
  6
CONTINUOUS
 10
29.2699193048
 20
5.3584887264
  7
STANDARD
 40
0.125
  1
]
 41
0.8
 72
0
100
AcDbText
  0
LINE
  5
26C
100
AcDbEntity
  8
DIMENSIONS
100
AcDbLine
 62
2
  6
CONTINUOUS
 10
26.511660092
 20
6.7075384151
 11
26.511660092
 21
5.2959887264
  0
LINE
  5
26D
100
AcDbEntity
  8
DIMENSIONS
100
AcDbLine
 62
2
  6
CONTINUOUS
 10
24.6557545802
 20
6.7075384151
 11
24.6557545802
 21
5.2959887264
  0
LINE
  5
26E
100
AcDbEntity
  8
DIMENSIONS
100
AcDbLine
 62
2
  6
CONTINUOUS
 10
26.511660092
 20
5.4209887264
 11
26.9907526382
 21
5.4209887264
  0
LINE
  5
26F
100
AcDbEntity
  8
DIMENSIONS
100
AcDbLine
 62
2
  6
CONTINUOUS
 10
24.6557545802
 20
5.4209887264
 11
24.2957545802
 21
5.4209887264
  0
INSERT
  5
270
100
AcDbEntity
  8
DIMENSIONS
100
AcDbBlockReference
 62
2
  6
CONTINUOUS
  2
_FILLED
 10
26.511660092
 20
5.4209887264
 41
0.18
 42
0.18
 43
0.18
 50
180.0
  0
INSERT
  5
271
100
AcDbEntity
  8
DIMENSIONS
100
AcDbBlockReference
 62
2
  6
CONTINUOUS
  2
_FILLED
 10
24.6557545802
 20
5.4209887264
 41
0.18
 42
0.18
 43
0.18
  0
ENDBLK
  5
272
100
AcDbEntity
  8
0
  6
BYBLOCK
 62
0
100
AcDbBlockEnd
  0
BLOCK
  5
273
100
AcDbEntity
  8
DIMENSIONS
100
AcDbBlockBegin
 62
2
  6
CONTINUOUS
  2
*D2
 70
65
 10
0.0
 20
0.0
  3
*D2
  1

  0
MTEXT
  5
274
100
AcDbEntity
  8
DIMENSIONS
100
AcDbMText
 62
2
  6
CONTINUOUS
  7
STANDARD
 71
1
 72
1
 10
27.2887046479
 20
5.9543927458
 30
0.0
 11
1.0
 21
0.0
 31
0.0
 73
2
 44
0.9
  1
60{\ftxt.shx;\W1.000000;\H0.125000; }[2.36] MAX
 40
0.125
 41
1.325
  0
LINE
  5
275
100
AcDbEntity
  8
DIMENSIONS
100
AcDbLine
 62
2
  6
CONTINUOUS
 10
24.4026049739
 20
6.7053769978
 11
24.4026049739
 21
5.7668927458
  0
LINE
  5
276
100
AcDbEntity
  8
DIMENSIONS
100
AcDbLine
 62
2
  6
CONTINUOUS
 10
26.7648096983
 20
6.7053769978
 11
26.7648096983
 21
5.7668927458
  0
LINE
  5
277
100
AcDbEntity
  8
DIMENSIONS
100
AcDbLine
 62
2
  6
CONTINUOUS
 10
24.4026049739
 20
5.8918927458
 11
24.0426049739
 21
5.8918927458
  0
LINE
  5
278
100
AcDbEntity
  8
DIMENSIONS
100
AcDbLine
 62
2
  6
CONTINUOUS
 10
26.7648096983
 20
5.8918927458
 11
27.2262046479
 21
5.8918927458
  0
INSERT
  5
279
100
AcDbEntity
  8
DIMENSIONS
100
AcDbBlockReference
 62
2
  6
CONTINUOUS
  2
_FILLED
 10
24.4026049739
 20
5.8918927458
 41
0.18
 42
0.18
 43
0.18
  0
INSERT
  5
27A
100
AcDbEntity
  8
DIMENSIONS
100
AcDbBlockReference
 62
2
  6
CONTINUOUS
  2
_FILLED
 10
26.7648096983
 20
5.8918927458
 41
0.18
 42
0.18
 43
0.18
 50
180.0
  0
ENDBLK
  5
27B
100
AcDbEntity
  8
0
  6
BYBLOCK
 62
0
100
AcDbBlockEnd
  0
BLOCK
  5
27C
100
AcDbEntity
  8
DIMENSIONS
100
AcDbBlockBegin
 62
2
  6
CONTINUOUS
  2
*D3
 70
65
 10
0.0
 20
0.0
  3
*D3
  1

  0
MTEXT
  5
27D
100
AcDbEntity
  8
DIMENSIONS
100
AcDbMText
 62
2
  6
CONTINUOUS
  7
STANDARD
 71
2
 72
1
 10
29.7648096983
 20
8.2214287226
 30
0.0
 11
1.0
 21
0.0
 31
0.0
 73
2
 44
0.9
  1
60{\ftxt.shx;\W1.000000;\H0.125000; }[2.36] MAX
 40
0.125
 41
1.325
  0
LINE
  5
27E
100
AcDbEntity
  8
DIMENSIONS
100
AcDbLine
 62
2
  6
CONTINUOUS
 10
26.7013254464
 20
6.6418927458
 11
29.8898096983
 21
6.6418927458
  0
LINE
  5
27F
100
AcDbEntity
  8
DIMENSIONS
100
AcDbLine
 62
2
  6
CONTINUOUS
 10
26.7013254464
 20
9.0040974703
 11
29.8898096983
 21
9.0040974703
  0
LINE
  5
280
100
AcDbEntity
  8
DIMENSIONS
100
AcDbLine
 62
2
  6
CONTINUOUS
 10
29.7648096983
 20
6.6418927458
 11
29.7648096983
 21
8.0339287226
  0
LINE
  5
281
100
AcDbEntity
  8
DIMENSIONS
100
AcDbLine
 62
2
  6
CONTINUOUS
 10
29.7648096983
 20
9.0040974703
 11
29.7648096983
 21
8.2839287226
  0
INSERT
  5
282
100
AcDbEntity
  8
DIMENSIONS
100
AcDbBlockReference
 62
2
  6
CONTINUOUS
  2
_FILLED
 10
29.7648096983
 20
6.6418927458
 41
0.18
 42
0.18
 43
0.18
 50
270.0
  0
INSERT
  5
283
100
AcDbEntity
  8
DIMENSIONS
100
AcDbBlockReference
 62
2
  6
CONTINUOUS
  2
_FILLED
 10
29.7648096983
 20
9.0040974703
 41
0.18
 42
0.18
 43
0.18
 50
90.0
  0
ENDBLK
  5
284
100
AcDbEntity
  8
0
  6
BYBLOCK
 62
0
100
AcDbBlockEnd
  0
BLOCK
  5
285
100
AcDbEntity
  8
DIMENSIONS
100
AcDbBlockBegin
 62
2
  6
CONTINUOUS
  2
*D4
 70
65
 10
0.0
 20
0.0
  3
*D4
  1

  0
TEXT
  5
286
100
AcDbEntity
  8
DIMENSIONS
100
AcDbText
 62
2
  6
CONTINUOUS
 10
21.417946383
 20
6.6177902745
  7
TEXTSTYLE_1
 40
0.125
  1
n
 41
1.0
 72
2
 11
21.5846130497
 21
6.6177902745
100
AcDbText
  0
TEXT
  5
287
100
AcDbEntity
  8
DIMENSIONS
100
AcDbText
 62
2
  6
CONTINUOUS
 10
21.5846130497
 20
6.6177902745
  7
STANDARD
 40
0.125
  1
38.1
 41
0.8
 72
2
 11
21.9846130497
 21
6.6177902745
100
AcDbText
  0
TEXT
  5
288
100
AcDbEntity
  8
DIMENSIONS
100
AcDbText
 62
2
  6
CONTINUOUS
 10
21.9846130497
 20
6.6177902745
  7
TEXTSTYLE_1
 40
0.125
  1
`
 41
1.0
 72
2
 11
22.130446383
 21
6.6177902745
100
AcDbText
  0
TEXT
  5
289
100
AcDbEntity
  8
DIMENSIONS
100
AcDbText
 62
2
  6
CONTINUOUS
 10
22.130446383
 20
6.6177902745
  7
STANDARD
 40
0.125
  1
0.5
 41
0.8
 72
2
 11
22.430446383
 21
6.6177902745
100
AcDbText
  0
TEXT
  5
28A
100
AcDbEntity
  8
DIMENSIONS
100
AcDbText
 62
2
  6
CONTINUOUS
 10
22.555446383
 20
6.6177902745
  7
STANDARD
 40
0.125
  1
[
 41
0.8
 72
2
 11
22.655446383
 21
6.6177902745
100
AcDbText
  0
TEXT
  5
28B
100
AcDbEntity
  8
DIMENSIONS
100
AcDbText
 62
2
  6
CONTINUOUS
 10
22.655446383
 20
6.6177902745
  7
STANDARD
 40
0.125
  1
1.50
 41
0.8
 72
2
 11
23.055446383
 21
6.6177902745
100
AcDbText
  0
TEXT
  5
28C
100
AcDbEntity
  8
DIMENSIONS
100
AcDbText
 62
2
  6
CONTINUOUS
 10
23.055446383
 20
6.6177902745
  7
TEXTSTYLE_1
 40
0.125
  1
`
 41
1.0
 72
2
 11
23.2012797163
 21
6.6177902745
100
AcDbText
  0
TEXT
  5
28D
100
AcDbEntity
  8
DIMENSIONS
100
AcDbText
 62
2
  6
CONTINUOUS
 10
23.2012797163
 20
6.6177902745
  7
STANDARD
 40
0.125
  1
.01
 41
0.8
 72
2
 11
23.5012797163
 21
6.6177902745
100
AcDbText
  0
TEXT
  5
28E
100
AcDbEntity
  8
DIMENSIONS
100
AcDbText
 62
2
  6
CONTINUOUS
 10
23.5012797163
 20
6.6177902745
  7
STANDARD
 40
0.125
  1
]
 41
0.8
 72
2
 11
23.6012797163
 21
6.6177902745
100
AcDbText
  0
LINE
  5
28F
100
AcDbEntity
  8
DIMENSIONS
100
AcDbLine
 62
2
  6
CONTINUOUS
 10
24.9502785346
 20
7.421413294
 11
23.7812797163
 21
6.6802902745
  0
LINE
  5
290
100
AcDbEntity
  8
DIMENSIONS
100
AcDbLine
 62
2
  6
CONTINUOUS
 10
23.7812797163
 20
6.6802902745
 11
23.6637797163
 21
6.6802902745
  0
INSERT
  5
291
100
AcDbEntity
  8
DIMENSIONS
100
AcDbBlockReference
 62
2
  6
CONTINUOUS
  2
_FILLED
 10
24.9502785346
 20
7.421413294
 41
0.18
 42
0.18
 43
0.18
 50
32.3739201349
  0
ENDBLK
  5
292
100
AcDbEntity
  8
0
  6
BYBLOCK
 62
0
100
AcDbBlockEnd
  0
BLOCK
  5
293
100
AcDbEntity
  8
DIMENSIONS
100
AcDbBlockBegin
 62
2
  6
CONTINUOUS
  2
*D5
 70
65
 10
0.0
 20
0.0
  3
*D5
  1

  0
TEXT
  5
294
100
AcDbEntity
  8
DIMENSIONS
100
AcDbText
 62
2
  6
CONTINUOUS
 10
21.2979827358
 20
9.5100556012
  7
STANDARD
 40
0.125
  1
4X 
 41
0.8
 72
2
 11
21.5979827358
 21
9.5100556012
100
AcDbText
  0
TEXT
  5
295
100
AcDbEntity
  8
DIMENSIONS
100
AcDbText
 62
2
  6
CONTINUOUS
 10
21.5979827358
 20
9.5100556012
  7
TEXTSTYLE_1
 40
0.125
  1
n
 41
1.0
 72
2
 11
21.7646494024
 21
9.5100556012
100
AcDbText
  0
TEXT
  5
296
100
AcDbEntity
  8
DIMENSIONS
100
AcDbText
 62
2
  6
CONTINUOUS
 10
21.7646494024
 20
9.5100556012
  7
STANDARD
 40
0.125
  1
5
 41
0.8
 72
2
 11
21.8646494024
 21
9.5100556012
100
AcDbText
  0
TEXT
  5
297
100
AcDbEntity
  8
DIMENSIONS
100
AcDbText
 62
2
  6
CONTINUOUS
 10
21.8646494024
 20
9.6038056012
  7
STANDARD
 40
0.125
  1
+0.3
 41
0.8
 72
2
 11
22.2646494024
 21
9.6038056012
100
AcDbText
  0
TEXT
  5
298
100
AcDbEntity
  8
DIMENSIONS
100
AcDbText
 62
2
  6
CONTINUOUS
 10
21.8646494024
 20
9.4163056012
  7
STANDARD
 40
0.125
  1
 0
 41
0.8
 72
2
 11
22.0646494024
 21
9.4163056012
100
AcDbText
  0
TEXT
  5
299
100
AcDbEntity
  8
DIMENSIONS
100
AcDbText
 62
2
  6
CONTINUOUS
 10
22.3896494024
 20
9.4163056012
  7
STANDARD
 40
0.3125
  1
[
 41
0.8
 72
2
 11
22.6396494024
 21
9.4163056012
100
AcDbText
  0
TEXT
  5
29A
100
AcDbEntity
  8
DIMENSIONS
100
AcDbText
 62
2
  6
CONTINUOUS
 10
22.6396494024
 20
9.5100556012
  7
STANDARD
 40
0.125
  1
.20
 41
0.8
 72
2
 11
22.9396494024
 21
9.5100556012
100
AcDbText
  0
TEXT
  5
29B
100
AcDbEntity
  8
DIMENSIONS
100
AcDbText
 62
2
  6
CONTINUOUS
 10
22.9396494024
 20
9.6038056012
  7
STANDARD
 40
0.125
  1
+.01
 41
0.8
 72
2
 11
23.3396494024
 21
9.6038056012
100
AcDbText
  0
TEXT
  5
29C
100
AcDbEntity
  8
DIMENSIONS
100
AcDbText
 62
2
  6
CONTINUOUS
 10
22.9396494024
 20
9.4163056012
  7
STANDARD
 40
0.125
  1
-.00
 41
0.8
 72
2
 11
23.3396494024
 21
9.4163056012
100
AcDbText
  0
TEXT
  5
29D
100
AcDbEntity
  8
DIMENSIONS
100
AcDbText
 62
2
  6
CONTINUOUS
 10
23.3396494024
 20
9.4163056012
  7
STANDARD
 40
0.3125
  1
]
 41
0.8
 72
2
 11
23.5896494024
 21
9.4163056012
100
AcDbText
  0
LINE
  5
29E
100
AcDbEntity
  8
DIMENSIONS
100
AcDbLine
 62
2
  6
CONTINUOUS
 10
24.5835803479
 20
8.8178687095
 11
23.7696494024
 21
9.5725556012
  0
LINE
  5
29F
100
AcDbEntity
  8
DIMENSIONS
100
AcDbLine
 62
2
  6
CONTINUOUS
 10
23.7696494024
 20
9.5725556012
 11
23.6521494024
 21
9.5725556012
  0
INSERT
  5
2A0
100
AcDbEntity
  8
DIMENSIONS
100
AcDbBlockReference
 62
2
  6
CONTINUOUS
  2
_FILLED
 10
24.5835803479
 20
8.8178687095
 41
0.18
 42
0.18
 43
0.18
 50
317.1629370455
  0
ENDBLK
  5
2A1
100
AcDbEntity
  8
0
  6
BYBLOCK
 62
0
100
AcDbBlockEnd
  0
BLOCK
  5
2A2
100
AcDbEntity
  8
DIMENSIONS
100
AcDbBlockBegin
 62
2
  6
CONTINUOUS
  2
*D6
 70
65
 10
0.0
 20
0.0
  3
*D6
  1

  0
MTEXT
  5
2A3
100
AcDbEntity
  8
DIMENSIONS
100
AcDbMText
 62
2
  6
CONTINUOUS
  7
STANDARD
 71
2
 72
1
 10
25.5837073361
 20
11.0567549506
 30
0.0
 11
1.0
 21
0.0
 31
0.0
 73
2
 44
0.9
  1
51{\ftxt.shx;\W1.000000;\H0.125000; }[2.01] MAX
 40
0.125
 41
1.325
  0
LINE
  5
2A4
100
AcDbEntity
  8
DIMENSIONS
100
AcDbLine
 62
2
  6
CONTINUOUS
 10
24.5797703283
 20
9.6099045569
 11
24.5797703283
 21
11.1192549506
  0
LINE
  5
2A5
100
AcDbEntity
  8
DIMENSIONS
100
AcDbLine
 62
2
  6
CONTINUOUS
 10
26.587644344
 20
9.6099045569
 11
26.587644344
 21
11.1192549506
  0
LINE
  5
2A6
100
AcDbEntity
  8
DIMENSIONS
100
AcDbLine
 62
2
  6
CONTINUOUS
 10
24.5797703283
 20
10.9942549506
 11
24.8587073361
 21
10.9942549506
  0
LINE
  5
2A7
100
AcDbEntity
  8
DIMENSIONS
100
AcDbLine
 62
2
  6
CONTINUOUS
 10
26.587644344
 20
10.9942549506
 11
26.3087073361
 21
10.9942549506
  0
INSERT
  5
2A8
100
AcDbEntity
  8
DIMENSIONS
100
AcDbBlockReference
 62
2
  6
CONTINUOUS
  2
_FILLED
 10
24.5797703283
 20
10.9942549506
 41
0.18
 42
0.18
 43
0.18
 50
180.0
  0
INSERT
  5
2A9
100
AcDbEntity
  8
DIMENSIONS
100
AcDbBlockReference
 62
2
  6
CONTINUOUS
  2
_FILLED
 10
26.587644344
 20
10.9942549506
 41
0.18
 42
0.18
 43
0.18
  0
ENDBLK
  5
2AA
100
AcDbEntity
  8
0
  6
BYBLOCK
 62
0
100
AcDbBlockEnd
  0
BLOCK
  5
2AB
100
AcDbEntity
  8
DIMENSIONS
100
AcDbBlockBegin
 62
2
  6
CONTINUOUS
  2
*D7
 70
65
 10
0.0
 20
0.0
  3
*D7
  1

  0
TEXT
  5
2AC
100
AcDbEntity
  8
DIMENSIONS
100
AcDbText
 62
2
  6
CONTINUOUS
 10
21.4559383073
 20
8.3140946558
  7
STANDARD
 40
0.125
  1
7.5
 41
0.8
 72
2
 11
21.7559383073
 21
8.3140946558
100
AcDbText
  0
TEXT
  5
2AD
100
AcDbEntity
  8
DIMENSIONS
100
AcDbText
 62
2
  6
CONTINUOUS
 10
21.7559383073
 20
8.3140946558
  7
TEXTSTYLE_1
 40
0.125
  1
`
 41
1.0
 72
2
 11
21.9017716406
 21
8.3140946558
100
AcDbText
  0
TEXT
  5
2AE
100
AcDbEntity
  8
DIMENSIONS
100
AcDbText
 62
2
  6
CONTINUOUS
 10
21.9017716406
 20
8.3140946558
  7
STANDARD
 40
0.125
  1
0.1
 41
0.8
 72
2
 11
22.2017716406
 21
8.3140946558
100
AcDbText
  0
TEXT
  5
2AF
100
AcDbEntity
  8
DIMENSIONS
100
AcDbText
 62
2
  6
CONTINUOUS
 10
22.3267716406
 20
8.3140946558
  7
STANDARD
 40
0.125
  1
[
 41
0.8
 72
2
 11
22.4267716406
 21
8.3140946558
100
AcDbText
  0
TEXT
  5
2B0
100
AcDbEntity
  8
DIMENSIONS
100
AcDbText
 62
2
  6
CONTINUOUS
 10
22.4267716406
 20
8.3140946558
  7
STANDARD
 40
0.125
  1
.295
 41
0.8
 72
2
 11
22.8267716406
 21
8.3140946558
100
AcDbText
  0
TEXT
  5
2B1
100
AcDbEntity
  8
DIMENSIONS
100
AcDbText
 62
2
  6
CONTINUOUS
 10
22.8267716406
 20
8.3140946558
  7
TEXTSTYLE_1
 40
0.125
  1
`
 41
1.0
 72
2
 11
22.9726049739
 21
8.3140946558
100
AcDbText
  0
TEXT
  5
2B2
100
AcDbEntity
  8
DIMENSIONS
100
AcDbText
 62
2
  6
CONTINUOUS
 10
22.9726049739
 20
8.3140946558
  7
STANDARD
 40
0.125
  1
.003
 41
0.8
 72
2
 11
23.3726049739
 21
8.3140946558
100
AcDbText
  0
TEXT
  5
2B3
100
AcDbEntity
  8
DIMENSIONS
100
AcDbText
 62
2
  6
CONTINUOUS
 10
23.3726049739
 20
8.3140946558
  7
STANDARD
 40
0.125
  1
]
 41
0.8
 72
2
 11
23.4726049739
 21
8.3140946558
100
AcDbText
  0
LINE
  5
2B4
100
AcDbEntity
  8
DIMENSIONS
100
AcDbLine
 62
2
  6
CONTINUOUS
 10
25.4449675065
 20
7.6851998325
 11
23.5276049739
 21
7.6851998325
  0
LINE
  5
2B5
100
AcDbEntity
  8
DIMENSIONS
100
AcDbLine
 62
2
  6
CONTINUOUS
 10
25.5212073361
 20
7.980475423
 11
23.5276049739
 21
7.980475423
  0
LINE
  5
2B6
100
AcDbEntity
  8
DIMENSIONS
100
AcDbLine
 62
2
  6
CONTINUOUS
 10
23.6526049739
 20
7.6851998325
 11
23.6526049739
 21
7.3251998325
  0
LINE
  5
2B7
100
AcDbEntity
  8
DIMENSIONS
100
AcDbLine
 62
2
  6
CONTINUOUS
 10
23.6526049739
 20
7.980475423
 11
23.6526049739
 21
8.3765946558
  0
LINE
  5
2B8
100
AcDbEntity
  8
DIMENSIONS
100
AcDbLine
 62
2
  6
CONTINUOUS
 10
23.6526049739
 20
8.3765946558
 11
23.5351049739
 21
8.3765946558
  0
INSERT
  5
2B9
100
AcDbEntity
  8
DIMENSIONS
100
AcDbBlockReference
 62
2
  6
CONTINUOUS
  2
_FILLED
 10
23.6526049739
 20
7.6851998325
 41
0.18
 42
0.18
 43
0.18
 50
90.0
  0
INSERT
  5
2BA
100
AcDbEntity
  8
DIMENSIONS
100
AcDbBlockReference
 62
2
  6
CONTINUOUS
  2
_FILLED
 10
23.6526049739
 20
7.980475423
 41
0.18
 42
0.18
 43
0.18
 50
270.0
  0
ENDBLK
  5
2BB
100
AcDbEntity
  8
0
  6
BYBLOCK
 62
0
100
AcDbBlockEnd
  0
BLOCK
  5
2BC
100
AcDbEntity
  8
DIMENSIONS
100
AcDbBlockBegin
 62
2
  6
CONTINUOUS
  2
*D8
 70
65
 10
0.0
 20
0.0
  3
*D8
  1

  0
TEXT
  5
2BD
100
AcDbEntity
  8
DIMENSIONS
100
AcDbText
 62
2
  6
CONTINUOUS
 10
18.1056264222
 20
8.767975423
  7
STANDARD
 40
0.125
  1
8
 41
0.8
 72
0
100
AcDbText
  0
TEXT
  5
2BE
100
AcDbEntity
  8
DIMENSIONS
100
AcDbText
 62
2
  6
CONTINUOUS
 10
18.2056264222
 20
8.861725423
  7
STANDARD
 40
0.125
  1
 0
 41
0.8
 72
0
100
AcDbText
  0
TEXT
  5
2BF
100
AcDbEntity
  8
DIMENSIONS
100
AcDbText
 62
2
  6
CONTINUOUS
 10
18.2056264222
 20
8.674225423
  7
STANDARD
 40
0.125
  1
+0.013
 41
0.8
 72
0
100
AcDbText
  0
TEXT
  5
2C0
100
AcDbEntity
  8
DIMENSIONS
100
AcDbText
 62
2
  6
CONTINUOUS
 10
18.9306264222
 20
8.674225423
  7
STANDARD
 40
0.3125
  1
[
 41
0.8
 72
0
100
AcDbText
  0
TEXT
  5
2C1
100
AcDbEntity
  8
DIMENSIONS
100
AcDbText
 62
2
  6
CONTINUOUS
 10
19.1806264222
 20
8.767975423
  7
STANDARD
 40
0.125
  1
.32
 41
0.8
 72
0
100
AcDbText
  0
TEXT
  5
2C2
100
AcDbEntity
  8
DIMENSIONS
100
AcDbText
 62
2
  6
CONTINUOUS
 10
19.4806264222
 20
8.861725423
  7
STANDARD
 40
0.125
  1
+.0000
 41
0.8
 72
0
100
AcDbText
  0
TEXT
  5
2C3
100
AcDbEntity
  8
DIMENSIONS
100
AcDbText
 62
2
  6
CONTINUOUS
 10
19.4806264222
 20
8.674225423
  7
STANDARD
 40
0.125
  1
+.0006
 41
0.8
 72
0
100
AcDbText
  0
TEXT
  5
2C4
100
AcDbEntity
  8
DIMENSIONS
100
AcDbText
 62
2
  6
CONTINUOUS
 10
20.0806264222
 20
8.674225423
  7
STANDARD
 40
0.3125
  1
]
 41
0.8
 72
0
100
AcDbText
  0
LINE
  5
2C5
100
AcDbEntity
  8
DIMENSIONS
100
AcDbLine
 62
2
  6
CONTINUOUS
 10
16.6475752411
 20
7.6655147931
 11
18.0506264222
 21
7.6655147931
  0
LINE
  5
2C6
100
AcDbEntity
  8
DIMENSIONS
100
AcDbLine
 62
2
  6
CONTINUOUS
 10
17.2381264222
 20
7.980475423
 11
18.0506264222
 21
7.980475423
  0
LINE
  5
2C7
100
AcDbEntity
  8
DIMENSIONS
100
AcDbLine
 62
2
  6
CONTINUOUS
 10
17.9256264222
 20
7.6655147931
 11
17.9256264222
 21
7.3055147931
  0
LINE
  5
2C8
100
AcDbEntity
  8
DIMENSIONS
100
AcDbLine
 62
2
  6
CONTINUOUS
 10
17.9256264222
 20
7.980475423
 11
17.9256264222
 21
8.830475423
  0
LINE
  5
2C9
100
AcDbEntity
  8
DIMENSIONS
100
AcDbLine
 62
2
  6
CONTINUOUS
 10
17.9256264222
 20
8.830475423
 11
18.0431264222
 21
8.830475423
  0
INSERT
  5
2CA
100
AcDbEntity
  8
DIMENSIONS
100
AcDbBlockReference
 62
2
  6
CONTINUOUS
  2
_FILLED
 10
17.9256264222
 20
7.6655147931
 41
0.18
 42
0.18
 43
0.18
 50
90.0
  0
INSERT
  5
2CB
100
AcDbEntity
  8
DIMENSIONS
100
AcDbBlockReference
 62
2
  6
CONTINUOUS
  2
_FILLED
 10
17.9256264222
 20
7.980475423
 41
0.18
 42
0.18
 43
0.18
 50
270.0
  0
ENDBLK
  5
2CC
100
AcDbEntity
  8
0
  6
BYBLOCK
 62
0
100
AcDbBlockEnd
  0
BLOCK
  5
2CD
100
AcDbEntity
  8
DIMENSIONS
100
AcDbBlockBegin
 62
2
  6
CONTINUOUS
  2
*D9
 70
65
 10
0.0
 20
0.0
  3
*D9
  1

  0
TEXT
  5
2CE
100
AcDbEntity
  8
DIMENSIONS
100
AcDbText
 62
2
  6
CONTINUOUS
 10
13.9297343256
 20
5.8293927458
  7
STANDARD
 40
0.125
  1
7
 41
0.8
 72
2
 11
14.0297343256
 21
5.8293927458
100
AcDbText
  0
TEXT
  5
2CF
100
AcDbEntity
  8
DIMENSIONS
100
AcDbText
 62
2
  6
CONTINUOUS
 10
14.0297343256
 20
5.8293927458
  7
TEXTSTYLE_1
 40
0.125
  1
`
 41
1.0
 72
2
 11
14.1755676589
 21
5.8293927458
100
AcDbText
  0
TEXT
  5
2D0
100
AcDbEntity
  8
DIMENSIONS
100
AcDbText
 62
2
  6
CONTINUOUS
 10
14.1755676589
 20
5.8293927458
  7
STANDARD
 40
0.125
  1
0.5
 41
0.8
 72
2
 11
14.4755676589
 21
5.8293927458
100
AcDbText
  0
TEXT
  5
2D1
100
AcDbEntity
  8
DIMENSIONS
100
AcDbText
 62
2
  6
CONTINUOUS
 10
14.6005676589
 20
5.8293927458
  7
STANDARD
 40
0.125
  1
[
 41
0.8
 72
2
 11
14.7005676589
 21
5.8293927458
100
AcDbText
  0
TEXT
  5
2D2
100
AcDbEntity
  8
DIMENSIONS
100
AcDbText
 62
2
  6
CONTINUOUS
 10
14.7005676589
 20
5.8293927458
  7
STANDARD
 40
0.125
  1
.28
 41
0.8
 72
2
 11
15.0005676589
 21
5.8293927458
100
AcDbText
  0
TEXT
  5
2D3
100
AcDbEntity
  8
DIMENSIONS
100
AcDbText
 62
2
  6
CONTINUOUS
 10
15.0005676589
 20
5.8293927458
  7
TEXTSTYLE_1
 40
0.125
  1
`
 41
1.0
 72
2
 11
15.1464009922
 21
5.8293927458
100
AcDbText
  0
TEXT
  5
2D4
100
AcDbEntity
  8
DIMENSIONS
100
AcDbText
 62
2
  6
CONTINUOUS
 10
15.1464009922
 20
5.8293927458
  7
STANDARD
 40
0.125
  1
.01
 41
0.8
 72
2
 11
15.4464009922
 21
5.8293927458
100
AcDbText
  0
TEXT
  5
2D5
100
AcDbEntity
  8
DIMENSIONS
100
AcDbText
 62
2
  6
CONTINUOUS
 10
15.4464009922
 20
5.8293927458
  7
STANDARD
 40
0.125
  1
]
 41
0.8
 72
2
 11
15.5464009922
 21
5.8293927458
100
AcDbText
  0
LINE
  5
2D6
100
AcDbEntity
  8
DIMENSIONS
100
AcDbLine
 62
2
  6
CONTINUOUS
 10
16.3646028001
 20
6.5793927458
 11
16.3646028001
 21
5.7668927458
  0
LINE
  5
2D7
100
AcDbEntity
  8
DIMENSIONS
100
AcDbLine
 62
2
  6
CONTINUOUS
 10
16.089012249
 20
6.5793927458
 11
16.089012249
 21
5.7668927458
  0
LINE
  5
2D8
100
AcDbEntity
  8
DIMENSIONS
100
AcDbLine
 62
2
  6
CONTINUOUS
 10
16.3646028001
 20
5.8918927458
 11
16.7246028001
 21
5.8918927458
  0
LINE
  5
2D9
100
AcDbEntity
  8
DIMENSIONS
100
AcDbLine
 62
2
  6
CONTINUOUS
 10
16.089012249
 20
5.8918927458
 11
15.6089009922
 21
5.8918927458
  0
INSERT
  5
2DA
100
AcDbEntity
  8
DIMENSIONS
100
AcDbBlockReference
 62
2
  6
CONTINUOUS
  2
_FILLED
 10
16.3646028001
 20
5.8918927458
 41
0.18
 42
0.18
 43
0.18
 50
180.0
  0
INSERT
  5
2DB
100
AcDbEntity
  8
DIMENSIONS
100
AcDbBlockReference
 62
2
  6
CONTINUOUS
  2
_FILLED
 10
16.089012249
 20
5.8918927458
 41
0.18
 42
0.18
 43
0.18
  0
ENDBLK
  5
2DC
100
AcDbEntity
  8
0
  6
BYBLOCK
 62
0
100
AcDbBlockEnd
  0
BLOCK
  5
2DD
100
AcDbEntity
  8
DIMENSIONS
100
AcDbBlockBegin
 62
2
  6
CONTINUOUS
  2
*D10
 70
65
 10
0.0
 20
0.0
  3
*D10
  1

  0
TEXT
  5
2DE
100
AcDbEntity
  8
DIMENSIONS
100
AcDbText
 62
2
  6
CONTINUOUS
 10
12.9338285219
 20
5.0793927458
  7
STANDARD
 40
0.125
  1
125.5
 41
0.8
 72
1
 11
13.1838285219
 21
5.0793927458
100
AcDbText
  0
TEXT
  5
2DF
100
AcDbEntity
  8
DIMENSIONS
100
AcDbText
 62
2
  6
CONTINUOUS
 10
13.4338285219
 20
5.0793927458
  7
TEXTSTYLE_1
 40
0.125
  1
`
 41
1.0
 72
1
 11
13.5067451886
 21
5.0793927458
100
AcDbText
  0
TEXT
  5
2E0
100
AcDbEntity
  8
DIMENSIONS
100
AcDbText
 62
2
  6
CONTINUOUS
 10
13.5796618553
 20
5.0793927458
  7
STANDARD
 40
0.125
  1
1
 41
0.8
 72
1
 11
13.6296618553
 21
5.0793927458
100
AcDbText
  0
TEXT
  5
2E1
100
AcDbEntity
  8
DIMENSIONS
100
AcDbText
 62
2
  6
CONTINUOUS
 10
13.8046618553
 20
5.0793927458
  7
STANDARD
 40
0.125
  1
[
 41
0.8
 72
1
 11
13.8546618553
 21
5.0793927458
100
AcDbText
  0
TEXT
  5
2E2
100
AcDbEntity
  8
DIMENSIONS
100
AcDbText
 62
2
  6
CONTINUOUS
 10
13.9046618553
 20
5.0793927458
  7
STANDARD
 40
0.125
  1
4.94
 41
0.8
 72
1
 11
14.1046618553
 21
5.0793927458
100
AcDbText
  0
TEXT
  5
2E3
100
AcDbEntity
  8
DIMENSIONS
100
AcDbText
 62
2
  6
CONTINUOUS
 10
14.3046618553
 20
5.0793927458
  7
TEXTSTYLE_1
 40
0.125
  1
`
 41
1.0
 72
1
 11
14.3775785219
 21
5.0793927458
100
AcDbText
  0
TEXT
  5
2E4
100
AcDbEntity
  8
DIMENSIONS
100
AcDbText
 62
2
  6
CONTINUOUS
 10
14.4504951886
 20
5.0793927458
  7
STANDARD
 40
0.125
  1
.03
 41
0.8
 72
1
 11
14.6004951886
 21
5.0793927458
100
AcDbText
  0
TEXT
  5
2E5
100
AcDbEntity
  8
DIMENSIONS
100
AcDbText
 62
2
  6
CONTINUOUS
 10
14.7504951886
 20
5.0793927458
  7
STANDARD
 40
0.125
  1
]
 41
0.8
 72
1
 11
14.8004951886
 21
5.0793927458
100
AcDbText
  0
LINE
  5
2E6
100
AcDbEntity
  8
DIMENSIONS
100
AcDbLine
 62
2
  6
CONTINUOUS
 10
16.3646028001
 20
6.5793927458
 11
16.3646028001
 21
5.0168927458
  0
LINE
  5
2E7
100
AcDbEntity
  8
DIMENSIONS
100
AcDbLine
 62
2
  6
CONTINUOUS
 10
11.4197209104
 20
6.7053769978
 11
11.4197209104
 21
5.0168927458
  0
LINE
  5
2E8
100
AcDbEntity
  8
DIMENSIONS
100
AcDbLine
 62
2
  6
CONTINUOUS
 10
16.3646028001
 20
5.1418927458
 11
14.9129951886
 21
5.1418927458
  0
LINE
  5
2E9
100
AcDbEntity
  8
DIMENSIONS
100
AcDbLine
 62
2
  6
CONTINUOUS
 10
11.4197209104
 20
5.1418927458
 11
12.8713285219
 21
5.1418927458
  0
INSERT
  5
2EA
100
AcDbEntity
  8
DIMENSIONS
100
AcDbBlockReference
 62
2
  6
CONTINUOUS
  2
_FILLED
 10
16.3646028001
 20
5.1418927458
 41
0.18
 42
0.18
 43
0.18
  0
INSERT
  5
2EB
100
AcDbEntity
  8
DIMENSIONS
100
AcDbBlockReference
 62
2
  6
CONTINUOUS
  2
_FILLED
 10
11.4197209104
 20
5.1418927458
 41
0.18
 42
0.18
 43
0.18
 50
180.0
  0
ENDBLK
  5
2EC
100
AcDbEntity
  8
0
  6
BYBLOCK
 62
0
100
AcDbBlockEnd
  0
BLOCK
  5
2ED
100
AcDbEntity
  8
DIMENSIONS
100
AcDbBlockBegin
 62
2
  6
CONTINUOUS
  2
*D11
 70
65
 10
0.0
 20
0.0
  3
*D11
  1

  0
TEXT
  5
2EE
100
AcDbEntity
  8
DIMENSIONS
100
AcDbText
 62
2
  6
CONTINUOUS
 10
17.5911318204
 20
10.9317549506
  7
STANDARD
 40
0.125
  1
15
 41
0.8
 72
0
100
AcDbText
  0
TEXT
  5
2EF
100
AcDbEntity
  8
DIMENSIONS
100
AcDbText
 62
2
  6
CONTINUOUS
 10
17.7911318204
 20
10.9317549506
  7
TEXTSTYLE_1
 40
0.125
  1
`
 41
1.0
 72
0
100
AcDbText
  0
TEXT
  5
2F0
100
AcDbEntity
  8
DIMENSIONS
100
AcDbText
 62
2
  6
CONTINUOUS
 10
17.9369651537
 20
10.9317549506
  7
STANDARD
 40
0.125
  1
0.2
 41
0.8
 72
0
100
AcDbText
  0
TEXT
  5
2F1
100
AcDbEntity
  8
DIMENSIONS
100
AcDbText
 62
2
  6
CONTINUOUS
 10
18.3619651537
 20
10.9317549506
  7
STANDARD
 40
0.125
  1
[
 41
0.8
 72
0
100
AcDbText
  0
TEXT
  5
2F2
100
AcDbEntity
  8
DIMENSIONS
100
AcDbText
 62
2
  6
CONTINUOUS
 10
18.4619651537
 20
10.9317549506
  7
STANDARD
 40
0.125
  1
.59
 41
0.8
 72
0
100
AcDbText
  0
TEXT
  5
2F3
100
AcDbEntity
  8
DIMENSIONS
100
AcDbText
 62
2
  6
CONTINUOUS
 10
18.7619651537
 20
10.9317549506
  7
TEXTSTYLE_1
 40
0.125
  1
`
 41
1.0
 72
0
100
AcDbText
  0
TEXT
  5
2F4
100
AcDbEntity
  8
DIMENSIONS
100
AcDbText
 62
2
  6
CONTINUOUS
 10
18.907798487
 20
10.9317549506
  7
STANDARD
 40
0.125
  1
.00
 41
0.8
 72
0
100
AcDbText
  0
TEXT
  5
2F5
100
AcDbEntity
  8
DIMENSIONS
100
AcDbText
 62
2
  6
CONTINUOUS
 10
19.207798487
 20
10.9317549506
  7
STANDARD
 40
0.125
  1
]
 41
0.8
 72
0
100
AcDbText
  0
LINE
  5
2F6
100
AcDbEntity
  8
DIMENSIONS
100
AcDbLine
 62
2
  6
CONTINUOUS
 10
17.1756264222
 20
8.042975423
 11
17.1756264222
 21
11.1192549506
  0
LINE
  5
2F7
100
AcDbEntity
  8
DIMENSIONS
100
AcDbLine
 62
2
  6
CONTINUOUS
 10
16.5850752411
 20
7.7476998325
 11
16.5850752411
 21
11.1192549506
  0
LINE
  5
2F8
100
AcDbEntity
  8
DIMENSIONS
100
AcDbLine
 62
2
  6
CONTINUOUS
 10
17.1756264222
 20
10.9942549506
 11
17.5286318204
 21
10.9942549506
  0
LINE
  5
2F9
100
AcDbEntity
  8
DIMENSIONS
100
AcDbLine
 62
2
  6
CONTINUOUS
 10
16.5850752411
 20
10.9942549506
 11
16.2250752411
 21
10.9942549506
  0
INSERT
  5
2FA
100
AcDbEntity
  8
DIMENSIONS
100
AcDbBlockReference
 62
2
  6
CONTINUOUS
  2
_FILLED
 10
17.1756264222
 20
10.9942549506
 41
0.18
 42
0.18
 43
0.18
 50
180.0
  0
INSERT
  5
2FB
100
AcDbEntity
  8
DIMENSIONS
100
AcDbBlockReference
 62
2
  6
CONTINUOUS
  2
_FILLED
 10
16.5850752411
 20
10.9942549506
 41
0.18
 42
0.18
 43
0.18
  0
ENDBLK
  5
2FC
100
AcDbEntity
  8
0
  6
BYBLOCK
 62
0
100
AcDbBlockEnd
  0
BLOCK
  5
2FD
100
AcDbEntity
  8
DIMENSIONS
100
AcDbBlockBegin
 62
2
  6
CONTINUOUS
  2
*D12
 70
65
 10
0.0
 20
0.0
  3
*D12
  1

  0
TEXT
  5
2FE
100
AcDbEntity
  8
DIMENSIONS
100
AcDbText
 62
2
  6
CONTINUOUS
 10
14.2495867047
 20
11.6817549506
  7
STANDARD
 40
0.125
  1
1.5
 41
0.8
 72
2
 11
14.5495867047
 21
11.6817549506
100
AcDbText
  0
TEXT
  5
2FF
100
AcDbEntity
  8
DIMENSIONS
100
AcDbText
 62
2
  6
CONTINUOUS
 10
14.5495867047
 20
11.6817549506
  7
TEXTSTYLE_1
 40
0.125
  1
`
 41
1.0
 72
2
 11
14.695420038
 21
11.6817549506
100
AcDbText
  0
TEXT
  5
300
100
AcDbEntity
  8
DIMENSIONS
100
AcDbText
 62
2
  6
CONTINUOUS
 10
14.695420038
 20
11.6817549506
  7
STANDARD
 40
0.125
  1
0.2
 41
0.8
 72
2
 11
14.995420038
 21
11.6817549506
100
AcDbText
  0
TEXT
  5
301
100
AcDbEntity
  8
DIMENSIONS
100
AcDbText
 62
2
  6
CONTINUOUS
 10
15.120420038
 20
11.6817549506
  7
STANDARD
 40
0.125
  1
[
 41
0.8
 72
2
 11
15.220420038
 21
11.6817549506
100
AcDbText
  0
TEXT
  5
302
100
AcDbEntity
  8
DIMENSIONS
100
AcDbText
 62
2
  6
CONTINUOUS
 10
15.220420038
 20
11.6817549506
  7
STANDARD
 40
0.125
  1
.06
 41
0.8
 72
2
 11
15.520420038
 21
11.6817549506
100
AcDbText
  0
TEXT
  5
303
100
AcDbEntity
  8
DIMENSIONS
100
AcDbText
 62
2
  6
CONTINUOUS
 10
15.520420038
 20
11.6817549506
  7
TEXTSTYLE_1
 40
0.125
  1
`
 41
1.0
 72
2
 11
15.6662533713
 21
11.6817549506
100
AcDbText
  0
TEXT
  5
304
100
AcDbEntity
  8
DIMENSIONS
100
AcDbText
 62
2
  6
CONTINUOUS
 10
15.6662533713
 20
11.6817549506
  7
STANDARD
 40
0.125
  1
.00
 41
0.8
 72
2
 11
15.9662533713
 21
11.6817549506
100
AcDbText
  0
TEXT
  5
305
100
AcDbEntity
  8
DIMENSIONS
100
AcDbText
 62
2
  6
CONTINUOUS
 10
15.9662533713
 20
11.6817549506
  7
STANDARD
 40
0.125
  1
]
 41
0.8
 72
2
 11
16.0662533713
 21
11.6817549506
100
AcDbText
  0
LINE
  5
306
100
AcDbEntity
  8
DIMENSIONS
100
AcDbLine
 62
2
  6
CONTINUOUS
 10
16.4236579182
 20
8.635495108
 11
16.4236579182
 21
11.8692549506
  0
LINE
  5
307
100
AcDbEntity
  8
DIMENSIONS
100
AcDbLine
 62
2
  6
CONTINUOUS
 10
16.3646028001
 20
9.0665974703
 11
16.3646028001
 21
11.8692549506
  0
LINE
  5
308
100
AcDbEntity
  8
DIMENSIONS
100
AcDbLine
 62
2
  6
CONTINUOUS
 10
16.4236579182
 20
11.7442549506
 11
16.7836579182
 21
11.7442549506
  0
LINE
  5
309
100
AcDbEntity
  8
DIMENSIONS
100
AcDbLine
 62
2
  6
CONTINUOUS
 10
16.3646028001
 20
11.7442549506
 11
16.1287533713
 21
11.7442549506
  0
INSERT
  5
30A
100
AcDbEntity
  8
DIMENSIONS
100
AcDbBlockReference
 62
2
  6
CONTINUOUS
  2
_FILLED
 10
16.4236579182
 20
11.7442549506
 41
0.18
 42
0.18
 43
0.18
 50
180.0
  0
INSERT
  5
30B
100
AcDbEntity
  8
DIMENSIONS
100
AcDbBlockReference
 62
2
  6
CONTINUOUS
  2
_FILLED
 10
16.3646028001
 20
11.7442549506
 41
0.18
 42
0.18
 43
0.18
  0
ENDBLK
  5
30C
100
AcDbEntity
  8
0
  6
BYBLOCK
 62
0
100
AcDbBlockEnd
  0
BLOCK
  5
30D
100
AcDbEntity
  8
DIMENSIONS
100
AcDbBlockBegin
 62
2
  6
CONTINUOUS
  2
*D13
 70
65
 10
0.0
 20
0.0
  3
*D13
  1

  0
TEXT
  5
30E
100
AcDbEntity
  8
DIMENSIONS
100
AcDbText
 62
2
  6
CONTINUOUS
 10
17.665691427
 20
12.4317549506
  7
STANDARD
 40
0.125
  1
20.6
 41
0.8
 72
0
100
AcDbText
  0
TEXT
  5
30F
100
AcDbEntity
  8
DIMENSIONS
100
AcDbText
 62
2
  6
CONTINUOUS
 10
18.065691427
 20
12.4317549506
  7
TEXTSTYLE_1
 40
0.125
  1
`
 41
1.0
 72
0
100
AcDbText
  0
TEXT
  5
310
100
AcDbEntity
  8
DIMENSIONS
100
AcDbText
 62
2
  6
CONTINUOUS
 10
18.2115247603
 20
12.4317549506
  7
STANDARD
 40
0.125
  1
0.2
 41
0.8
 72
0
100
AcDbText
  0
TEXT
  5
311
100
AcDbEntity
  8
DIMENSIONS
100
AcDbText
 62
2
  6
CONTINUOUS
 10
18.6365247603
 20
12.4317549506
  7
STANDARD
 40
0.125
  1
[
 41
0.8
 72
0
100
AcDbText
  0
TEXT
  5
312
100
AcDbEntity
  8
DIMENSIONS
100
AcDbText
 62
2
  6
CONTINUOUS
 10
18.7365247603
 20
12.4317549506
  7
STANDARD
 40
0.125
  1
.81
 41
0.8
 72
0
100
AcDbText
  0
TEXT
  5
313
100
AcDbEntity
  8
DIMENSIONS
100
AcDbText
 62
2
  6
CONTINUOUS
 10
19.0365247603
 20
12.4317549506
  7
TEXTSTYLE_1
 40
0.125
  1
`
 41
1.0
 72
0
100
AcDbText
  0
TEXT
  5
314
100
AcDbEntity
  8
DIMENSIONS
100
AcDbText
 62
2
  6
CONTINUOUS
 10
19.1823580936
 20
12.4317549506
  7
STANDARD
 40
0.125
  1
.00
 41
0.8
 72
0
100
AcDbText
  0
TEXT
  5
315
100
AcDbEntity
  8
DIMENSIONS
100
AcDbText
 62
2
  6
CONTINUOUS
 10
19.4823580936
 20
12.4317549506
  7
STANDARD
 40
0.125
  1
]
 41
0.8
 72
0
100
AcDbText
  0
LINE
  5
316
100
AcDbEntity
  8
DIMENSIONS
100
AcDbLine
 62
2
  6
CONTINUOUS
 10
17.1756264222
 20
8.042975423
 11
17.1756264222
 21
12.6192549506
  0
LINE
  5
317
100
AcDbEntity
  8
DIMENSIONS
100
AcDbLine
 62
2
  6
CONTINUOUS
 10
16.3646028001
 20
9.0665974703
 11
16.3646028001
 21
12.6192549506
  0
LINE
  5
318
100
AcDbEntity
  8
DIMENSIONS
100
AcDbLine
 62
2
  6
CONTINUOUS
 10
17.1756264222
 20
12.4942549506
 11
17.603191427
 21
12.4942549506
  0
LINE
  5
319
100
AcDbEntity
  8
DIMENSIONS
100
AcDbLine
 62
2
  6
CONTINUOUS
 10
16.3646028001
 20
12.4942549506
 11
16.0046028001
 21
12.4942549506
  0
INSERT
  5
31A
100
AcDbEntity
  8
DIMENSIONS
100
AcDbBlockReference
 62
2
  6
CONTINUOUS
  2
_FILLED
 10
17.1756264222
 20
12.4942549506
 41
0.18
 42
0.18
 43
0.18
 50
180.0
  0
INSERT
  5
31B
100
AcDbEntity
  8
DIMENSIONS
100
AcDbBlockReference
 62
2
  6
CONTINUOUS
  2
_FILLED
 10
16.3646028001
 20
12.4942549506
 41
0.18
 42
0.18
 43
0.18
  0
ENDBLK
  5
31C
100
AcDbEntity
  8
0
  6
BYBLOCK
 62
0
100
AcDbBlockEnd
  0
BLOCK
  5
31D
100
AcDbEntity
  8
DIMENSIONS
100
AcDbBlockBegin
 62
2
  6
CONTINUOUS
  2
*D14
 70
65
 10
0.0
 20
0.0
  3
*D14
  1

  0
MTEXT
  5
31E
100
AcDbEntity
  8
DIMENSIONS
100
AcDbMText
 62
2
  6
CONTINUOUS
  7
STANDARD
 71
2
 72
1
 10
15.2819256348
 20
12.5567549506
 30
0.0
 11
1.0
 21
0.0
 31
0.0
 73
2
 44
0.9
  1
55{\ftxt.shx;\W1.000000;\H0.125000; }[2.17] MAX
 40
0.125
 41
1.325
  0
LINE
  5
31F
100
AcDbEntity
  8
DIMENSIONS
100
AcDbLine
 62
2
  6
CONTINUOUS
 10
14.1992484694
 20
9.6099045569
 11
14.1992484694
 21
12.6192549506
  0
LINE
  5
320
100
AcDbEntity
  8
DIMENSIONS
100
AcDbLine
 62
2
  6
CONTINUOUS
 10
16.3646028001
 20
9.0665974703
 11
16.3646028001
 21
12.6192549506
  0
LINE
  5
321
100
AcDbEntity
  8
DIMENSIONS
100
AcDbLine
 62
2
  6
CONTINUOUS
 10
14.1992484694
 20
12.4942549506
 11
14.5569256348
 21
12.4942549506
  0
LINE
  5
322
100
AcDbEntity
  8
DIMENSIONS
100
AcDbLine
 62
2
  6
CONTINUOUS
 10
16.3646028001
 20
12.4942549506
 11
16.0069256348
 21
12.4942549506
  0
INSERT
  5
323
100
AcDbEntity
  8
DIMENSIONS
100
AcDbBlockReference
 62
2
  6
CONTINUOUS
  2
_FILLED
 10
14.1992484694
 20
12.4942549506
 41
0.18
 42
0.18
 43
0.18
 50
180.0
  0
INSERT
  5
324
100
AcDbEntity
  8
DIMENSIONS
100
AcDbBlockReference
 62
2
  6
CONTINUOUS
  2
_FILLED
 10
16.3646028001
 20
12.4942549506
 41
0.18
 42
0.18
 43
0.18
  0
ENDBLK
  5
325
100
AcDbEntity
  8
0
  6
BYBLOCK
 62
0
100
AcDbBlockEnd
  0
BLOCK
  5
326
100
AcDbEntity
  8
DIMENSIONS
100
AcDbBlockBegin
 62
2
  6
CONTINUOUS
  2
*D15
 70
65
 10
0.0
 20
0.0
  3
*D15
  1

  0
MTEXT
  5
327
100
AcDbEntity
  8
DIMENSIONS
100
AcDbMText
 62
2
  6
CONTINUOUS
  7
STANDARD
 71
2
 72
1
 10
10.6697209104
 20
8.2201407773
 30
0.0
 11
1.0
 21
0.0
 31
0.0
 73
2
 44
0.9
  1
77{\ftxt.shx;\W1.000000;\H0.125000; }[3.03]
 40
0.125
 41
0.925
  0
LINE
  5
328
100
AcDbEntity
  8
DIMENSIONS
100
AcDbLine
 62
2
  6
CONTINUOUS
 10
11.4832051623
 20
6.6418927458
 11
10.5447209104
 21
6.6418927458
  0
LINE
  5
329
100
AcDbEntity
  8
DIMENSIONS
100
AcDbLine
 62
2
  6
CONTINUOUS
 10
11.4832051623
 20
9.6733888088
 11
10.5447209104
 21
9.6733888088
  0
LINE
  5
32A
100
AcDbEntity
  8
DIMENSIONS
100
AcDbLine
 62
2
  6
CONTINUOUS
 10
10.6697209104
 20
6.6418927458
 11
10.6697209104
 21
8.0326407773
  0
LINE
  5
32B
100
AcDbEntity
  8
DIMENSIONS
100
AcDbLine
 62
2
  6
CONTINUOUS
 10
10.6697209104
 20
9.6733888088
 11
10.6697209104
 21
8.2826407773
  0
INSERT
  5
32C
100
AcDbEntity
  8
DIMENSIONS
100
AcDbBlockReference
 62
2
  6
CONTINUOUS
  2
_FILLED
 10
10.6697209104
 20
6.6418927458
 41
0.18
 42
0.18
 43
0.18
 50
270.0
  0
INSERT
  5
32D
100
AcDbEntity
  8
DIMENSIONS
100
AcDbBlockReference
 62
2
  6
CONTINUOUS
  2
_FILLED
 10
10.6697209104
 20
9.6733888088
 41
0.18
 42
0.18
 43
0.18
 50
90.0
  0
ENDBLK
  5
32E
100
AcDbEntity
  8
0
  6
BYBLOCK
 62
0
100
AcDbBlockEnd
  0
BLOCK
  5
32F
100
AcDbEntity
  8
0
100
AcDbBlockBegin
  2
*T1
 70
1
 10
0.0
 20
0.0
  3
*T1
  1

  0
LINE
  5
330
100
AcDbEntity
  8
0
100
AcDbLine
 62
2
  6
CONTINUOUS
 10
0.0
 20
0.0
 11
7.75
 21
0.0
  0
LINE
  5
331
100
AcDbEntity
  8
0
100
AcDbLine
 62
2
  6
CONTINUOUS
 10
0.0
 20
0.0
 11
0.0
 21
-0.546875
  0
LINE
  5
332
100
AcDbEntity
  8
0
100
AcDbLine
 62
2
  6
CONTINUOUS
 10
0.0
 20
-0.546875
 11
7.75
 21
-0.546875
  0
LINE
  5
333
100
AcDbEntity
  8
0
100
AcDbLine
 62
2
  6
CONTINUOUS
 10
7.75
 20
0.0
 11
7.75
 21
-0.546875
  0
MTEXT
  5
334
100
AcDbEntity
  8
DETAIL
100
AcDbMText
 62
2
  6
CONTINUOUS
  7
STANDARD
 71
1
 72
1
 10
0.0625
 20
-0.078125
 30
0.0
 11
1.0
 21
0.0
 31
0.0
 73
2
 44
0.9
  1
  COPYRIGHT    2014, 2023
 40
0.1
 41
4.0
  0
ENDBLK
  5
335
100
AcDbEntity
  8
0
  6
BYBLOCK
 62
0
100
AcDbBlockEnd
  0
BLOCK
  5
336
100
AcDbEntity
  8
0
100
AcDbBlockBegin
  2
*T2
 70
1
 10
0.0
 20
0.0
  3
*T2
  1

  0
LINE
  5
337
100
AcDbEntity
  8
0
100
AcDbLine
 62
2
  6
CONTINUOUS
 10
0.0
 20
0.0
 11
3.36
 21
0.0
  0
LINE
  5
338
100
AcDbEntity
  8
0
100
AcDbLine
 62
2
  6
CONTINUOUS
 10
0.0
 20
0.0
 11
0.0
 21
-0.5
  0
LINE
  5
339
100
AcDbEntity
  8
0
100
AcDbLine
 62
2
  6
CONTINUOUS
 10
0.0
 20
-0.5
 11
3.36
 21
-0.5
  0
LINE
  5
33A
100
AcDbEntity
  8
0
100
AcDbLine
 62
2
  6
CONTINUOUS
 10
3.36
 20
0.0
 11
3.36
 21
-0.5
  0
MTEXT
  5
33B
100
AcDbEntity
  8
DETAIL
100
AcDbMText
 62
7
  6
CONTINUOUS
  7
STANDARD
 71
2
 72
1
 10
1.68
 20
-0.171875
 30
0.0
 11
1.0
 21
0.0
 31
0.0
 73
2
 44
0.9
  1
05/18/2023
 40
0.25
 41
4.0
  0
ENDBLK
  5
33C
100
AcDbEntity
  8
0
  6
BYBLOCK
 62
0
100
AcDbBlockEnd
  0
BLOCK
  5
33D
100
AcDbEntity
  8
0
100
AcDbBlockBegin
  2
*T3
 70
1
 10
0.0
 20
0.0
  3
*T3
  1

  0
LINE
  5
33E
100
AcDbEntity
  8
0
100
AcDbLine
 62
2
  6
CONTINUOUS
 10
0.0
 20
0.0
 11
1.36
 21
0.0
  0
LINE
  5
33F
100
AcDbEntity
  8
0
100
AcDbLine
 62
2
  6
CONTINUOUS
 10
0.0
 20
0.0
 11
0.0
 21
-0.25
  0
LINE
  5
340
100
AcDbEntity
  8
0
100
AcDbLine
 62
2
  6
CONTINUOUS
 10
0.0
 20
-0.25
 11
1.36
 21
-0.25
  0
LINE
  5
341
100
AcDbEntity
  8
0
100
AcDbLine
 62
2
  6
CONTINUOUS
 10
1.36
 20
0.0
 11
1.36
 21
-0.25
  0
MTEXT
  5
342
100
AcDbEntity
  8
DETAIL
100
AcDbMText
 62
7
  6
CONTINUOUS
  7
STANDARD
 71
3
 72
1
 10
1.2975
 20
-0.046875
 30
0.0
 11
1.0
 21
0.0
 31
0.0
 73
2
 44
0.9
  1
1/1
 40
0.15625
 41
0.75
  0
ENDBLK
  5
343
100
AcDbEntity
  8
0
  6
BYBLOCK
 62
0
100
AcDbBlockEnd
  0
BLOCK
  5
344
100
AcDbEntity
  8
0
100
AcDbBlockBegin
  2
*T4
 70
1
 10
0.0
 20
0.0
  3
*T4
  1

  0
LINE
  5
345
100
AcDbEntity
  8
0
100
AcDbLine
 62
2
  6
CONTINUOUS
 10
0.0
 20
0.0
 11
1.75
 21
0.0
  0
LINE
  5
346
100
AcDbEntity
  8
0
100
AcDbLine
 62
2
  6
CONTINUOUS
 10
0.0
 20
0.0
 11
0.0
 21
-0.25
  0
LINE
  5
347
100
AcDbEntity
  8
0
100
AcDbLine
 62
2
  6
CONTINUOUS
 10
0.0
 20
-0.25
 11
1.75
 21
-0.25
  0
LINE
  5
348
100
AcDbEntity
  8
0
100
AcDbLine
 62
2
  6
CONTINUOUS
 10
1.75
 20
0.0
 11
1.75
 21
-0.25
  0
MTEXT
  5
349
100
AcDbEntity
  8
DETAIL
100
AcDbMText
 62
7
  6
CONTINUOUS
  7
STANDARD
 71
1
 72
1
 10
0.0625
 20
-0.046875
 30
0.0
 11
1.0
 21
0.0
 31
0.0
 73
2
 44
0.9
  1
     1   1
 40
0.15625
 41
2.5
  0
ENDBLK
  5
34A
100
AcDbEntity
  8
0
  6
BYBLOCK
 62
0
100
AcDbBlockEnd
  0
BLOCK
  5
34B
100
AcDbEntity
  8
0
100
AcDbBlockBegin
  2
*T5
 70
1
 10
0.0
 20
0.0
  3
*T5
  1

  0
LINE
  5
34C
100
AcDbEntity
  8
0
100
AcDbLine
 62
2
  6
CONTINUOUS
 10
0.0
 20
0.0
 11
5.13
 21
0.0
  0
LINE
  5
34D
100
AcDbEntity
  8
0
100
AcDbLine
 62
2
  6
CONTINUOUS
 10
0.0
 20
0.0
 11
0.0
 21
-1.75
  0
LINE
  5
34E
100
AcDbEntity
  8
0
100
AcDbLine
 62
2
  6
CONTINUOUS
 10
0.0
 20
-1.75
 11
5.13
 21
-1.75
  0
LINE
  5
34F
100
AcDbEntity
  8
0
100
AcDbLine
 62
2
  6
CONTINUOUS
 10
5.13
 20
0.0
 11
5.13
 21
-1.75
  0
MTEXT
  5
350
100
AcDbEntity
  8
NOTE
100
AcDbMText
 62
7
  6
CONTINUOUS
  7
STANDARD
 71
2
 72
1
 10
2.565
 20
-1.015
 30
0.0
 11
1.0
 21
0.0
 31
0.0
 73
2
 44
0.9
  1
ISM-7413\P 
 40
0.2
 41
2.56
  0
ENDBLK
  5
351
100
AcDbEntity
  8
0
  6
BYBLOCK
 62
0
100
AcDbBlockEnd
  0
BLOCK
  5
352
100
AcDbEntity
  8
0
100
AcDbBlockBegin
  2
*T6
 70
1
 10
0.0
 20
0.0
  3
*T6
  1

  0
LINE
  5
353
100
AcDbEntity
  8
0
100
AcDbLine
 62
2
  6
CONTINUOUS
 10
0.0
 20
0.0
 11
1.0
 21
0.0
  0
LINE
  5
354
100
AcDbEntity
  8
0
100
AcDbLine
 62
2
  6
CONTINUOUS
 10
0.0
 20
0.0
 11
0.0
 21
-0.0005
  0
LINE
  5
355
100
AcDbEntity
  8
0
100
AcDbLine
 62
2
  6
CONTINUOUS
 10
0.0
 20
-0.0005
 11
1.0
 21
-0.0005
  0
LINE
  5
356
100
AcDbEntity
  8
0
100
AcDbLine
 62
2
  6
CONTINUOUS
 10
1.0
 20
0.0
 11
1.0
 21
-0.0005
  0
MTEXT
  5
357
100
AcDbEntity
  8
DETAIL
100
AcDbMText
 62
2
  6
CONTINUOUS
  7
STANDARD
 71
3
 72
1
 10
0.9375
 20
-0.078125
 30
0.0
 11
1.0
 21
0.0
 31
0.0
 73
2
 44
0.9
  1
CU_ISM-7413
 40
0.1
 41
1.76
  0
ENDBLK
  5
358
100
AcDbEntity
  8
0
  6
BYBLOCK
 62
0
100
AcDbBlockEnd
  0
ENDSEC
  0
SECTION
  2
ENTITIES
  0
SPLINE
  5
359
100
AcDbEntity
  8
0
100
AcDbSpline
 62
2
  6
CONTINUOUS
 70
2
 71
3
 72
26
 73
22
 74
0
 42
0.0000001
 43
0.0000001
 44
0.0000000001
 40
0.0
 40
0.0
 40
0.0
 40
0.0
 40
1.0
 40
1.0
 40
1.0
 40
2.0
 40
2.0
 40
2.0
 40
3.0
 40
3.0
 40
3.0
 40
4.0
 40
4.0
 40
4.0
 40
5.0
 40
5.0
 40
5.0
 40
6.0
 40
6.0
 40
6.0
 40
7.0
 40
7.0
 40
7.0
 40
7.0
 10
28.7554239893
 20
2.8681987097
 30
0.0
 10
28.8234037571
 20
2.8681987097
 30
0.0
 10
28.8772252796
 20
2.8132088462
 30
0.0
 10
28.8772252796
 20
2.7421973749
 30
0.0
 10
28.8772252796
 20
2.7421973749
 30
0.0
 10
28.8772252796
 20
2.5027948387
 30
0.0
 10
28.8772252796
 20
2.5027948387
 30
0.0
 10
28.8772252796
 20
2.5027948387
 30
0.0
 10
28.7554239893
 20
2.5027948387
 30
0.0
 10
28.7554239893
 20
2.5027948387
 30
0.0
 10
28.7554239893
 20
2.5027948387
 30
0.0
 10
28.7554239893
 20
2.7463974194
 30
0.0
 10
28.7554239893
 20
2.7463974194
 30
0.0
 10
28.7554239893
 20
2.7463974194
 30
0.0
 10
28.6336226989
 20
2.7463974194
 30
0.0
 10
28.6336226989
 20
2.7463974194
 30
0.0
 10
28.6336226989
 20
2.7463974194
 30
0.0
 10
28.6336226989
 20
2.8681987097
 30
0.0
 10
28.6336226989
 20
2.8681987097
 30
0.0
 10
28.6336226989
 20
2.8681987097
 30
0.0
 10
28.7554239893
 20
2.8681987097
 30
0.0
 10
28.7554239893
 20
2.8681987097
 30
0.0
  0
SPLINE
  5
35A
100
AcDbEntity
  8
0
100
AcDbSpline
 62
2
  6
CONTINUOUS
 70
2
 71
3
 72
17
 73
13
 74
0
 42
0.0000001
 43
0.0000001
 44
0.0000000001
 40
0.0
 40
0.0
 40
0.0
 40
0.0
 40
1.0
 40
1.0
 40
1.0
 40
2.0
 40
2.0
 40
2.0
 40
3.0
 40
3.0
 40
3.0
 40
4.0
 40
4.0
 40
4.0
 40
4.0
 10
29.0662272818
 20
2.8681987097
 30
0.0
 10
29.0662272818
 20
2.8681987097
 30
0.0
 10
29.0662272818
 20
2.5027948387
 30
0.0
 10
29.0662272818
 20
2.5027948387
 30
0.0
 10
28.9979876489
 20
2.5027948387
 30
0.0
 10
28.9444259915
 20
2.5587585684
 30
0.0
 10
28.9444259915
 20
2.624596129
 30
0.0
 10
28.9444259915
 20
2.624596129
 30
0.0
 10
28.9444259915
 20
2.8681987097
 30
0.0
 10
28.9444259915
 20
2.8681987097
 30
0.0
 10
28.9444259915
 20
2.8681987097
 30
0.0
 10
29.0662272818
 20
2.8681987097
 30
0.0
 10
29.0662272818
 20
2.8681987097
 30
0.0
  0
MTEXT
  5
35B
100
AcDbEntity
  8
0
100
AcDbMText
 62
7
  6
CONTINUOUS
  7
TEXTSTYLE_2
 71
1
 72
1
 10
28.5128201183
 20
1.076392
 30
0.0
 11
1.0
 21
0.0
 31
0.0
 73
2
 44
0.9
  1
D  
 40
0.25
 41
0.75
  0
MTEXT
  5
35C
100
AcDbEntity
  8
0
100
AcDbMText
 62
2
  6
CONTINUOUS
  7
TEXTSTYLE_3
 71
2
 72
1
 10
26.9798830539
 20
2.9459335442
 30
0.0
 11
1.0
 21
0.0
 31
0.0
 73
2
 44
0.9
  1
UNLESS OTHERWISE SPECIFIED
 40
0.1
 41
2.34
  0
MTEXT
  5
35D
100
AcDbEntity
  8
0
100
AcDbMText
 62
2
  6
CONTINUOUS
  7
TEXTSTYLE_3
 71
2
 72
1
 10
26.9798830539
 20
2.7959335442
 30
0.0
 11
1.0
 21
0.0
 31
0.0
 73
2
 44
0.9
  1
DIMENSIONS ARE IN MILLIMETERS
 40
0.1
 41
2.61
  0
MTEXT
  5
35E
100
AcDbEntity
  8
0
100
AcDbMText
 62
2
  6
CONTINUOUS
  7
TEXTSTYLE_3
 71
2
 72
1
 10
26.9798830539
 20
2.6459335442
 30
0.0
 11
1.0
 21
0.0
 31
0.0
 73
2
 44
0.9
  1
AND [INCHES]
 40
0.1
 41
1.08
  0
MTEXT
  5
35F
100
AcDbEntity
  8
0
100
AcDbMText
 62
7
  6
CONTINUOUS
  7
STANDARD
 71
2
 72
1
 10
26.9126690209
 20
2.1548871745
 30
0.0
 11
1.0
 21
0.0
 31
0.0
 73
2
 44
0.9
  1
DO NOT SCALE DRAWING
 40
0.135
 41
2.16
  0
MTEXT
  5
360
100
AcDbEntity
  8
0
100
AcDbMText
 62
2
  6
CONTINUOUS
  7
TEXTSTYLE_3
 71
1
 72
1
 10
28.8949153474
 20
1.211478854
 30
0.0
 11
1.0
 21
0.0
 31
0.0
 73
2
 44
0.9
  1
CODE IDENT NO.
 40
0.1
 41
1.26
  0
MTEXT
  5
361
100
AcDbEntity
  8
0
100
AcDbMText
 62
2
  6
CONTINUOUS
  7
TEXTSTYLE_2
 71
1
 72
1
 10
30.1721207939
 20
1.2121142196
 30
0.0
 11
1.0
 21
0.0
 31
0.0
 73
2
 44
0.9
  1
MM/DD/YYYY
 40
0.1
 41
1.0
  0
MTEXT
  5
362
100
AcDbEntity
  8
0
100
AcDbMText
 62
2
  6
CONTINUOUS
  7
TEXTSTYLE_2
 71
1
 72
1
 10
28.4163775038
 20
0.6806405367
 30
0.0
 11
1.0
 21
0.0
 31
0.0
 73
2
 44
0.9
  1
SCALE:
 40
0.1
 41
0.6
  0
MTEXT
  5
363
100
AcDbEntity
  8
0
100
AcDbMText
 62
2
  6
CONTINUOUS
  7
TEXTSTYLE_2
 71
1
 72
1
 10
31.795729281
 20
2.5990045578
 30
0.0
 11
1.0
 21
0.0
 31
0.0
 73
2
 44
0.9
  1
AUSTIN, TEXAS
 40
0.12
 41
1.56
  0
MTEXT
  5
364
100
AcDbEntity
  8
0
100
AcDbMText
 62
2
  6
CONTINUOUS
  7
TEXTSTYLE_2
 71
1
 72
1
 10
31.8499085283
 20
0.6557202961
 30
0.0
 11
1.0
 21
0.0
 31
0.0
 73
2
 44
0.9
  1
SHEET   OF
 40
0.1
 41
1.0
  0
MTEXT
  5
365
100
AcDbEntity
  8
0
100
AcDbMText
 62
2
  6
CONTINUOUS
  7
TEXTSTYLE_2
 71
1
 72
1
 10
33.593902659
 20
2.8727520806
 30
0.0
 11
1.0
 21
0.0
 31
0.0
 73
2
 44
0.9
  1
A
 40
0.25
 41
0.25
  0
MTEXT
  5
366
100
AcDbEntity
  8
0
100
AcDbMText
 62
2
  6
CONTINUOUS
  7
TEXTSTYLE_2
 71
1
 72
1
 10
33.6006006123
 20
8.3845383938
 30
0.0
 11
1.0
 21
0.0
 31
0.0
 73
2
 44
0.9
  1
B
 40
0.25
 41
0.25
  0
MTEXT
  5
367
100
AcDbEntity
  8
0
100
AcDbMText
 62
2
  6
CONTINUOUS
  7
TEXTSTYLE_2
 71
1
 72
1
 10
33.6003957182
 20
13.8767256176
 30
0.0
 11
1.0
 21
0.0
 31
0.0
 73
2
 44
0.9
  1
C
 40
0.25
 41
0.25
  0
MTEXT
  5
368
100
AcDbEntity
  8
0
100
AcDbMText
 62
2
  6
CONTINUOUS
  7
TEXTSTYLE_2
 71
1
 72
1
 10
33.5946928338
 20
19.3736371434
 30
0.0
 11
1.0
 21
0.0
 31
0.0
 73
2
 44
0.9
  1
D
 40
0.25
 41
0.25
  0
MTEXT
  5
369
100
AcDbEntity
  8
0
100
AcDbMText
 62
2
  6
CONTINUOUS
  7
TEXTSTYLE_2
 71
1
 72
1
 10
0.1540710468
 20
2.8760716972
 30
0.0
 11
1.0
 21
0.0
 31
0.0
 73
2
 44
0.9
  1
A
 40
0.25
 41
0.25
  0
MTEXT
  5
36A
100
AcDbEntity
  8
0
100
AcDbMText
 62
2
  6
CONTINUOUS
  7
TEXTSTYLE_2
 71
1
 72
1
 10
0.1483681623
 20
8.3757151436
 30
0.0
 11
1.0
 21
0.0
 31
0.0
 73
2
 44
0.9
  1
B
 40
0.25
 41
0.25
  0
MTEXT
  5
36B
100
AcDbEntity
  8
0
100
AcDbMText
 62
2
  6
CONTINUOUS
  7
TEXTSTYLE_2
 71
1
 72
1
 10
0.1508268909
 20
13.8746190506
 30
0.0
 11
1.0
 21
0.0
 31
0.0
 73
2
 44
0.9
  1
C
 40
0.25
 41
0.25
  0
MTEXT
  5
36C
100
AcDbEntity
  8
0
100
AcDbMText
 62
2
  6
CONTINUOUS
  7
TEXTSTYLE_2
 71
1
 72
1
 10
0.1424262348
 20
19.3750020366
 30
0.0
 11
1.0
 21
0.0
 31
0.0
 73
2
 44
0.9
  1
D
 40
0.25
 41
0.25
  0
MTEXT
  5
36D
100
AcDbEntity
  8
0
100
AcDbMText
 62
2
  6
CONTINUOUS
  7
TEXTSTYLE_2
 71
1
 72
1
 10
2.0074060538
 20
0.3791132463
 30
0.0
 11
1.0
 21
0.0
 31
0.0
 73
2
 44
0.9
  1
8
 40
0.25
 41
0.25
  0
MTEXT
  5
36E
100
AcDbEntity
  8
0
100
AcDbMText
 62
2
  6
CONTINUOUS
  7
TEXTSTYLE_2
 71
1
 72
1
 10
6.2552695597
 20
0.378660772
 30
0.0
 11
1.0
 21
0.0
 31
0.0
 73
2
 44
0.9
  1
7
 40
0.25
 41
0.25
  0
MTEXT
  5
36F
100
AcDbEntity
  8
0
100
AcDbMText
 62
2
  6
CONTINUOUS
  7
TEXTSTYLE_2
 71
1
 72
1
 10
10.5032696616
 20
0.3784345348
 30
0.0
 11
1.0
 21
0.0
 31
0.0
 73
2
 44
0.9
  1
6
 40
0.25
 41
0.25
  0
MTEXT
  5
370
100
AcDbEntity
  8
0
100
AcDbMText
 62
2
  6
CONTINUOUS
  7
TEXTSTYLE_2
 71
1
 72
1
 10
14.7540358332
 20
0.3762159164
 30
0.0
 11
1.0
 21
0.0
 31
0.0
 73
2
 44
0.9
  1
5
 40
0.25
 41
0.25
  0
MTEXT
  5
371
100
AcDbEntity
  8
0
100
AcDbMText
 62
2
  6
CONTINUOUS
  7
TEXTSTYLE_2
 71
1
 72
1
 10
18.9883763316
 20
0.386917362
 30
0.0
 11
1.0
 21
0.0
 31
0.0
 73
2
 44
0.9
  1
4
 40
0.25
 41
0.25
  0
MTEXT
  5
372
100
AcDbEntity
  8
0
100
AcDbMText
 62
2
  6
CONTINUOUS
  7
TEXTSTYLE_2
 71
1
 72
1
 10
23.2555340275
 20
0.3710391401
 30
0.0
 11
1.0
 21
0.0
 31
0.0
 73
2
 44
0.9
  1
3
 40
0.25
 41
0.25
  0
MTEXT
  5
373
100
AcDbEntity
  8
0
100
AcDbMText
 62
2
  6
CONTINUOUS
  7
TEXTSTYLE_2
 71
1
 72
1
 10
27.5035341294
 20
0.3762767443
 30
0.0
 11
1.0
 21
0.0
 31
0.0
 73
2
 44
0.9
  1
2
 40
0.25
 41
0.25
  0
MTEXT
  5
374
100
AcDbEntity
  8
0
100
AcDbMText
 62
2
  6
CONTINUOUS
  7
TEXTSTYLE_2
 71
1
 72
1
 10
31.7706235273
 20
0.3889705712
 30
0.0
 11
1.0
 21
0.0
 31
0.0
 73
2
 44
0.9
  1
1
 40
0.25
 41
0.25
  0
MTEXT
  5
375
100
AcDbEntity
  8
0
100
AcDbMText
 62
2
  6
CONTINUOUS
  7
TEXTSTYLE_2
 71
1
 72
1
 10
31.7781363093
 20
21.8825915007
 30
0.0
 11
1.0
 21
0.0
 31
0.0
 73
2
 44
0.9
  1
1
 40
0.25
 41
0.25
  0
MTEXT
  5
376
100
AcDbEntity
  8
0
100
AcDbMText
 62
2
  6
CONTINUOUS
  7
TEXTSTYLE_2
 71
1
 72
1
 10
27.5025096592
 20
21.8761618827
 30
0.0
 11
1.0
 21
0.0
 31
0.0
 73
2
 44
0.9
  1
2
 40
0.25
 41
0.25
  0
MTEXT
  5
377
100
AcDbEntity
  8
0
100
AcDbMText
 62
2
  6
CONTINUOUS
  7
TEXTSTYLE_2
 71
1
 72
1
 10
23.2569682859
 20
21.8759356455
 30
0.0
 11
1.0
 21
0.0
 31
0.0
 73
2
 44
0.9
  1
3
 40
0.25
 41
0.25
  0
MTEXT
  5
378
100
AcDbEntity
  8
0
100
AcDbMText
 62
2
  6
CONTINUOUS
  7
TEXTSTYLE_2
 71
1
 72
1
 10
18.9977331601
 20
21.8777017895
 30
0.0
 11
1.0
 21
0.0
 31
0.0
 73
2
 44
0.9
  1
4
 40
0.25
 41
0.25
  0
MTEXT
  5
379
100
AcDbEntity
  8
0
100
AcDbMText
 62
2
  6
CONTINUOUS
  7
TEXTSTYLE_2
 71
1
 72
1
 10
14.7576556282
 20
21.8747436316
 30
0.0
 11
1.0
 21
0.0
 31
0.0
 73
2
 44
0.9
  1
5
 40
0.25
 41
0.25
  0
MTEXT
  5
37A
100
AcDbEntity
  8
0
100
AcDbMText
 62
2
  6
CONTINUOUS
  7
TEXTSTYLE_2
 71
1
 72
1
 10
10.5011865721
 20
21.8772493152
 30
0.0
 11
1.0
 21
0.0
 31
0.0
 73
2
 44
0.9
  1
6
 40
0.25
 41
0.25
  0
MTEXT
  5
37B
100
AcDbEntity
  8
0
100
AcDbMText
 62
2
  6
CONTINUOUS
  7
TEXTSTYLE_2
 71
1
 72
1
 10
6.2556451988
 20
21.8742911573
 30
0.0
 11
1.0
 21
0.0
 31
0.0
 73
2
 44
0.9
  1
7
 40
0.25
 41
0.25
  0
MTEXT
  5
37C
100
AcDbEntity
  8
0
100
AcDbMText
 62
2
  6
CONTINUOUS
  7
TEXTSTYLE_2
 71
1
 72
1
 10
2.0046399841
 20
21.8713329994
 30
0.0
 11
1.0
 21
0.0
 31
0.0
 73
2
 44
0.9
  1
8
 40
0.25
 41
0.25
  0
MTEXT
  5
37D
100
AcDbEntity
  8
0
100
AcDbMText
 62
2
  6
CONTINUOUS
  7
TEXTSTYLE_2
 71
1
 72
1
 10
28.4379458131
 20
1.2118103999
 30
0.0
 11
1.0
 21
0.0
 31
0.0
 73
2
 44
0.9
  1
SIZE
 40
0.1
 41
0.4
  0
MTEXT
  5
37E
100
AcDbEntity
  8
0
100
AcDbMText
 62
7
  6
CONTINUOUS
  7
TEXTSTYLE_2
 71
1
 72
1
 10
28.892849165
 20
1.0744680557
 30
0.0
 11
1.0
 21
0.0
 31
0.0
 73
2
 44
0.9
  1
7U296
 40
0.25
 41
1.25
  0
MTEXT
  5
37F
100
AcDbEntity
  8
0
100
AcDbMText
 62
2
  6
CONTINUOUS
  7
TEXTSTYLE_2
 71
1
 72
1
 10
28.8397014127
 20
2.3397236198
 30
0.0
 11
1.0
 21
0.0
 31
0.0
 73
2
 44
0.9
  1
TITLE
 40
0.1
 41
0.5
  0
MTEXT
  5
380
100
AcDbEntity
  8
0
100
AcDbMText
 62
2
  6
CONTINUOUS
  7
STANDARD
 71
2
 72
1
 10
26.9296025987
 20
1.9367670323
 30
0.0
 11
1.0
 21
0.0
 31
0.0
 73
2
 44
0.9
  1
THIRD ANGLE PROJECTION
 40
0.12
 41
2.112
  0
MTEXT
  5
381
100
AcDbEntity
  8
0
100
AcDbMText
 62
2
  6
CONTINUOUS
  7
TEXTSTYLE_2
 71
1
 72
1
 10
0.9071219317
 20
21.1911200323
 30
0.0
 11
1.0
 21
0.0
 31
0.0
 73
2
 44
0.9
  1
NATIONAL INSTRUMENTS CORPORATION AND ITS LICENSORS.  ALL RIGHTS RESERVED.
 40
0.1
 41
7.3
  0
MTEXT
  5
382
100
AcDbEntity
  8
0
100
AcDbMText
 62
2
  6
CONTINUOUS
  7
TEXTSTYLE_2
 71
1
 72
1
 10
1.5989790276
 20
21.4388266879
 30
0.0
 11
1.0
 21
0.0
 31
0.0
 73
2
 44
0.9
  1
c
 40
0.1
 41
0.1
  0
MTEXT
  5
383
100
AcDbEntity
  8
0
100
AcDbMText
 62
7
  6
CONTINUOUS
  7
STANDARD
 71
2
 72
1
 10
30.8688049939
 20
3.3481471328
 30
0.0
 11
1.0
 21
0.0
 31
0.0
 73
2
 44
0.9
  1
CUSTOMER DRAWING
 40
0.19
 41
2.432
  0
MTEXT
  5
384
100
AcDbEntity
  8
0
100
AcDbMText
 62
2
  6
CONTINUOUS
  7
TEXTSTYLE_2
 71
1
 72
1
 10
31.795729281
 20
2.5990045578
 30
0.0
 11
1.0
 21
0.0
 31
0.0
 73
2
 44
0.9
  1
AUSTIN, TEXAS
 40
0.12
 41
1.56
  0
MTEXT
  5
385
100
AcDbEntity
  8
0
100
AcDbMText
 62
2
  6
CONTINUOUS
  7
TEXTSTYLE_2
 71
1
 72
1
 10
32.645729281
 20
2.9240045578
 30
0.0
 11
1.0
 21
0.0
 31
0.0
 73
2
 44
0.9
  1
NI.COM
 40
0.12
 41
0.72
  0
INSERT
  5
386
100
AcDbEntity
  8
0
100
AcDbBlockReference
 62
2
  6
CONTINUOUS
  2
CUSTOM_NOTE_BL0
 10
3.6250529031
 20
1.3123857822
  0
INSERT
  5
387
100
AcDbEntity
  8
0
100
AcDbBlockReference
 62
2
  6
CONTINUOUS
  2
METRIC_BL1
 10
26.9779212774
 20
3.2618725197
  0
DIMENSION
  5
388
100
AcDbEntity
  8
DIMENSIONS
100
AcDbDimension
 62
2
  6
CONTINUOUS
  2
*D0
 10
28.2648096983
 20
6.8950423521
 11
28.2648096983
 21
7.822995108
 70
160
 71
2
 72
2
 41
0.9
 42
47.14
  3
DIMSTYLE_1
100
AcDbAlignedDimension
 13
26.636664029
 23
8.750947864
 14
26.636664029
 24
6.8950423521
 50
270.0
100
AcDbRotatedDimension
  0
DIMENSION
  5
389
100
AcDbEntity
  8
DIMENSIONS
100
AcDbDimension
 62
2
  6
CONTINUOUS
  2
*D1
 10
24.6557545802
 20
5.4209887264
 11
28.2115859715
 21
5.4209887264
 70
160
 71
1
 72
2
 41
0.9
 42
47.14
  3
DIMSTYLE_1
100
AcDbAlignedDimension
 13
26.511660092
 23
6.7700384151
 14
24.6557545802
 24
6.7700384151
 50
180.0
100
AcDbRotatedDimension
  0
DIMENSION
  5
38A
100
AcDbEntity
  8
DIMENSIONS
100
AcDbDimension
 62
2
  6
CONTINUOUS
  2
*D2
 10
26.7648096983
 20
5.8918927458
 11
27.9512046479
 21
5.8918927458
 70
160
 71
1
 72
2
 41
0.9
 42
60.0
  1
<> MAX
  3
DIMSTYLE_2
100
AcDbAlignedDimension
 13
24.4026049739
 23
6.7678769978
 14
26.7648096983
 24
6.7678769978
100
AcDbRotatedDimension
  0
DIMENSION
  5
38B
100
AcDbEntity
  8
DIMENSIONS
100
AcDbDimension
 62
2
  6
CONTINUOUS
  2
*D3
 10
29.7648096983
 20
9.0040974703
 11
29.7648096983
 21
8.1589287226
 70
160
 71
2
 72
2
 41
0.9
 42
60.0
  1
<> MAX
  3
DIMSTYLE_2
100
AcDbAlignedDimension
 13
26.6388254464
 23
6.6418927458
 14
26.6388254464
 24
9.0040974703
 50
90.0
100
AcDbRotatedDimension
  0
DIMENSION
  5
38C
100
AcDbEntity
  8
DIMENSIONS
100
AcDbDimension
 62
2
  6
CONTINUOUS
  2
*D4
 10
24.9502785346
 20
7.421413294
 11
22.5096130497
 21
6.6802902745
 70
163
 71
3
 72
2
 41
0.9
 42
38.1
  1
%%c<>
  3
DIMSTYLE_3
100
AcDbDiametricDimension
 15
26.2171361377
 25
8.2245769221
  0
DIMENSION
  5
38D
100
AcDbEntity
  8
DIMENSIONS
100
AcDbDimension
 62
2
  6
CONTINUOUS
  2
*D5
 10
24.5835803479
 20
8.8178687095
 11
22.4438160691
 21
9.5725556012
 70
163
 71
3
 72
2
 41
0.9
 42
5.0
  1
4X %%c<>
  3
DIMSTYLE_4
100
AcDbDiametricDimension
 15
24.7279288126
 25
8.6840270184
  0
DIMENSION
  5
38E
100
AcDbEntity
  8
DIMENSIONS
100
AcDbDimension
 62
2
  6
CONTINUOUS
  2
*D6
 10
26.587644344
 20
10.9942549506
 11
25.5837073361
 21
10.9942549506
 70
160
 71
2
 72
2
 41
0.9
 42
51.0
  1
<> MAX
  3
DIMSTYLE_2
100
AcDbAlignedDimension
 13
24.5797703283
 23
9.5474045569
 14
26.587644344
 24
9.5474045569
100
AcDbRotatedDimension
  0
DIMENSION
  5
38F
100
AcDbEntity
  8
DIMENSIONS
100
AcDbDimension
 62
2
  6
CONTINUOUS
  2
*D7
 10
23.6526049739
 20
7.980475423
 11
22.4642716406
 21
8.3765946558
 70
160
 71
3
 72
2
 41
0.9
 42
7.5
  3
DIMSTYLE_5
100
AcDbAlignedDimension
 13
25.5074675065
 23
7.6851998325
 14
25.5837073361
 24
7.980475423
 50
90.0
100
AcDbRotatedDimension
  0
DIMENSION
  5
390
100
AcDbEntity
  8
DIMENSIONS
100
AcDbDimension
 62
2
  6
CONTINUOUS
  2
*D8
 10
17.9256264222
 20
7.980475423
 11
19.2181264222
 21
8.830475423
 70
160
 71
1
 72
2
 41
0.9
 42
8.0
  3
DIMSTYLE_6
100
AcDbAlignedDimension
 13
16.5850752411
 23
7.6655147931
 14
17.1756264222
 24
7.980475423
 50
90.0
100
AcDbRotatedDimension
  0
DIMENSION
  5
391
100
AcDbEntity
  8
DIMENSIONS
100
AcDbDimension
 62
2
  6
CONTINUOUS
  2
*D9
 10
16.089012249
 20
5.8918927458
 11
14.7380676589
 21
5.8918927458
 70
160
 71
3
 72
2
 41
0.9
 42
7.0
  3
DIMSTYLE_7
100
AcDbAlignedDimension
 13
16.3646028001
 23
6.6418927458
 14
16.089012249
 24
6.6418927458
 50
180.0
100
AcDbRotatedDimension
  0
DIMENSION
  5
392
100
AcDbEntity
  8
DIMENSIONS
100
AcDbDimension
 62
2
  6
CONTINUOUS
  2
*D10
 10
11.4197209104
 20
5.1418927458
 11
13.8921618553
 21
5.1418927458
 70
160
 71
2
 72
2
 41
0.9
 42
125.6
  3
DIMSTYLE_8
100
AcDbAlignedDimension
 13
16.3646028001
 23
6.6418927458
 14
11.4197209104
 24
6.7678769978
 50
180.0
100
AcDbRotatedDimension
  0
DIMENSION
  5
393
100
AcDbEntity
  8
DIMENSIONS
100
AcDbDimension
 62
2
  6
CONTINUOUS
  2
*D11
 10
16.5850752411
 20
10.9942549506
 11
18.4494651537
 21
10.9942549506
 70
160
 71
1
 72
2
 41
0.9
 42
15.0
  3
DIMSTYLE_9
100
AcDbAlignedDimension
 13
17.1756264222
 23
7.980475423
 14
16.5850752411
 24
7.6851998325
 50
180.0
100
AcDbRotatedDimension
  0
DIMENSION
  5
394
100
AcDbEntity
  8
DIMENSIONS
100
AcDbDimension
 62
2
  6
CONTINUOUS
  2
*D12
 10
16.3646028001
 20
11.7442549506
 11
15.157920038
 21
11.7442549506
 70
160
 71
3
 72
2
 41
0.9
 42
1.5
  3
DIMSTYLE_9
100
AcDbAlignedDimension
 13
16.4236579182
 23
8.572995108
 14
16.3646028001
 24
9.0040974703
 50
180.0
100
AcDbRotatedDimension
  0
DIMENSION
  5
395
100
AcDbEntity
  8
DIMENSIONS
100
AcDbDimension
 62
2
  6
CONTINUOUS
  2
*D13
 10
16.3646028001
 20
12.4942549506
 11
18.6240247603
 21
12.4942549506
 70
160
 71
1
 72
2
 41
0.9
 42
20.6
  3
DIMSTYLE_9
100
AcDbAlignedDimension
 13
17.1756264222
 23
7.980475423
 14
16.3646028001
 24
9.0040974703
 50
180.0
100
AcDbRotatedDimension
  0
DIMENSION
  5
396
100
AcDbEntity
  8
DIMENSIONS
100
AcDbDimension
 62
2
  6
CONTINUOUS
  2
*D14
 10
16.3646028001
 20
12.4942549506
 11
15.2819256348
 21
12.4942549506
 70
160
 71
2
 72
2
 41
0.9
 42
55.0
  1
<> MAX
  3
DIMSTYLE_10
100
AcDbAlignedDimension
 13
14.1992484694
 23
9.5474045569
 14
16.3646028001
 24
9.0040974703
100
AcDbRotatedDimension
  0
DIMENSION
  5
397
100
AcDbEntity
  8
DIMENSIONS
100
AcDbDimension
 62
2
  6
CONTINUOUS
  2
*D15
 10
10.6697209104
 20
9.6733888088
 11
10.6697209104
 21
8.1576407773
 70
160
 71
2
 72
2
 41
0.9
 42
77.0
  3
DIMSTYLE_10
100
AcDbAlignedDimension
 13
11.5457051623
 23
6.6418927458
 14
11.5457051623
 24
9.6733888088
 50
90.0
100
AcDbRotatedDimension
  0
ACAD_TABLE
  5
398
100
AcDbEntity
  8
0
 62
2
  6
CONTINUOUS
100
AcDbBlockReference
  2
*T1
 10
0.5000296033
 20
21.5000049067
 30
0.0
100
AcDbTable
342
       812
343
21E
 11
1.0
 21
0.0
 31
0.0
 90
22
 91
1
 92
1
 93
0
 94
0
 95
0
 96
0
141
0.546875
142
7.75
171
1
172
0
173
0
174
0
175
1
176
1
 91
33
178
0
145
0.0
301
CELL_VALUE
 90
4
  1
  COPYRIGHT    2014, 2023
304
ACVALUE_END
170
1
140
0.1
  0
ACAD_TABLE
  5
399
100
AcDbEntity
  8
0
 62
2
  6
CONTINUOUS
100
AcDbBlockReference
  2
*T2
 10
30.1300200419
 20
1.2498940716
 30
0.0
100
AcDbTable
342
       812
343
21F
 11
1.0
 21
0.0
 31
0.0
 90
22
 91
1
 92
2
 93
0
 94
0
 95
0
 96
0
141
0.5
142
2.85
142
0.51
171
1
172
0
173
0
174
0
175
2
176
1
 91
41
178
0
145
0.0
301
CELL_VALUE
 90
4
  1
05/18/2023
304
ACVALUE_END
170
8
140
0.25
 64
7
171
1
172
0
173
1
174
0
175
1
176
1
 91
1
178
0
145
0.0
170
1
  0
ACAD_TABLE
  5
39A
100
AcDbEntity
  8
0
 62
2
  6
CONTINUOUS
100
AcDbBlockReference
  2
*T3
 10
28.379544727
 20
0.7500366647
 30
0.0
100
AcDbTable
342
       812
343
220
 11
1.0
 21
0.0
 31
0.0
 90
22
 91
1
 92
1
 93
16
 94
0
 95
0
 96
0
 41
0.0375
141
0.25
142
1.36
171
1
172
0
173
0
174
0
175
1
176
1
 91
41
178
0
145
0.0
301
CELL_VALUE
 90
4
  1
1/1
304
ACVALUE_END
170
6
140
0.15625
 64
7
  0
ACAD_TABLE
  5
39B
100
AcDbEntity
  8
0
 62
2
  6
CONTINUOUS
100
AcDbBlockReference
  2
*T4
 10
31.7500200395
 20
0.7499999964
 30
0.0
100
AcDbTable
342
       812
343
221
 11
1.0
 21
0.0
 31
0.0
 90
22
 91
1
 92
1
 93
16
 94
0
 95
0
 96
0
 41
0.0375
141
0.25
142
1.75
171
1
172
0
173
0
174
0
175
1
176
1
 91
41
178
0
145
0.0
301
CELL_VALUE
 90
4
  1
     1   1
304
ACVALUE_END
170
4
140
0.15625
 64
7
  0
ACAD_TABLE
  5
39C
100
AcDbEntity
  8
0
 62
2
  6
CONTINUOUS
100
AcDbBlockReference
  2
*T5
 10
28.3793047516
 20
3.0003324152
 30
0.0
100
AcDbTable
342
       812
343
222
 11
1.0
 21
0.0
 31
0.0
 90
22
 91
2
 92
6
 93
0
 94
0
 95
0
 96
0
141
0.78
141
0.97
142
0.5
142
0.86
142
0.42
142
1.6
142
1.25
142
0.5
171
1
172
0
173
0
174
0
175
6
176
1
 91
33
178
0
145
0.0
301
CELL_VALUE
 90
4
  1
 
304
ACVALUE_END
170
1
140
0.15625
171
1
172
0
173
1
174
0
175
1
176
1
 91
1
178
0
145
0.0
170
1
171
1
172
0
173
1
174
0
175
1
176
1
 91
1
178
0
145
0.0
170
1
171
1
172
0
173
1
174
0
175
1
176
1
 91
1
178
0
145
0.0
170
1
171
1
172
0
173
1
174
0
175
1
176
1
 91
1
178
0
145
0.0
170
1
171
1
172
0
173
1
174
0
175
1
176
1
 91
1
178
0
145
0.0
170
1
171
1
172
0
173
0
174
0
175
6
176
1
 91
41
178
0
145
0.0
301
CELL_VALUE
 90
4
  1
ISM-7413\P 
304
ACVALUE_END
170
5
140
0.2
 64
7
171
1
172
0
173
1
174
0
175
1
176
1
 91
1
178
0
145
0.0
170
1
171
1
172
0
173
1
174
0
175
1
176
1
 91
1
178
0
145
0.0
170
1
171
1
172
0
173
1
174
0
175
1
176
1
 91
1
178
0
145
0.0
170
1
171
1
172
0
173
1
174
0
175
1
176
1
 91
1
178
0
145
0.0
170
1
171
1
172
0
173
1
174
0
175
1
176
1
 91
1
178
0
145
0.0
170
1
  0
ACAD_TABLE
  5
39D
100
AcDbEntity
  8
0
 62
2
  6
CONTINUOUS
100
AcDbBlockReference
  2
*T6
 10
32.49526534
 20
0.501677764
 30
0.0
100
AcDbTable
342
       812
343
223
 11
1.0
 21
0.0
 31
0.0
 90
22
 91
1
 92
1
 93
16
 94
0
 95
0
 96
0
 41
0.0
141
0.0005
142
1.0
171
1
172
0
173
0
174
0
175
1
176
1
 91
33
178
0
145
0.0
301
CELL_VALUE
 90
4
  1
CU_ISM-7413
304
ACVALUE_END
170
3
140
0.1
  0
MTEXT
  5
39E
100
AcDbEntity
  8
DETAIL
100
AcDbMText
 62
2
  6
CONTINUOUS
  7
STANDARD
 71
1
 72
1
 10
4.5666909727
 20
13.7827827484
 30
0.0
 11
1.0
 21
0.0
 31
0.0
 73
2
 44
0.9
  1
ISOMETRIC VIEW
 40
0.1875
 41
2.1
  0
INSERT
  5
39F
100
AcDbEntity
  8
DETAIL
100
AcDbBlockReference
 62
2
  6
CONTINUOUS
  2
NOTES_HEADER_BL2
 10
3.1215
 20
0.9375
  0
INSERT
  5
3A0
100
AcDbEntity
  8
DETAIL
100
AcDbBlockReference
 62
2
  6
CONTINUOUS
  2
CUSTOM_NOTE_BL3
 10
3.3250529031
 20
1.78125
  0
INSERT
  5
3A1
100
AcDbEntity
  8
DETAIL
100
AcDbBlockReference
 62
2
  6
CONTINUOUS
  2
CUSTOM_NOTE_BL4
 10
4.0750529031
 20
2.53125
  0
INSERT
  5
3A2
100
AcDbEntity
  8
DETAIL
100
AcDbBlockReference
 62
2
  6
CONTINUOUS
  2
CUSTOM_NOTE_BL5
 10
3.3750529031
 20
3.46875
  0
LWPOLYLINE
  5
3A3
100
AcDbEntity
  8
0
100
AcDbPolyline
 62
7
  6
CONTINUOUS
 90
2
 70
0
 43
0.0200000008
 10
0.5000201183
 20
21.5
 10
0.5000201183
 20
0.5
  0
LINE
  5
3A4
100
AcDbEntity
  8
0
100
AcDbLine
 62
2
  6
CONTINUOUS
 10
4.2000201183
 20
21.5
 11
4.2000201183
 21
22.0
  0
LINE
  5
3A5
100
AcDbEntity
  8
0
100
AcDbLine
 62
2
  6
CONTINUOUS
 10
4.2500201183
 20
0.0
 11
4.2500201183
 21
0.5
  0
LINE
  5
3A6
100
AcDbEntity
  8
0
100
AcDbLine
 62
7
  6
CONTINUOUS
 10
27.1330611673
 20
1.230030563
 11
27.5725525095
 21
1.3427740739
  0
LINE
  5
3A7
100
AcDbEntity
  8
0
100
AcDbLine
 62
2
  6
CONTINUOUS
 10
16.9020341183
 20
0.330283
 11
17.0980061183
 21
0.330283
  0
LINE
  5
3A8
100
AcDbEntity
  8
0
100
AcDbLine
 62
2
  6
CONTINUOUS
 10
16.9076441183
 20
0.34
 11
17.0923961183
 21
0.34
  0
LINE
  5
3A9
100
AcDbEntity
  8
0
100
AcDbLine
 62
2
  6
CONTINUOUS
 10
16.9134171183
 20
0.35
 11
17.0866231183
 21
0.35
  0
LINE
  5
3AA
100
AcDbEntity
  8
0
100
AcDbLine
 62
2
  6
CONTINUOUS
 10
16.9191911183
 20
0.36
 11
17.0808491183
 21
0.36
  0
LINE
  5
3AB
100
AcDbEntity
  8
0
100
AcDbLine
 62
2
  6
CONTINUOUS
 10
16.9249641183
 20
0.37
 11
17.0750761183
 21
0.37
  0
LINE
  5
3AC
100
AcDbEntity
  8
0
100
AcDbLine
 62
2
  6
CONTINUOUS
 10
16.9307381183
 20
0.38
 11
17.0693021183
 21
0.38
  0
LINE
  5
3AD
100
AcDbEntity
  8
0
100
AcDbLine
 62
2
  6
CONTINUOUS
 10
16.9365111183
 20
0.39
 11
17.0635291183
 21
0.39
  0
LINE
  5
3AE
100
AcDbEntity
  8
0
100
AcDbLine
 62
2
  6
CONTINUOUS
 10
16.9422851183
 20
0.4
 11
17.0577551183
 21
0.4
  0
LINE
  5
3AF
100
AcDbEntity
  8
0
100
AcDbLine
 62
2
  6
CONTINUOUS
 10
16.9480581183
 20
0.41
 11
17.0519821183
 21
0.41
  0
LINE
  5
3B0
100
AcDbEntity
  8
0
100
AcDbLine
 62
2
  6
CONTINUOUS
 10
16.9538321183
 20
0.42
 11
17.0462081183
 21
0.42
  0
LINE
  5
3B1
100
AcDbEntity
  8
0
100
AcDbLine
 62
2
  6
CONTINUOUS
 10
16.9596051183
 20
0.43
 11
17.0404351183
 21
0.43
  0
LINE
  5
3B2
100
AcDbEntity
  8
0
100
AcDbLine
 62
2
  6
CONTINUOUS
 10
16.9653791183
 20
0.44
 11
17.0346611183
 21
0.44
  0
LINE
  5
3B3
100
AcDbEntity
  8
0
100
AcDbLine
 62
2
  6
CONTINUOUS
 10
16.9711521183
 20
0.45
 11
17.0288881183
 21
0.45
  0
LINE
  5
3B4
100
AcDbEntity
  8
0
100
AcDbLine
 62
2
  6
CONTINUOUS
 10
16.9769261183
 20
0.46
 11
17.0231141183
 21
0.46
  0
LINE
  5
3B5
100
AcDbEntity
  8
0
100
AcDbLine
 62
2
  6
CONTINUOUS
 10
16.9826991183
 20
0.47
 11
17.0173411183
 21
0.47
  0
LINE
  5
3B6
100
AcDbEntity
  8
0
100
AcDbLine
 62
2
  6
CONTINUOUS
 10
16.9884731183
 20
0.48
 11
17.0115671183
 21
0.48
  0
LINE
  5
3B7
100
AcDbEntity
  8
0
100
AcDbLine
 62
2
  6
CONTINUOUS
 10
16.9942461183
 20
0.49
 11
17.0057941183
 21
0.49
  0
LWPOLYLINE
  5
3B8
100
AcDbEntity
  8
0
100
AcDbPolyline
 62
7
  6
CONTINUOUS
 90
2
 70
0
 43
0.0200000008
 10
0.5000201183
 20
0.5
 10
33.5000201183
 20
0.5
  0
LINE
  5
3B9
100
AcDbEntity
  8
0
100
AcDbLine
 62
2
  6
CONTINUOUS
 10
28.3800201183
 20
0.75
 11
33.5000201183
 21
0.75
  0
LINE
  5
3BA
100
AcDbEntity
  8
0
100
AcDbLine
 62
2
  6
CONTINUOUS
 10
26.3513961267
 20
1.125680627
 11
26.5390832054
 21
1.125680627
  0
LINE
  5
3BB
100
AcDbEntity
  8
0
100
AcDbLine
 62
2
  6
CONTINUOUS
 10
26.5703332353
 20
1.125680627
 11
26.632833295
 21
1.125680627
  0
LINE
  5
3BC
100
AcDbEntity
  8
0
100
AcDbLine
 62
2
  6
CONTINUOUS
 10
26.6640833249
 20
1.125680627
 11
27.2943384664
 21
1.125680627
  0
LINE
  5
3BD
100
AcDbEntity
  8
0
100
AcDbLine
 62
2
  6
CONTINUOUS
 10
27.3255884963
 20
1.125680627
 11
27.388088556
 21
1.125680627
  0
LINE
  5
3BE
100
AcDbEntity
  8
0
100
AcDbLine
 62
2
  6
CONTINUOUS
 10
27.4193385859
 20
1.125680627
 11
27.6350525693
 21
1.125680627
  0
LINE
  5
3BF
100
AcDbEntity
  8
0
100
AcDbLine
 62
2
  6
CONTINUOUS
 10
8.5000201183
 20
0.0
 11
8.5000201183
 21
0.5
  0
LINE
  5
3C0
100
AcDbEntity
  8
0
100
AcDbLine
 62
2
  6
CONTINUOUS
 10
8.5000201183
 20
21.5
 11
8.5000201183
 21
22.0
  0
LINE
  5
3C1
100
AcDbEntity
  8
0
100
AcDbLine
 62
2
  6
CONTINUOUS
 10
25.5800201183
 20
1.75
 11
28.3800201183
 21
1.75
  0
LINE
  5
3C2
100
AcDbEntity
  8
0
100
AcDbLine
 62
2
  6
CONTINUOUS
 10
25.5800201183
 20
2.0
 11
28.3800201183
 21
2.0
  0
LINE
  5
3C3
100
AcDbEntity
  8
0
100
AcDbLine
 62
2
  6
CONTINUOUS
 10
28.3800201183
 20
2.38
 11
33.5000201183
 21
2.38
  0
LINE
  5
3C4
100
AcDbEntity
  8
0
100
AcDbLine
 62
2
  6
CONTINUOUS
 10
28.6336226989
 20
2.5027948387
 11
28.5118214086
 21
2.5027948387
  0
LINE
  5
3C5
100
AcDbEntity
  8
0
100
AcDbLine
 62
2
  6
CONTINUOUS
 10
28.5118214086
 20
2.7463974194
 11
28.6336226989
 21
2.7463974194
  0
LWPOLYLINE
  5
3C6
100
AcDbEntity
  8
0
100
AcDbPolyline
 62
7
  6
CONTINUOUS
 90
2
 70
0
 43
0.0200000008
 10
25.5800201183
 20
3.0
 10
33.5000201183
 20
3.0
  0
LINE
  5
3C7
100
AcDbEntity
  8
0
100
AcDbLine
 62
7
  6
CONTINUOUS
 10
27.1330611673
 20
1.0199819329
 11
27.5725525095
 21
0.9085819585
  0
LINE
  5
3C8
100
AcDbEntity
  8
0
100
AcDbLine
 62
2
  6
CONTINUOUS
 10
17.0000201183
 20
21.5
 11
17.0980061183
 21
21.669717
  0
LINE
  5
3C9
100
AcDbEntity
  8
0
100
AcDbLine
 62
2
  6
CONTINUOUS
 10
0.0000201183
 20
5.5
 11
0.5000201183
 21
5.5
  0
LINE
  5
3CA
100
AcDbEntity
  8
0
100
AcDbLine
 62
2
  6
CONTINUOUS
 10
33.5000201183
 20
5.5
 11
34.0000201183
 21
5.5
  0
LINE
  5
3CB
100
AcDbEntity
  8
0
100
AcDbLine
 62
2
  6
CONTINUOUS
 10
17.0980061183
 20
0.330283
 11
17.0000201183
 21
0.5
  0
LINE
  5
3CC
100
AcDbEntity
  8
0
100
AcDbLine
 62
2
  6
CONTINUOUS
 10
12.7500201183
 20
0.0
 11
12.7500201183
 21
0.5
  0
LINE
  5
3CD
100
AcDbEntity
  8
0
100
AcDbLine
 62
2
  6
CONTINUOUS
 10
12.7500201183
 20
21.5
 11
12.7500201183
 21
22.0
  0
LINE
  5
3CE
100
AcDbEntity
  8
0
100
AcDbLine
 62
2
  6
CONTINUOUS
 10
17.0000201183
 20
0.0
 11
17.0000201183
 21
0.5
  0
LINE
  5
3CF
100
AcDbEntity
  8
0
100
AcDbLine
 62
2
  6
CONTINUOUS
 10
17.0000201183
 20
21.5
 11
17.0000201183
 21
22.0
  0
LINE
  5
3D0
100
AcDbEntity
  8
0
100
AcDbLine
 62
2
  6
CONTINUOUS
 10
0.3302841183
 20
10.91
 11
0.3441161183
 21
10.91
  0
LINE
  5
3D1
100
AcDbEntity
  8
0
100
AcDbLine
 62
2
  6
CONTINUOUS
 10
33.6559051183
 20
10.91
 11
33.6697371183
 21
10.91
  0
LINE
  5
3D2
100
AcDbEntity
  8
0
100
AcDbLine
 62
2
  6
CONTINUOUS
 10
0.3302841183
 20
10.92
 11
0.3614361183
 21
10.92
  0
LINE
  5
3D3
100
AcDbEntity
  8
0
100
AcDbLine
 62
2
  6
CONTINUOUS
 10
33.6385841183
 20
10.92
 11
33.6697371183
 21
10.92
  0
LINE
  5
3D4
100
AcDbEntity
  8
0
100
AcDbLine
 62
2
  6
CONTINUOUS
 10
0.3302841183
 20
10.93
 11
0.3787571183
 21
10.93
  0
LINE
  5
3D5
100
AcDbEntity
  8
0
100
AcDbLine
 62
2
  6
CONTINUOUS
 10
33.6212641183
 20
10.93
 11
33.6697371183
 21
10.93
  0
LINE
  5
3D6
100
AcDbEntity
  8
0
100
AcDbLine
 62
2
  6
CONTINUOUS
 10
0.3302841183
 20
10.94
 11
0.3960771183
 21
10.94
  0
LINE
  5
3D7
100
AcDbEntity
  8
0
100
AcDbLine
 62
2
  6
CONTINUOUS
 10
33.6039431183
 20
10.94
 11
33.6697371183
 21
10.94
  0
LINE
  5
3D8
100
AcDbEntity
  8
0
100
AcDbLine
 62
2
  6
CONTINUOUS
 10
0.3302841183
 20
10.95
 11
0.4133981183
 21
10.95
  0
LINE
  5
3D9
100
AcDbEntity
  8
0
100
AcDbLine
 62
2
  6
CONTINUOUS
 10
33.5866231183
 20
10.95
 11
33.6697371183
 21
10.95
  0
LINE
  5
3DA
100
AcDbEntity
  8
0
100
AcDbLine
 62
2
  6
CONTINUOUS
 10
0.3302841183
 20
10.96
 11
0.4307181183
 21
10.96
  0
LINE
  5
3DB
100
AcDbEntity
  8
0
100
AcDbLine
 62
2
  6
CONTINUOUS
 10
33.5693021183
 20
10.96
 11
33.6697371183
 21
10.96
  0
LINE
  5
3DC
100
AcDbEntity
  8
0
100
AcDbLine
 62
2
  6
CONTINUOUS
 10
0.3302841183
 20
10.97
 11
0.4480391183
 21
10.97
  0
LINE
  5
3DD
100
AcDbEntity
  8
0
100
AcDbLine
 62
2
  6
CONTINUOUS
 10
33.5519821183
 20
10.97
 11
33.6697371183
 21
10.97
  0
LINE
  5
3DE
100
AcDbEntity
  8
0
100
AcDbLine
 62
2
  6
CONTINUOUS
 10
0.3302841183
 20
10.98
 11
0.4653591183
 21
10.98
  0
LINE
  5
3DF
100
AcDbEntity
  8
0
100
AcDbLine
 62
2
  6
CONTINUOUS
 10
33.5346611183
 20
10.98
 11
33.6697371183
 21
10.98
  0
LINE
  5
3E0
100
AcDbEntity
  8
0
100
AcDbLine
 62
2
  6
CONTINUOUS
 10
0.3302841183
 20
10.99
 11
0.4826801183
 21
10.99
  0
LINE
  5
3E1
100
AcDbEntity
  8
0
100
AcDbLine
 62
2
  6
CONTINUOUS
 10
33.5173411183
 20
10.99
 11
33.6697371183
 21
10.99
  0
LINE
  5
3E2
100
AcDbEntity
  8
0
100
AcDbLine
 62
2
  6
CONTINUOUS
 10
0.5000001183
 20
11.0
 11
-0.0
 21
11.0000000184
  0
LINE
  5
3E3
100
AcDbEntity
  8
0
100
AcDbLine
 62
2
  6
CONTINUOUS
 10
34.0000201183
 20
11.0
 11
33.5000201183
 21
11.0
  0
LINE
  5
3E4
100
AcDbEntity
  8
0
100
AcDbLine
 62
2
  6
CONTINUOUS
 10
0.3302841183
 20
11.01
 11
0.4826801183
 21
11.01
  0
LINE
  5
3E5
100
AcDbEntity
  8
0
100
AcDbLine
 62
2
  6
CONTINUOUS
 10
33.5173411183
 20
11.01
 11
33.6697371183
 21
11.01
  0
LINE
  5
3E6
100
AcDbEntity
  8
0
100
AcDbLine
 62
2
  6
CONTINUOUS
 10
0.3302841183
 20
11.02
 11
0.4653591183
 21
11.02
  0
LINE
  5
3E7
100
AcDbEntity
  8
0
100
AcDbLine
 62
2
  6
CONTINUOUS
 10
33.5346611183
 20
11.02
 11
33.6697371183
 21
11.02
  0
LINE
  5
3E8
100
AcDbEntity
  8
0
100
AcDbLine
 62
2
  6
CONTINUOUS
 10
0.3302841183
 20
11.03
 11
0.4480391183
 21
11.03
  0
LINE
  5
3E9
100
AcDbEntity
  8
0
100
AcDbLine
 62
2
  6
CONTINUOUS
 10
33.5519821183
 20
11.03
 11
33.6697371183
 21
11.03
  0
LINE
  5
3EA
100
AcDbEntity
  8
0
100
AcDbLine
 62
2
  6
CONTINUOUS
 10
0.3302841183
 20
11.04
 11
0.4307181183
 21
11.04
  0
LINE
  5
3EB
100
AcDbEntity
  8
0
100
AcDbLine
 62
2
  6
CONTINUOUS
 10
33.5693021183
 20
11.04
 11
33.6697371183
 21
11.04
  0
LINE
  5
3EC
100
AcDbEntity
  8
0
100
AcDbLine
 62
2
  6
CONTINUOUS
 10
0.3302841183
 20
11.05
 11
0.4133981183
 21
11.05
  0
LINE
  5
3ED
100
AcDbEntity
  8
0
100
AcDbLine
 62
2
  6
CONTINUOUS
 10
33.5866231183
 20
11.05
 11
33.6697371183
 21
11.05
  0
LINE
  5
3EE
100
AcDbEntity
  8
0
100
AcDbLine
 62
2
  6
CONTINUOUS
 10
0.3302841183
 20
11.06
 11
0.3960771183
 21
11.06
  0
LINE
  5
3EF
100
AcDbEntity
  8
0
100
AcDbLine
 62
2
  6
CONTINUOUS
 10
33.6039431183
 20
11.06
 11
33.6697371183
 21
11.06
  0
LINE
  5
3F0
100
AcDbEntity
  8
0
100
AcDbLine
 62
2
  6
CONTINUOUS
 10
0.3302841183
 20
11.07
 11
0.3787571183
 21
11.07
  0
LINE
  5
3F1
100
AcDbEntity
  8
0
100
AcDbLine
 62
2
  6
CONTINUOUS
 10
33.6212641183
 20
11.07
 11
33.6697371183
 21
11.07
  0
LINE
  5
3F2
100
AcDbEntity
  8
0
100
AcDbLine
 62
2
  6
CONTINUOUS
 10
0.3302841183
 20
11.08
 11
0.3614361183
 21
11.08
  0
LINE
  5
3F3
100
AcDbEntity
  8
0
100
AcDbLine
 62
2
  6
CONTINUOUS
 10
33.6385841183
 20
11.08
 11
33.6697371183
 21
11.08
  0
LINE
  5
3F4
100
AcDbEntity
  8
0
100
AcDbLine
 62
2
  6
CONTINUOUS
 10
0.3302841183
 20
11.09
 11
0.3441161183
 21
11.09
  0
LINE
  5
3F5
100
AcDbEntity
  8
0
100
AcDbLine
 62
2
  6
CONTINUOUS
 10
33.6559051183
 20
11.09
 11
33.6697371183
 21
11.09
  0
LINE
  5
3F6
100
AcDbEntity
  8
0
100
AcDbLine
 62
2
  6
CONTINUOUS
 10
21.2500201183
 20
22.0
 11
21.2500201183
 21
21.5
  0
LINE
  5
3F7
100
AcDbEntity
  8
0
100
AcDbLine
 62
2
  6
CONTINUOUS
 10
21.2500201183
 20
0.0
 11
21.2500201183
 21
0.5
  0
LINE
  5
3F8
100
AcDbEntity
  8
0
100
AcDbLine
 62
2
  6
CONTINUOUS
 10
17.0000201183
 20
0.5
 11
16.9020341183
 21
0.330283
  0
LINE
  5
3F9
100
AcDbEntity
  8
0
100
AcDbLine
 62
2
  6
CONTINUOUS
 10
0.0000201183
 20
16.5
 11
0.5000201183
 21
16.5
  0
LINE
  5
3FA
100
AcDbEntity
  8
0
100
AcDbLine
 62
2
  6
CONTINUOUS
 10
33.5000201183
 20
16.5
 11
34.0000201183
 21
16.5
  0
LINE
  5
3FB
100
AcDbEntity
  8
0
100
AcDbLine
 62
2
  6
CONTINUOUS
 10
16.9020341183
 20
21.669717
 11
17.0000201183
 21
21.5
  0
LINE
  5
3FC
100
AcDbEntity
  8
0
100
AcDbLine
 62
2
  6
CONTINUOUS
 10
25.5000201183
 20
22.0
 11
25.5000201183
 21
21.5
  0
LINE
  5
3FD
100
AcDbEntity
  8
0
100
AcDbLine
 62
2
  6
CONTINUOUS
 10
25.5000201183
 20
0.5
 11
25.5000201183
 21
0.0
  0
LWPOLYLINE
  5
3FE
100
AcDbEntity
  8
0
100
AcDbPolyline
 62
7
  6
CONTINUOUS
 90
2
 70
0
 43
0.0200000008
 10
25.5800201183
 20
3.0
 10
25.5800201183
 20
0.5
  0
LINE
  5
3FF
100
AcDbEntity
  8
0
100
AcDbLine
 62
2
  6
CONTINUOUS
 10
26.6015832652
 20
0.8703831241
 11
26.6015832652
 21
1.0631805673
  0
LINE
  5
400
100
AcDbEntity
  8
0
100
AcDbLine
 62
2
  6
CONTINUOUS
 10
26.6015832652
 20
1.0944305971
 11
26.6015832652
 21
1.1569306569
  0
LINE
  5
401
100
AcDbEntity
  8
0
100
AcDbLine
 62
2
  6
CONTINUOUS
 10
26.6015832652
 20
1.1881806868
 11
26.6015832652
 21
1.3749781241
  0
LINE
  5
402
100
AcDbEntity
  8
0
100
AcDbLine
 62
7
  6
CONTINUOUS
 10
27.1330611673
 20
1.0199819329
 11
27.1330611673
 21
1.230030563
  0
LINE
  5
403
100
AcDbEntity
  8
0
100
AcDbLine
 62
7
  6
CONTINUOUS
 10
27.5725525095
 20
0.9085819585
 11
27.5725525095
 21
1.3427740739
  0
LWPOLYLINE
  5
404
100
AcDbEntity
  8
0
100
AcDbPolyline
 62
7
  6
CONTINUOUS
 90
2
 70
0
 43
0.0200000008
 10
33.5000201183
 20
21.5
 10
0.5000201183
 20
21.5
  0
LINE
  5
405
100
AcDbEntity
  8
0
100
AcDbLine
 62
2
  6
CONTINUOUS
 10
16.9942461183
 20
21.51
 11
17.0057941183
 21
21.51
  0
LINE
  5
406
100
AcDbEntity
  8
0
100
AcDbLine
 62
2
  6
CONTINUOUS
 10
16.9884731183
 20
21.52
 11
17.0115671183
 21
21.52
  0
LINE
  5
407
100
AcDbEntity
  8
0
100
AcDbLine
 62
2
  6
CONTINUOUS
 10
16.9826991183
 20
21.53
 11
17.0173411183
 21
21.53
  0
LINE
  5
408
100
AcDbEntity
  8
0
100
AcDbLine
 62
2
  6
CONTINUOUS
 10
16.9769261183
 20
21.54
 11
17.0231141183
 21
21.54
  0
LINE
  5
409
100
AcDbEntity
  8
0
100
AcDbLine
 62
2
  6
CONTINUOUS
 10
16.9711521183
 20
21.55
 11
17.0288881183
 21
21.55
  0
LINE
  5
40A
100
AcDbEntity
  8
0
100
AcDbLine
 62
2
  6
CONTINUOUS
 10
16.9653791183
 20
21.56
 11
17.0346611183
 21
21.56
  0
LINE
  5
40B
100
AcDbEntity
  8
0
100
AcDbLine
 62
2
  6
CONTINUOUS
 10
16.9596051183
 20
21.57
 11
17.0404351183
 21
21.57
  0
LINE
  5
40C
100
AcDbEntity
  8
0
100
AcDbLine
 62
2
  6
CONTINUOUS
 10
16.9538321183
 20
21.58
 11
17.0462081183
 21
21.58
  0
LINE
  5
40D
100
AcDbEntity
  8
0
100
AcDbLine
 62
2
  6
CONTINUOUS
 10
16.9480581183
 20
21.59
 11
17.0519821183
 21
21.59
  0
LINE
  5
40E
100
AcDbEntity
  8
0
100
AcDbLine
 62
2
  6
CONTINUOUS
 10
16.9422851183
 20
21.6
 11
17.0577551183
 21
21.6
  0
LINE
  5
40F
100
AcDbEntity
  8
0
100
AcDbLine
 62
2
  6
CONTINUOUS
 10
16.9365111183
 20
21.61
 11
17.0635291183
 21
21.61
  0
LINE
  5
410
100
AcDbEntity
  8
0
100
AcDbLine
 62
2
  6
CONTINUOUS
 10
16.9307381183
 20
21.62
 11
17.0693021183
 21
21.62
  0
LINE
  5
411
100
AcDbEntity
  8
0
100
AcDbLine
 62
2
  6
CONTINUOUS
 10
16.9249641183
 20
21.63
 11
17.0750761183
 21
21.63
  0
LINE
  5
412
100
AcDbEntity
  8
0
100
AcDbLine
 62
2
  6
CONTINUOUS
 10
16.9191911183
 20
21.64
 11
17.0808491183
 21
21.64
  0
LINE
  5
413
100
AcDbEntity
  8
0
100
AcDbLine
 62
2
  6
CONTINUOUS
 10
16.9134171183
 20
21.65
 11
17.0866231183
 21
21.65
  0
LINE
  5
414
100
AcDbEntity
  8
0
100
AcDbLine
 62
2
  6
CONTINUOUS
 10
16.9076441183
 20
21.66
 11
17.0923961183
 21
21.66
  0
LINE
  5
415
100
AcDbEntity
  8
0
100
AcDbLine
 62
2
  6
CONTINUOUS
 10
17.0980061183
 20
21.669717
 11
16.9020341183
 21
21.669717
  0
LWPOLYLINE
  5
416
100
AcDbEntity
  8
0
100
AcDbPolyline
 62
7
  6
CONTINUOUS
 90
2
 70
0
 43
0.0200000008
 10
28.3800201183
 20
3.0
 10
28.3800201183
 20
0.5
  0
LINE
  5
417
100
AcDbEntity
  8
0
100
AcDbLine
 62
2
  6
CONTINUOUS
 10
28.5118214086
 20
2.5027948387
 11
28.5118214086
 21
2.7463974194
  0
LINE
  5
418
100
AcDbEntity
  8
0
100
AcDbLine
 62
2
  6
CONTINUOUS
 10
28.6336226989
 20
2.7463974194
 11
28.6336226989
 21
2.5027948387
  0
LINE
  5
419
100
AcDbEntity
  8
0
100
AcDbLine
 62
2
  6
CONTINUOUS
 10
28.8800201183
 20
0.75
 11
28.8800201183
 21
1.25
  0
LINE
  5
41A
100
AcDbEntity
  8
0
100
AcDbLine
 62
2
  6
CONTINUOUS
 10
29.7500201183
 20
22.0
 11
29.7500201183
 21
21.5
  0
LINE
  5
41B
100
AcDbEntity
  8
0
100
AcDbLine
 62
2
  6
CONTINUOUS
 10
29.7500201183
 20
0.0
 11
29.7500201183
 21
0.5
  0
LINE
  5
41C
100
AcDbEntity
  8
0
100
AcDbLine
 62
2
  6
CONTINUOUS
 10
28.5118214086
 20
2.746055604
 11
28.512163224
 21
2.7463974194
  0
LINE
  5
41D
100
AcDbEntity
  8
0
100
AcDbLine
 62
2
  6
CONTINUOUS
 10
28.6336226989
 20
2.8678568943
 11
28.6339645143
 21
2.8681987097
  0
LINE
  5
41E
100
AcDbEntity
  8
0
100
AcDbLine
 62
2
  6
CONTINUOUS
 10
28.5118214086
 20
2.7434816387
 11
28.5147371893
 21
2.7463974194
  0
LINE
  5
41F
100
AcDbEntity
  8
0
100
AcDbLine
 62
2
  6
CONTINUOUS
 10
28.6336226989
 20
2.865282929
 11
28.6365384796
 21
2.8681987097
  0
LINE
  5
420
100
AcDbEntity
  8
0
100
AcDbLine
 62
2
  6
CONTINUOUS
 10
28.5118214086
 20
2.7409076733
 11
28.5173111547
 21
2.7463974194
  0
LINE
  5
421
100
AcDbEntity
  8
0
100
AcDbLine
 62
2
  6
CONTINUOUS
 10
28.6336226989
 20
2.8627089636
 11
28.639112445
 21
2.8681987097
  0
LINE
  5
422
100
AcDbEntity
  8
0
100
AcDbLine
 62
2
  6
CONTINUOUS
 10
28.5118214086
 20
2.7383337079
 11
28.51988512
 21
2.7463974194
  0
LINE
  5
423
100
AcDbEntity
  8
0
100
AcDbLine
 62
2
  6
CONTINUOUS
 10
28.6336226989
 20
2.8601349983
 11
28.6416864104
 21
2.8681987097
  0
LINE
  5
424
100
AcDbEntity
  8
0
100
AcDbLine
 62
2
  6
CONTINUOUS
 10
28.5118214086
 20
2.7357597426
 11
28.5224590854
 21
2.7463974194
  0
LINE
  5
425
100
AcDbEntity
  8
0
100
AcDbLine
 62
2
  6
CONTINUOUS
 10
28.6336226989
 20
2.8575610329
 11
28.6442603757
 21
2.8681987097
  0
LINE
  5
426
100
AcDbEntity
  8
0
100
AcDbLine
 62
2
  6
CONTINUOUS
 10
28.5118214086
 20
2.7331857772
 11
28.5250330508
 21
2.7463974194
  0
LINE
  5
427
100
AcDbEntity
  8
0
100
AcDbLine
 62
2
  6
CONTINUOUS
 10
28.6336226989
 20
2.8549870675
 11
28.6468343411
 21
2.8681987097
  0
LINE
  5
428
100
AcDbEntity
  8
0
100
AcDbLine
 62
2
  6
CONTINUOUS
 10
28.5118214086
 20
2.7306118119
 11
28.5276070161
 21
2.7463974194
  0
LINE
  5
429
100
AcDbEntity
  8
0
100
AcDbLine
 62
2
  6
CONTINUOUS
 10
28.6336226989
 20
2.8524131022
 11
28.6494083064
 21
2.8681987097
  0
LINE
  5
42A
100
AcDbEntity
  8
0
100
AcDbLine
 62
2
  6
CONTINUOUS
 10
28.5118214086
 20
2.7280378465
 11
28.5301809815
 21
2.7463974194
  0
LINE
  5
42B
100
AcDbEntity
  8
0
100
AcDbLine
 62
2
  6
CONTINUOUS
 10
28.6336226989
 20
2.8498391368
 11
28.6519822718
 21
2.8681987097
  0
LINE
  5
42C
100
AcDbEntity
  8
0
100
AcDbLine
 62
2
  6
CONTINUOUS
 10
28.5118214086
 20
2.7254638812
 11
28.5327549468
 21
2.7463974194
  0
LINE
  5
42D
100
AcDbEntity
  8
0
100
AcDbLine
 62
2
  6
CONTINUOUS
 10
28.6336226989
 20
2.8472651715
 11
28.6545562371
 21
2.8681987097
  0
LINE
  5
42E
100
AcDbEntity
  8
0
100
AcDbLine
 62
2
  6
CONTINUOUS
 10
28.5118214086
 20
2.7228899158
 11
28.5353289122
 21
2.7463974194
  0
LINE
  5
42F
100
AcDbEntity
  8
0
100
AcDbLine
 62
2
  6
CONTINUOUS
 10
28.6336226989
 20
2.8446912061
 11
28.6571302025
 21
2.8681987097
  0
LINE
  5
430
100
AcDbEntity
  8
0
100
AcDbLine
 62
2
  6
CONTINUOUS
 10
28.5118214086
 20
2.7203159504
 11
28.5379028775
 21
2.7463974194
  0
LINE
  5
431
100
AcDbEntity
  8
0
100
AcDbLine
 62
2
  6
CONTINUOUS
 10
28.6336226989
 20
2.8421172408
 11
28.6597041679
 21
2.8681987097
  0
LINE
  5
432
100
AcDbEntity
  8
0
100
AcDbLine
 62
2
  6
CONTINUOUS
 10
28.5118214086
 20
2.7177419851
 11
28.5404768429
 21
2.7463974194
  0
LINE
  5
433
100
AcDbEntity
  8
0
100
AcDbLine
 62
2
  6
CONTINUOUS
 10
28.6336226989
 20
2.8395432754
 11
28.6622781332
 21
2.8681987097
  0
LINE
  5
434
100
AcDbEntity
  8
0
100
AcDbLine
 62
2
  6
CONTINUOUS
 10
28.5118214086
 20
2.7151680197
 11
28.5430508083
 21
2.7463974194
  0
LINE
  5
435
100
AcDbEntity
  8
0
100
AcDbLine
 62
2
  6
CONTINUOUS
 10
28.6336226989
 20
2.83696931
 11
28.6648520986
 21
2.8681987097
  0
LINE
  5
436
100
AcDbEntity
  8
0
100
AcDbLine
 62
2
  6
CONTINUOUS
 10
28.5118214086
 20
2.7125940544
 11
28.5456247736
 21
2.7463974194
  0
LINE
  5
437
100
AcDbEntity
  8
0
100
AcDbLine
 62
2
  6
CONTINUOUS
 10
28.6336226989
 20
2.8343953447
 11
28.6674260639
 21
2.8681987097
  0
LINE
  5
438
100
AcDbEntity
  8
0
100
AcDbLine
 62
2
  6
CONTINUOUS
 10
28.5118214086
 20
2.710020089
 11
28.548198739
 21
2.7463974194
  0
LINE
  5
439
100
AcDbEntity
  8
0
100
AcDbLine
 62
2
  6
CONTINUOUS
 10
28.6336226989
 20
2.8318213793
 11
28.6700000293
 21
2.8681987097
  0
LINE
  5
43A
100
AcDbEntity
  8
0
100
AcDbLine
 62
2
  6
CONTINUOUS
 10
28.5118214086
 20
2.7074461236
 11
28.5507727043
 21
2.7463974194
  0
LINE
  5
43B
100
AcDbEntity
  8
0
100
AcDbLine
 62
2
  6
CONTINUOUS
 10
28.6336226989
 20
2.829247414
 11
28.6725739947
 21
2.8681987097
  0
LINE
  5
43C
100
AcDbEntity
  8
0
100
AcDbLine
 62
2
  6
CONTINUOUS
 10
28.5118214086
 20
2.7048721583
 11
28.5533466697
 21
2.7463974194
  0
LINE
  5
43D
100
AcDbEntity
  8
0
100
AcDbLine
 62
2
  6
CONTINUOUS
 10
28.6336226989
 20
2.8266734486
 11
28.67514796
 21
2.8681987097
  0
LINE
  5
43E
100
AcDbEntity
  8
0
100
AcDbLine
 62
2
  6
CONTINUOUS
 10
28.5118214086
 20
2.7022981929
 11
28.5559206351
 21
2.7463974194
  0
LINE
  5
43F
100
AcDbEntity
  8
0
100
AcDbLine
 62
2
  6
CONTINUOUS
 10
28.6336226989
 20
2.8240994832
 11
28.6777219254
 21
2.8681987097
  0
LINE
  5
440
100
AcDbEntity
  8
0
100
AcDbLine
 62
2
  6
CONTINUOUS
 10
28.5118214086
 20
2.6997242276
 11
28.5584946004
 21
2.7463974194
  0
LINE
  5
441
100
AcDbEntity
  8
0
100
AcDbLine
 62
2
  6
CONTINUOUS
 10
28.6336226989
 20
2.8215255179
 11
28.6802958907
 21
2.8681987097
  0
LINE
  5
442
100
AcDbEntity
  8
0
100
AcDbLine
 62
2
  6
CONTINUOUS
 10
28.5118214086
 20
2.6971502622
 11
28.5610685658
 21
2.7463974194
  0
LINE
  5
443
100
AcDbEntity
  8
0
100
AcDbLine
 62
2
  6
CONTINUOUS
 10
28.6336226989
 20
2.8189515525
 11
28.6828698561
 21
2.8681987097
  0
LINE
  5
444
100
AcDbEntity
  8
0
100
AcDbLine
 62
2
  6
CONTINUOUS
 10
28.5118214086
 20
2.6945762969
 11
28.5636425311
 21
2.7463974194
  0
LINE
  5
445
100
AcDbEntity
  8
0
100
AcDbLine
 62
2
  6
CONTINUOUS
 10
28.6336226989
 20
2.8163775872
 11
28.6854438214
 21
2.8681987097
  0
LINE
  5
446
100
AcDbEntity
  8
0
100
AcDbLine
 62
2
  6
CONTINUOUS
 10
28.5118214086
 20
2.6920023315
 11
28.5662164965
 21
2.7463974194
  0
LINE
  5
447
100
AcDbEntity
  8
0
100
AcDbLine
 62
2
  6
CONTINUOUS
 10
28.6336226989
 20
2.8138036218
 11
28.6880177868
 21
2.8681987097
  0
LINE
  5
448
100
AcDbEntity
  8
0
100
AcDbLine
 62
2
  6
CONTINUOUS
 10
28.5118214086
 20
2.6894283661
 11
28.5687904618
 21
2.7463974194
  0
LINE
  5
449
100
AcDbEntity
  8
0
100
AcDbLine
 62
2
  6
CONTINUOUS
 10
28.6336226989
 20
2.8112296565
 11
28.6905917522
 21
2.8681987097
  0
LINE
  5
44A
100
AcDbEntity
  8
0
100
AcDbLine
 62
2
  6
CONTINUOUS
 10
28.5118214086
 20
2.6868544008
 11
28.5713644272
 21
2.7463974194
  0
LINE
  5
44B
100
AcDbEntity
  8
0
100
AcDbLine
 62
2
  6
CONTINUOUS
 10
28.6336226989
 20
2.8086556911
 11
28.6931657175
 21
2.8681987097
  0
LINE
  5
44C
100
AcDbEntity
  8
0
100
AcDbLine
 62
2
  6
CONTINUOUS
 10
28.5118214086
 20
2.6842804354
 11
28.5739383926
 21
2.7463974194
  0
LINE
  5
44D
100
AcDbEntity
  8
0
100
AcDbLine
 62
2
  6
CONTINUOUS
 10
28.6336226989
 20
2.8060817257
 11
28.6957396829
 21
2.8681987097
  0
LINE
  5
44E
100
AcDbEntity
  8
0
100
AcDbLine
 62
2
  6
CONTINUOUS
 10
28.5118214086
 20
2.6817064701
 11
28.5765123579
 21
2.7463974194
  0
LINE
  5
44F
100
AcDbEntity
  8
0
100
AcDbLine
 62
2
  6
CONTINUOUS
 10
28.6336226989
 20
2.8035077604
 11
28.6983136482
 21
2.8681987097
  0
LINE
  5
450
100
AcDbEntity
  8
0
100
AcDbLine
 62
2
  6
CONTINUOUS
 10
28.5118214086
 20
2.6791325047
 11
28.5790863233
 21
2.7463974194
  0
LINE
  5
451
100
AcDbEntity
  8
0
100
AcDbLine
 62
2
  6
CONTINUOUS
 10
28.6336226989
 20
2.800933795
 11
28.7008876136
 21
2.8681987097
  0
LINE
  5
452
100
AcDbEntity
  8
0
100
AcDbLine
 62
2
  6
CONTINUOUS
 10
28.5118214086
 20
2.6765585393
 11
28.5816602886
 21
2.7463974194
  0
LINE
  5
453
100
AcDbEntity
  8
0
100
AcDbLine
 62
2
  6
CONTINUOUS
 10
28.6336226989
 20
2.7983598297
 11
28.703461579
 21
2.8681987097
  0
LINE
  5
454
100
AcDbEntity
  8
0
100
AcDbLine
 62
2
  6
CONTINUOUS
 10
28.5118214086
 20
2.673984574
 11
28.584234254
 21
2.7463974194
  0
LINE
  5
455
100
AcDbEntity
  8
0
100
AcDbLine
 62
2
  6
CONTINUOUS
 10
28.6336226989
 20
2.7957858643
 11
28.7060355443
 21
2.8681987097
  0
LINE
  5
456
100
AcDbEntity
  8
0
100
AcDbLine
 62
2
  6
CONTINUOUS
 10
28.5118214086
 20
2.6714106086
 11
28.5868082193
 21
2.7463974194
  0
LINE
  5
457
100
AcDbEntity
  8
0
100
AcDbLine
 62
2
  6
CONTINUOUS
 10
28.6336226989
 20
2.793211899
 11
28.7086095097
 21
2.8681987097
  0
LINE
  5
458
100
AcDbEntity
  8
0
100
AcDbLine
 62
2
  6
CONTINUOUS
 10
28.5118214086
 20
2.6688366433
 11
28.5893821847
 21
2.7463974194
  0
LINE
  5
459
100
AcDbEntity
  8
0
100
AcDbLine
 62
2
  6
CONTINUOUS
 10
28.6336226989
 20
2.7906379336
 11
28.711183475
 21
2.8681987097
  0
LINE
  5
45A
100
AcDbEntity
  8
0
100
AcDbLine
 62
2
  6
CONTINUOUS
 10
28.5118214086
 20
2.6662626779
 11
28.5919561501
 21
2.7463974194
  0
LINE
  5
45B
100
AcDbEntity
  8
0
100
AcDbLine
 62
2
  6
CONTINUOUS
 10
28.6336226989
 20
2.7880639682
 11
28.7137574404
 21
2.8681987097
  0
LINE
  5
45C
100
AcDbEntity
  8
0
100
AcDbLine
 62
2
  6
CONTINUOUS
 10
28.5118214086
 20
2.6636887126
 11
28.5945301154
 21
2.7463974194
  0
LINE
  5
45D
100
AcDbEntity
  8
0
100
AcDbLine
 62
2
  6
CONTINUOUS
 10
28.6336226989
 20
2.7854900029
 11
28.7163314057
 21
2.8681987097
  0
LINE
  5
45E
100
AcDbEntity
  8
0
100
AcDbLine
 62
2
  6
CONTINUOUS
 10
28.5118214086
 20
2.6611147472
 11
28.5971040808
 21
2.7463974194
  0
LINE
  5
45F
100
AcDbEntity
  8
0
100
AcDbLine
 62
2
  6
CONTINUOUS
 10
28.6336226989
 20
2.7829160375
 11
28.7189053711
 21
2.8681987097
  0
LINE
  5
460
100
AcDbEntity
  8
0
100
AcDbLine
 62
2
  6
CONTINUOUS
 10
28.5118214086
 20
2.6585407818
 11
28.5996780461
 21
2.7463974194
  0
LINE
  5
461
100
AcDbEntity
  8
0
100
AcDbLine
 62
2
  6
CONTINUOUS
 10
28.6336226989
 20
2.7803420722
 11
28.7214793365
 21
2.8681987097
  0
LINE
  5
462
100
AcDbEntity
  8
0
100
AcDbLine
 62
2
  6
CONTINUOUS
 10
28.5118214086
 20
2.6559668165
 11
28.6022520115
 21
2.7463974194
  0
LINE
  5
463
100
AcDbEntity
  8
0
100
AcDbLine
 62
2
  6
CONTINUOUS
 10
28.6336226989
 20
2.7777681068
 11
28.7240533018
 21
2.8681987097
  0
LINE
  5
464
100
AcDbEntity
  8
0
100
AcDbLine
 62
2
  6
CONTINUOUS
 10
28.5118214086
 20
2.6533928511
 11
28.6048259769
 21
2.7463974194
  0
LINE
  5
465
100
AcDbEntity
  8
0
100
AcDbLine
 62
2
  6
CONTINUOUS
 10
28.6336226989
 20
2.7751941414
 11
28.7266272672
 21
2.8681987097
  0
LINE
  5
466
100
AcDbEntity
  8
0
100
AcDbLine
 62
2
  6
CONTINUOUS
 10
28.5118214086
 20
2.6508188858
 11
28.6073999422
 21
2.7463974194
  0
LINE
  5
467
100
AcDbEntity
  8
0
100
AcDbLine
 62
2
  6
CONTINUOUS
 10
28.6336226989
 20
2.7726201761
 11
28.7292012325
 21
2.8681987097
  0
LINE
  5
468
100
AcDbEntity
  8
0
100
AcDbLine
 62
2
  6
CONTINUOUS
 10
28.5118214086
 20
2.6482449204
 11
28.6099739076
 21
2.7463974194
  0
LINE
  5
469
100
AcDbEntity
  8
0
100
AcDbLine
 62
2
  6
CONTINUOUS
 10
28.6336226989
 20
2.7700462107
 11
28.7317751979
 21
2.8681987097
  0
LINE
  5
46A
100
AcDbEntity
  8
0
100
AcDbLine
 62
2
  6
CONTINUOUS
 10
28.5118214086
 20
2.645670955
 11
28.6125478729
 21
2.7463974194
  0
LINE
  5
46B
100
AcDbEntity
  8
0
100
AcDbLine
 62
2
  6
CONTINUOUS
 10
28.6336226989
 20
2.7674722454
 11
28.7343491633
 21
2.8681987097
  0
LINE
  5
46C
100
AcDbEntity
  8
0
100
AcDbLine
 62
2
  6
CONTINUOUS
 10
28.5118214086
 20
2.6430969897
 11
28.6151218383
 21
2.7463974194
  0
LINE
  5
46D
100
AcDbEntity
  8
0
100
AcDbLine
 62
2
  6
CONTINUOUS
 10
28.6336226989
 20
2.76489828
 11
28.7369231286
 21
2.8681987097
  0
LINE
  5
46E
100
AcDbEntity
  8
0
100
AcDbLine
 62
2
  6
CONTINUOUS
 10
28.5118214086
 20
2.6405230243
 11
28.6176958036
 21
2.7463974194
  0
LINE
  5
46F
100
AcDbEntity
  8
0
100
AcDbLine
 62
2
  6
CONTINUOUS
 10
28.6336226989
 20
2.7623243147
 11
28.739497094
 21
2.8681987097
  0
LINE
  5
470
100
AcDbEntity
  8
0
100
AcDbLine
 62
2
  6
CONTINUOUS
 10
28.5118214086
 20
2.637949059
 11
28.620269769
 21
2.7463974194
  0
LINE
  5
471
100
AcDbEntity
  8
0
100
AcDbLine
 62
2
  6
CONTINUOUS
 10
28.6336226989
 20
2.7597503493
 11
28.7420710593
 21
2.8681987097
  0
LINE
  5
472
100
AcDbEntity
  8
0
100
AcDbLine
 62
2
  6
CONTINUOUS
 10
28.5118214086
 20
2.6353750936
 11
28.6228437344
 21
2.7463974194
  0
LINE
  5
473
100
AcDbEntity
  8
0
100
AcDbLine
 62
2
  6
CONTINUOUS
 10
28.6336226989
 20
2.7571763839
 11
28.7446450247
 21
2.8681987097
  0
LINE
  5
474
100
AcDbEntity
  8
0
100
AcDbLine
 62
2
  6
CONTINUOUS
 10
28.5118214086
 20
2.6328011283
 11
28.6254176997
 21
2.7463974194
  0
LINE
  5
475
100
AcDbEntity
  8
0
100
AcDbLine
 62
2
  6
CONTINUOUS
 10
28.6336226989
 20
2.7546024186
 11
28.74721899
 21
2.8681987097
  0
LINE
  5
476
100
AcDbEntity
  8
0
100
AcDbLine
 62
2
  6
CONTINUOUS
 10
28.5118214086
 20
2.6302271629
 11
28.6279916651
 21
2.7463974194
  0
LINE
  5
477
100
AcDbEntity
  8
0
100
AcDbLine
 62
2
  6
CONTINUOUS
 10
28.6336226989
 20
2.7520284532
 11
28.7497929554
 21
2.8681987097
  0
LINE
  5
478
100
AcDbEntity
  8
0
100
AcDbLine
 62
2
  6
CONTINUOUS
 10
28.5118214086
 20
2.6276531975
 11
28.6305656304
 21
2.7463974194
  0
LINE
  5
479
100
AcDbEntity
  8
0
100
AcDbLine
 62
2
  6
CONTINUOUS
 10
28.6336226989
 20
2.7494544879
 11
28.7523669208
 21
2.8681987097
  0
LINE
  5
47A
100
AcDbEntity
  8
0
100
AcDbLine
 62
2
  6
CONTINUOUS
 10
28.5118214086
 20
2.6250792322
 11
28.6331395958
 21
2.7463974194
  0
LINE
  5
47B
100
AcDbEntity
  8
0
100
AcDbLine
 62
2
  6
CONTINUOUS
 10
28.6336226989
 20
2.7468805225
 11
28.7549408861
 21
2.8681987097
  0
LINE
  5
47C
100
AcDbEntity
  8
0
100
AcDbLine
 62
2
  6
CONTINUOUS
 10
28.5118214086
 20
2.6225052668
 11
28.6336226989
 21
2.7443065571
  0
LINE
  5
47D
100
AcDbEntity
  8
0
100
AcDbLine
 62
2
  6
CONTINUOUS
 10
28.6357135612
 20
2.7463974194
 11
28.7573419252
 21
2.8680257834
  0
LINE
  5
47E
100
AcDbEntity
  8
0
100
AcDbLine
 62
2
  6
CONTINUOUS
 10
28.5118214086
 20
2.6199313015
 11
28.6336226989
 21
2.7417325918
  0
LINE
  5
47F
100
AcDbEntity
  8
0
100
AcDbLine
 62
2
  6
CONTINUOUS
 10
28.6382875265
 20
2.7463974194
 11
28.7597030089
 21
2.8678129018
  0
LINE
  5
480
100
AcDbEntity
  8
0
100
AcDbLine
 62
2
  6
CONTINUOUS
 10
28.5118214086
 20
2.6173573361
 11
28.6336226989
 21
2.7391586264
  0
LINE
  5
481
100
AcDbEntity
  8
0
100
AcDbLine
 62
2
  6
CONTINUOUS
 10
28.6408614919
 20
2.7463974194
 11
28.7620640926
 21
2.8676000201
  0
LINE
  5
482
100
AcDbEntity
  8
0
100
AcDbLine
 62
2
  6
CONTINUOUS
 10
28.5118214086
 20
2.6147833707
 11
28.6336226989
 21
2.7365846611
  0
LINE
  5
483
100
AcDbEntity
  8
0
100
AcDbLine
 62
2
  6
CONTINUOUS
 10
28.6434354572
 20
2.7463974194
 11
28.7644251764
 21
2.8673871385
  0
LINE
  5
484
100
AcDbEntity
  8
0
100
AcDbLine
 62
2
  6
CONTINUOUS
 10
28.5118214086
 20
2.6122094054
 11
28.6336226989
 21
2.7340106957
  0
LINE
  5
485
100
AcDbEntity
  8
0
100
AcDbLine
 62
2
  6
CONTINUOUS
 10
28.6460094226
 20
2.7463974194
 11
28.7667862601
 21
2.8671742568
  0
LINE
  5
486
100
AcDbEntity
  8
0
100
AcDbLine
 62
2
  6
CONTINUOUS
 10
28.5118214086
 20
2.60963544
 11
28.6336226989
 21
2.7314367304
  0
LINE
  5
487
100
AcDbEntity
  8
0
100
AcDbLine
 62
2
  6
CONTINUOUS
 10
28.6485833879
 20
2.7463974194
 11
28.7691473438
 21
2.8669613752
  0
LINE
  5
488
100
AcDbEntity
  8
0
100
AcDbLine
 62
2
  6
CONTINUOUS
 10
28.5118214086
 20
2.6070614747
 11
28.6336226989
 21
2.728862765
  0
LINE
  5
489
100
AcDbEntity
  8
0
100
AcDbLine
 62
2
  6
CONTINUOUS
 10
28.6511573533
 20
2.7463974194
 11
28.7715084275
 21
2.8667484936
  0
LINE
  5
48A
100
AcDbEntity
  8
0
100
AcDbLine
 62
2
  6
CONTINUOUS
 10
28.5118214086
 20
2.6044875093
 11
28.6336226989
 21
2.7262887996
  0
LINE
  5
48B
100
AcDbEntity
  8
0
100
AcDbLine
 62
2
  6
CONTINUOUS
 10
28.6537313187
 20
2.7463974194
 11
28.7738695112
 21
2.8665356119
  0
LINE
  5
48C
100
AcDbEntity
  8
0
100
AcDbLine
 62
2
  6
CONTINUOUS
 10
28.5118214086
 20
2.601913544
 11
28.6336226989
 21
2.7237148343
  0
LINE
  5
48D
100
AcDbEntity
  8
0
100
AcDbLine
 62
2
  6
CONTINUOUS
 10
28.656305284
 20
2.7463974194
 11
28.7762305949
 21
2.8663227303
  0
LINE
  5
48E
100
AcDbEntity
  8
0
100
AcDbLine
 62
2
  6
CONTINUOUS
 10
28.5118214086
 20
2.5993395786
 11
28.6336226989
 21
2.7211408689
  0
LINE
  5
48F
100
AcDbEntity
  8
0
100
AcDbLine
 62
2
  6
CONTINUOUS
 10
28.6588792494
 20
2.7463974194
 11
28.7784429844
 21
2.8659611544
  0
LINE
  5
490
100
AcDbEntity
  8
0
100
AcDbLine
 62
2
  6
CONTINUOUS
 10
28.5118214086
 20
2.5967656132
 11
28.6336226989
 21
2.7185669036
  0
LINE
  5
491
100
AcDbEntity
  8
0
100
AcDbLine
 62
2
  6
CONTINUOUS
 10
28.6614532147
 20
2.7463974194
 11
28.7804542384
 21
2.8653984431
  0
LINE
  5
492
100
AcDbEntity
  8
0
100
AcDbLine
 62
2
  6
CONTINUOUS
 10
28.5118214086
 20
2.5941916479
 11
28.6336226989
 21
2.7159929382
  0
LINE
  5
493
100
AcDbEntity
  8
0
100
AcDbLine
 62
2
  6
CONTINUOUS
 10
28.6640271801
 20
2.7463974194
 11
28.7824654925
 21
2.8648357318
  0
LINE
  5
494
100
AcDbEntity
  8
0
100
AcDbLine
 62
2
  6
CONTINUOUS
 10
28.5118214086
 20
2.5916176825
 11
28.6336226989
 21
2.7134189728
  0
LINE
  5
495
100
AcDbEntity
  8
0
100
AcDbLine
 62
2
  6
CONTINUOUS
 10
28.6666011455
 20
2.7463974194
 11
28.7844767466
 21
2.8642730205
  0
LINE
  5
496
100
AcDbEntity
  8
0
100
AcDbLine
 62
2
  6
CONTINUOUS
 10
28.5118214086
 20
2.5890437172
 11
28.6336226989
 21
2.7108450075
  0
LINE
  5
497
100
AcDbEntity
  8
0
100
AcDbLine
 62
2
  6
CONTINUOUS
 10
28.6691751108
 20
2.7463974194
 11
28.7864880006
 21
2.8637103092
  0
LINE
  5
498
100
AcDbEntity
  8
0
100
AcDbLine
 62
2
  6
CONTINUOUS
 10
28.5118214086
 20
2.5864697518
 11
28.6336226989
 21
2.7082710421
  0
LINE
  5
499
100
AcDbEntity
  8
0
100
AcDbLine
 62
2
  6
CONTINUOUS
 10
28.6717490762
 20
2.7463974194
 11
28.7884992547
 21
2.8631475979
  0
LINE
  5
49A
100
AcDbEntity
  8
0
100
AcDbLine
 62
2
  6
CONTINUOUS
 10
28.5118214086
 20
2.5838957865
 11
28.6336226989
 21
2.7056970768
  0
LINE
  5
49B
100
AcDbEntity
  8
0
100
AcDbLine
 62
2
  6
CONTINUOUS
 10
28.6743230415
 20
2.7463974194
 11
28.7905105088
 21
2.8625848866
  0
LINE
  5
49C
100
AcDbEntity
  8
0
100
AcDbLine
 62
2
  6
CONTINUOUS
 10
28.5118214086
 20
2.5813218211
 11
28.6336226989
 21
2.7031231114
  0
LINE
  5
49D
100
AcDbEntity
  8
0
100
AcDbLine
 62
2
  6
CONTINUOUS
 10
28.6768970069
 20
2.7463974194
 11
28.7925217629
 21
2.8620221753
  0
LINE
  5
49E
100
AcDbEntity
  8
0
100
AcDbLine
 62
2
  6
CONTINUOUS
 10
28.5118214086
 20
2.5787478557
 11
28.6336226989
 21
2.7005491461
  0
LINE
  5
49F
100
AcDbEntity
  8
0
100
AcDbLine
 62
2
  6
CONTINUOUS
 10
28.6794709722
 20
2.7463974194
 11
28.7945330169
 21
2.861459464
  0
LINE
  5
4A0
100
AcDbEntity
  8
0
100
AcDbLine
 62
2
  6
CONTINUOUS
 10
28.5118214086
 20
2.5761738904
 11
28.6336226989
 21
2.6979751807
  0
LINE
  5
4A1
100
AcDbEntity
  8
0
100
AcDbLine
 62
2
  6
CONTINUOUS
 10
28.6820449376
 20
2.7463974194
 11
28.796544271
 21
2.8608967528
  0
LINE
  5
4A2
100
AcDbEntity
  8
0
100
AcDbLine
 62
2
  6
CONTINUOUS
 10
28.5118214086
 20
2.573599925
 11
28.6336226989
 21
2.6954012153
  0
LINE
  5
4A3
100
AcDbEntity
  8
0
100
AcDbLine
 62
2
  6
CONTINUOUS
 10
28.684618903
 20
2.7463974194
 11
28.7985555251
 21
2.8603340415
  0
LINE
  5
4A4
100
AcDbEntity
  8
0
100
AcDbLine
 62
2
  6
CONTINUOUS
 10
28.5118214086
 20
2.5710259597
 11
28.6336226989
 21
2.69282725
  0
LINE
  5
4A5
100
AcDbEntity
  8
0
100
AcDbLine
 62
2
  6
CONTINUOUS
 10
28.6871928683
 20
2.7463974194
 11
28.8003019412
 21
2.8595064922
  0
LINE
  5
4A6
100
AcDbEntity
  8
0
100
AcDbLine
 62
2
  6
CONTINUOUS
 10
28.5118214086
 20
2.5684519943
 11
28.6336226989
 21
2.6902532846
  0
LINE
  5
4A7
100
AcDbEntity
  8
0
100
AcDbLine
 62
2
  6
CONTINUOUS
 10
28.6897668337
 20
2.7463974194
 11
28.8020270627
 21
2.8586576484
  0
LINE
  5
4A8
100
AcDbEntity
  8
0
100
AcDbLine
 62
2
  6
CONTINUOUS
 10
28.5118214086
 20
2.5658780289
 11
28.6336226989
 21
2.6876793193
  0
LINE
  5
4A9
100
AcDbEntity
  8
0
100
AcDbLine
 62
2
  6
CONTINUOUS
 10
28.692340799
 20
2.7463974194
 11
28.8037521843
 21
2.8578088046
  0
LINE
  5
4AA
100
AcDbEntity
  8
0
100
AcDbLine
 62
2
  6
CONTINUOUS
 10
28.5118214086
 20
2.5633040636
 11
28.6336226989
 21
2.6851053539
  0
LINE
  5
4AB
100
AcDbEntity
  8
0
100
AcDbLine
 62
2
  6
CONTINUOUS
 10
28.6949147644
 20
2.7463974194
 11
28.8054773058
 21
2.8569599608
  0
LINE
  5
4AC
100
AcDbEntity
  8
0
100
AcDbLine
 62
2
  6
CONTINUOUS
 10
28.5118214086
 20
2.5607300982
 11
28.6336226989
 21
2.6825313885
  0
LINE
  5
4AD
100
AcDbEntity
  8
0
100
AcDbLine
 62
2
  6
CONTINUOUS
 10
28.6974887298
 20
2.7463974194
 11
28.8072024274
 21
2.856111117
  0
LINE
  5
4AE
100
AcDbEntity
  8
0
100
AcDbLine
 62
2
  6
CONTINUOUS
 10
28.5118214086
 20
2.5581561329
 11
28.6336226989
 21
2.6799574232
  0
LINE
  5
4AF
100
AcDbEntity
  8
0
100
AcDbLine
 62
2
  6
CONTINUOUS
 10
28.7000626951
 20
2.7463974194
 11
28.8089275489
 21
2.8552622732
  0
LINE
  5
4B0
100
AcDbEntity
  8
0
100
AcDbLine
 62
2
  6
CONTINUOUS
 10
28.5118214086
 20
2.5555821675
 11
28.6336226989
 21
2.6773834578
  0
LINE
  5
4B1
100
AcDbEntity
  8
0
100
AcDbLine
 62
2
  6
CONTINUOUS
 10
28.7026366605
 20
2.7463974194
 11
28.8106526705
 21
2.8544134293
  0
LINE
  5
4B2
100
AcDbEntity
  8
0
100
AcDbLine
 62
2
  6
CONTINUOUS
 10
28.5118214086
 20
2.5530082022
 11
28.6336226989
 21
2.6748094925
  0
LINE
  5
4B3
100
AcDbEntity
  8
0
100
AcDbLine
 62
2
  6
CONTINUOUS
 10
28.7052106258
 20
2.7463974194
 11
28.812377792
 21
2.8535645855
  0
LINE
  5
4B4
100
AcDbEntity
  8
0
100
AcDbLine
 62
2
  6
CONTINUOUS
 10
28.5118214086
 20
2.5504342368
 11
28.6336226989
 21
2.6722355271
  0
LINE
  5
4B5
100
AcDbEntity
  8
0
100
AcDbLine
 62
2
  6
CONTINUOUS
 10
28.7077845912
 20
2.7463974194
 11
28.8141029135
 21
2.8527157417
  0
LINE
  5
4B6
100
AcDbEntity
  8
0
100
AcDbLine
 62
2
  6
CONTINUOUS
 10
28.5118214086
 20
2.5478602714
 11
28.6336226989
 21
2.6696615618
  0
LINE
  5
4B7
100
AcDbEntity
  8
0
100
AcDbLine
 62
2
  6
CONTINUOUS
 10
28.7103585565
 20
2.7463974194
 11
28.8158280351
 21
2.8518668979
  0
LINE
  5
4B8
100
AcDbEntity
  8
0
100
AcDbLine
 62
2
  6
CONTINUOUS
 10
28.5118214086
 20
2.5452863061
 11
28.6336226989
 21
2.6670875964
  0
LINE
  5
4B9
100
AcDbEntity
  8
0
100
AcDbLine
 62
2
  6
CONTINUOUS
 10
28.7129325219
 20
2.7463974194
 11
28.8175531566
 21
2.8510180541
  0
LINE
  5
4BA
100
AcDbEntity
  8
0
100
AcDbLine
 62
2
  6
CONTINUOUS
 10
28.5118214086
 20
2.5427123407
 11
28.6336226989
 21
2.664513631
  0
LINE
  5
4BB
100
AcDbEntity
  8
0
100
AcDbLine
 62
2
  6
CONTINUOUS
 10
28.7155064873
 20
2.7463974194
 11
28.8191423954
 21
2.8500333275
  0
LINE
  5
4BC
100
AcDbEntity
  8
0
100
AcDbLine
 62
2
  6
CONTINUOUS
 10
28.5118214086
 20
2.5401383754
 11
28.6336226989
 21
2.6619396657
  0
LINE
  5
4BD
100
AcDbEntity
  8
0
100
AcDbLine
 62
2
  6
CONTINUOUS
 10
28.7180804526
 20
2.7463974194
 11
28.8206154368
 21
2.8489324036
  0
LINE
  5
4BE
100
AcDbEntity
  8
0
100
AcDbLine
 62
2
  6
CONTINUOUS
 10
28.5118214086
 20
2.53756441
 11
28.6336226989
 21
2.6593657003
  0
LINE
  5
4BF
100
AcDbEntity
  8
0
100
AcDbLine
 62
2
  6
CONTINUOUS
 10
28.720654418
 20
2.7463974194
 11
28.8220884782
 21
2.8478314796
  0
LINE
  5
4C0
100
AcDbEntity
  8
0
100
AcDbLine
 62
2
  6
CONTINUOUS
 10
28.5118214086
 20
2.5349904446
 11
28.6336226989
 21
2.656791735
  0
LINE
  5
4C1
100
AcDbEntity
  8
0
100
AcDbLine
 62
2
  6
CONTINUOUS
 10
28.7232283833
 20
2.7463974194
 11
28.8235615196
 21
2.8467305556
  0
LINE
  5
4C2
100
AcDbEntity
  8
0
100
AcDbLine
 62
2
  6
CONTINUOUS
 10
28.5118214086
 20
2.5324164793
 11
28.6336226989
 21
2.6542177696
  0
LINE
  5
4C3
100
AcDbEntity
  8
0
100
AcDbLine
 62
2
  6
CONTINUOUS
 10
28.7258023487
 20
2.7463974194
 11
28.825034561
 21
2.8456296317
  0
LINE
  5
4C4
100
AcDbEntity
  8
0
100
AcDbLine
 62
2
  6
CONTINUOUS
 10
28.5118214086
 20
2.5298425139
 11
28.6336226989
 21
2.6516438042
  0
LINE
  5
4C5
100
AcDbEntity
  8
0
100
AcDbLine
 62
2
  6
CONTINUOUS
 10
28.7283763141
 20
2.7463974194
 11
28.8265076024
 21
2.8445287077
  0
LINE
  5
4C6
100
AcDbEntity
  8
0
100
AcDbLine
 62
2
  6
CONTINUOUS
 10
28.5118214086
 20
2.5272685486
 11
28.6336226989
 21
2.6490698389
  0
LINE
  5
4C7
100
AcDbEntity
  8
0
100
AcDbLine
 62
2
  6
CONTINUOUS
 10
28.7309502794
 20
2.7463974194
 11
28.8279806438
 21
2.8434277838
  0
LINE
  5
4C8
100
AcDbEntity
  8
0
100
AcDbLine
 62
2
  6
CONTINUOUS
 10
28.5118214086
 20
2.5246945832
 11
28.6336226989
 21
2.6464958735
  0
LINE
  5
4C9
100
AcDbEntity
  8
0
100
AcDbLine
 62
2
  6
CONTINUOUS
 10
28.7335242448
 20
2.7463974194
 11
28.8294536852
 21
2.8423268598
  0
LINE
  5
4CA
100
AcDbEntity
  8
0
100
AcDbLine
 62
2
  6
CONTINUOUS
 10
28.5118214086
 20
2.5221206179
 11
28.6336226989
 21
2.6439219082
  0
LINE
  5
4CB
100
AcDbEntity
  8
0
100
AcDbLine
 62
2
  6
CONTINUOUS
 10
28.7360982101
 20
2.7463974194
 11
28.8309267267
 21
2.8412259359
  0
LINE
  5
4CC
100
AcDbEntity
  8
0
100
AcDbLine
 62
2
  6
CONTINUOUS
 10
28.5118214086
 20
2.5195466525
 11
28.6336226989
 21
2.6413479428
  0
LINE
  5
4CD
100
AcDbEntity
  8
0
100
AcDbLine
 62
2
  6
CONTINUOUS
 10
28.7386721755
 20
2.7463974194
 11
28.8323997681
 21
2.8401250119
  0
LINE
  5
4CE
100
AcDbEntity
  8
0
100
AcDbLine
 62
2
  6
CONTINUOUS
 10
28.5118214086
 20
2.5169726871
 11
28.6336226989
 21
2.6387739775
  0
LINE
  5
4CF
100
AcDbEntity
  8
0
100
AcDbLine
 62
2
  6
CONTINUOUS
 10
28.7412461408
 20
2.7463974194
 11
28.8338728095
 21
2.839024088
  0
LINE
  5
4D0
100
AcDbEntity
  8
0
100
AcDbLine
 62
2
  6
CONTINUOUS
 10
28.5118214086
 20
2.5143987218
 11
28.6336226989
 21
2.6362000121
  0
LINE
  5
4D1
100
AcDbEntity
  8
0
100
AcDbLine
 62
2
  6
CONTINUOUS
 10
28.7438201062
 20
2.7463974194
 11
28.8353458509
 21
2.837923164
  0
LINE
  5
4D2
100
AcDbEntity
  8
0
100
AcDbLine
 62
2
  6
CONTINUOUS
 10
28.5118214086
 20
2.5118247564
 11
28.6336226989
 21
2.6336260467
  0
LINE
  5
4D3
100
AcDbEntity
  8
0
100
AcDbLine
 62
2
  6
CONTINUOUS
 10
28.7463940716
 20
2.7463974194
 11
28.8367077039
 21
2.8367110517
  0
LINE
  5
4D4
100
AcDbEntity
  8
0
100
AcDbLine
 62
2
  6
CONTINUOUS
 10
28.5118214086
 20
2.5092507911
 11
28.6336226989
 21
2.6310520814
  0
LINE
  5
4D5
100
AcDbEntity
  8
0
100
AcDbLine
 62
2
  6
CONTINUOUS
 10
28.7489680369
 20
2.7463974194
 11
28.8379791443
 21
2.8354085268
  0
LINE
  5
4D6
100
AcDbEntity
  8
0
100
AcDbLine
 62
2
  6
CONTINUOUS
 10
28.5118214086
 20
2.5066768257
 11
28.6336226989
 21
2.628478116
  0
LINE
  5
4D7
100
AcDbEntity
  8
0
100
AcDbLine
 62
2
  6
CONTINUOUS
 10
28.7515420023
 20
2.7463974194
 11
28.8392505848
 21
2.8341060019
  0
LINE
  5
4D8
100
AcDbEntity
  8
0
100
AcDbLine
 62
2
  6
CONTINUOUS
 10
28.5118214086
 20
2.5041028603
 11
28.6336226989
 21
2.6259041507
  0
LINE
  5
4D9
100
AcDbEntity
  8
0
100
AcDbLine
 62
2
  6
CONTINUOUS
 10
28.7541159676
 20
2.7463974194
 11
28.8405220253
 21
2.832803477
  0
LINE
  5
4DA
100
AcDbEntity
  8
0
100
AcDbLine
 62
2
  6
CONTINUOUS
 10
28.5130873524
 20
2.5027948387
 11
28.6336226989
 21
2.6233301853
  0
LINE
  5
4DB
100
AcDbEntity
  8
0
100
AcDbLine
 62
2
  6
CONTINUOUS
 10
28.7554239893
 20
2.7451314756
 11
28.8417934657
 21
2.8315009521
  0
LINE
  5
4DC
100
AcDbEntity
  8
0
100
AcDbLine
 62
2
  6
CONTINUOUS
 10
28.5156613177
 20
2.5027948387
 11
28.6336226989
 21
2.6207562199
  0
LINE
  5
4DD
100
AcDbEntity
  8
0
100
AcDbLine
 62
2
  6
CONTINUOUS
 10
28.7554239893
 20
2.7425575103
 11
28.8430649062
 21
2.8301984272
  0
LINE
  5
4DE
100
AcDbEntity
  8
0
100
AcDbLine
 62
2
  6
CONTINUOUS
 10
28.5182352831
 20
2.5027948387
 11
28.6336226989
 21
2.6181822546
  0
LINE
  5
4DF
100
AcDbEntity
  8
0
100
AcDbLine
 62
2
  6
CONTINUOUS
 10
28.7554239893
 20
2.7399835449
 11
28.8443363467
 21
2.8288959023
  0
LINE
  5
4E0
100
AcDbEntity
  8
0
100
AcDbLine
 62
2
  6
CONTINUOUS
 10
28.5208092484
 20
2.5027948387
 11
28.6336226989
 21
2.6156082892
  0
LINE
  5
4E1
100
AcDbEntity
  8
0
100
AcDbLine
 62
2
  6
CONTINUOUS
 10
28.7554239893
 20
2.7374095795
 11
28.8456077871
 21
2.8275933774
  0
LINE
  5
4E2
100
AcDbEntity
  8
0
100
AcDbLine
 62
2
  6
CONTINUOUS
 10
28.5233832138
 20
2.5027948387
 11
28.6336226989
 21
2.6130343239
  0
LINE
  5
4E3
100
AcDbEntity
  8
0
100
AcDbLine
 62
2
  6
CONTINUOUS
 10
28.7554239893
 20
2.7348356142
 11
28.8468640102
 21
2.8262756351
  0
LINE
  5
4E4
100
AcDbEntity
  8
0
100
AcDbLine
 62
2
  6
CONTINUOUS
 10
28.5259571791
 20
2.5027948387
 11
28.6336226989
 21
2.6104603585
  0
LINE
  5
4E5
100
AcDbEntity
  8
0
100
AcDbLine
 62
2
  6
CONTINUOUS
 10
28.7554239893
 20
2.7322616488
 11
28.84793426
 21
2.8247719196
  0
LINE
  5
4E6
100
AcDbEntity
  8
0
100
AcDbLine
 62
2
  6
CONTINUOUS
 10
28.5285311445
 20
2.5027948387
 11
28.6336226989
 21
2.6078863932
  0
LINE
  5
4E7
100
AcDbEntity
  8
0
100
AcDbLine
 62
2
  6
CONTINUOUS
 10
28.7554239893
 20
2.7296876835
 11
28.8490045098
 21
2.823268204
  0
LINE
  5
4E8
100
AcDbEntity
  8
0
100
AcDbLine
 62
2
  6
CONTINUOUS
 10
28.5311051099
 20
2.5027948387
 11
28.6336226989
 21
2.6053124278
  0
LINE
  5
4E9
100
AcDbEntity
  8
0
100
AcDbLine
 62
2
  6
CONTINUOUS
 10
28.7554239893
 20
2.7271137181
 11
28.8500747596
 21
2.8217644884
  0
LINE
  5
4EA
100
AcDbEntity
  8
0
100
AcDbLine
 62
2
  6
CONTINUOUS
 10
28.5336790752
 20
2.5027948387
 11
28.6336226989
 21
2.6027384624
  0
LINE
  5
4EB
100
AcDbEntity
  8
0
100
AcDbLine
 62
2
  6
CONTINUOUS
 10
28.7554239893
 20
2.7245397528
 11
28.8511450093
 21
2.8202607728
  0
LINE
  5
4EC
100
AcDbEntity
  8
0
100
AcDbLine
 62
2
  6
CONTINUOUS
 10
28.5362530406
 20
2.5027948387
 11
28.6336226989
 21
2.6001644971
  0
LINE
  5
4ED
100
AcDbEntity
  8
0
100
AcDbLine
 62
2
  6
CONTINUOUS
 10
28.7554239893
 20
2.7219657874
 11
28.8522152591
 21
2.8187570573
  0
LINE
  5
4EE
100
AcDbEntity
  8
0
100
AcDbLine
 62
2
  6
CONTINUOUS
 10
28.5388270059
 20
2.5027948387
 11
28.6336226989
 21
2.5975905317
  0
LINE
  5
4EF
100
AcDbEntity
  8
0
100
AcDbLine
 62
2
  6
CONTINUOUS
 10
28.7554239893
 20
2.719391822
 11
28.8532855089
 21
2.8172533417
  0
LINE
  5
4F0
100
AcDbEntity
  8
0
100
AcDbLine
 62
2
  6
CONTINUOUS
 10
28.5414009713
 20
2.5027948387
 11
28.6336226989
 21
2.5950165664
  0
LINE
  5
4F1
100
AcDbEntity
  8
0
100
AcDbLine
 62
2
  6
CONTINUOUS
 10
28.7554239893
 20
2.7168178567
 11
28.8543557587
 21
2.8157496261
  0
LINE
  5
4F2
100
AcDbEntity
  8
0
100
AcDbLine
 62
2
  6
CONTINUOUS
 10
28.5439749367
 20
2.5027948387
 11
28.6336226989
 21
2.592442601
  0
LINE
  5
4F3
100
AcDbEntity
  8
0
100
AcDbLine
 62
2
  6
CONTINUOUS
 10
28.7554239893
 20
2.7142438913
 11
28.8554260085
 21
2.8142459105
  0
LINE
  5
4F4
100
AcDbEntity
  8
0
100
AcDbLine
 62
2
  6
CONTINUOUS
 10
28.546548902
 20
2.5027948387
 11
28.6336226989
 21
2.5898686356
  0
LINE
  5
4F5
100
AcDbEntity
  8
0
100
AcDbLine
 62
2
  6
CONTINUOUS
 10
28.7554239893
 20
2.711669926
 11
28.8564962582
 21
2.812742195
  0
LINE
  5
4F6
100
AcDbEntity
  8
0
100
AcDbLine
 62
2
  6
CONTINUOUS
 10
28.5491228674
 20
2.5027948387
 11
28.6336226989
 21
2.5872946703
  0
LINE
  5
4F7
100
AcDbEntity
  8
0
100
AcDbLine
 62
2
  6
CONTINUOUS
 10
28.7554239893
 20
2.7090959606
 11
28.857566508
 21
2.8112384794
  0
LINE
  5
4F8
100
AcDbEntity
  8
0
100
AcDbLine
 62
2
  6
CONTINUOUS
 10
28.5516968327
 20
2.5027948387
 11
28.6336226989
 21
2.5847207049
  0
LINE
  5
4F9
100
AcDbEntity
  8
0
100
AcDbLine
 62
2
  6
CONTINUOUS
 10
28.7554239893
 20
2.7065219952
 11
28.8586367578
 21
2.8097347638
  0
LINE
  5
4FA
100
AcDbEntity
  8
0
100
AcDbLine
 62
2
  6
CONTINUOUS
 10
28.5542707981
 20
2.5027948387
 11
28.6336226989
 21
2.5821467396
  0
LINE
  5
4FB
100
AcDbEntity
  8
0
100
AcDbLine
 62
2
  6
CONTINUOUS
 10
28.7554239893
 20
2.7039480299
 11
28.8597070076
 21
2.8082310482
  0
LINE
  5
4FC
100
AcDbEntity
  8
0
100
AcDbLine
 62
2
  6
CONTINUOUS
 10
28.5568447634
 20
2.5027948387
 11
28.6336226989
 21
2.5795727742
  0
LINE
  5
4FD
100
AcDbEntity
  8
0
100
AcDbLine
 62
2
  6
CONTINUOUS
 10
28.7554239893
 20
2.7013740645
 11
28.8605429914
 21
2.8064930666
  0
LINE
  5
4FE
100
AcDbEntity
  8
0
100
AcDbLine
 62
2
  6
CONTINUOUS
 10
28.5594187288
 20
2.5027948387
 11
28.6336226989
 21
2.5769988089
  0
LINE
  5
4FF
100
AcDbEntity
  8
0
100
AcDbLine
 62
2
  6
CONTINUOUS
 10
28.7554239893
 20
2.6988000992
 11
28.8613636654
 21
2.8047397753
  0
LINE
  5
500
100
AcDbEntity
  8
0
100
AcDbLine
 62
2
  6
CONTINUOUS
 10
28.5619926942
 20
2.5027948387
 11
28.6336226989
 21
2.5744248435
  0
LINE
  5
501
100
AcDbEntity
  8
0
100
AcDbLine
 62
2
  6
CONTINUOUS
 10
28.7554239893
 20
2.6962261338
 11
28.8621843394
 21
2.802986484
  0
LINE
  5
502
100
AcDbEntity
  8
0
100
AcDbLine
 62
2
  6
CONTINUOUS
 10
28.5645666595
 20
2.5027948387
 11
28.6336226989
 21
2.5718508781
  0
LINE
  5
503
100
AcDbEntity
  8
0
100
AcDbLine
 62
2
  6
CONTINUOUS
 10
28.7554239893
 20
2.6936521685
 11
28.8630050135
 21
2.8012331927
  0
LINE
  5
504
100
AcDbEntity
  8
0
100
AcDbLine
 62
2
  6
CONTINUOUS
 10
28.5671406249
 20
2.5027948387
 11
28.6336226989
 21
2.5692769128
  0
LINE
  5
505
100
AcDbEntity
  8
0
100
AcDbLine
 62
2
  6
CONTINUOUS
 10
28.7554239893
 20
2.6910782031
 11
28.8638256875
 21
2.7994799014
  0
LINE
  5
506
100
AcDbEntity
  8
0
100
AcDbLine
 62
2
  6
CONTINUOUS
 10
28.5697145902
 20
2.5027948387
 11
28.6336226989
 21
2.5667029474
  0
LINE
  5
507
100
AcDbEntity
  8
0
100
AcDbLine
 62
2
  6
CONTINUOUS
 10
28.7554239893
 20
2.6885042377
 11
28.8646463615
 21
2.79772661
  0
LINE
  5
508
100
AcDbEntity
  8
0
100
AcDbLine
 62
2
  6
CONTINUOUS
 10
28.5722885556
 20
2.5027948387
 11
28.6336226989
 21
2.5641289821
  0
LINE
  5
509
100
AcDbEntity
  8
0
100
AcDbLine
 62
2
  6
CONTINUOUS
 10
28.7554239893
 20
2.6859302724
 11
28.8654670356
 21
2.7959733187
  0
LINE
  5
50A
100
AcDbEntity
  8
0
100
AcDbLine
 62
2
  6
CONTINUOUS
 10
28.574862521
 20
2.5027948387
 11
28.6336226989
 21
2.5615550167
  0
LINE
  5
50B
100
AcDbEntity
  8
0
100
AcDbLine
 62
2
  6
CONTINUOUS
 10
28.7554239893
 20
2.683356307
 11
28.8662877096
 21
2.7942200274
  0
LINE
  5
50C
100
AcDbEntity
  8
0
100
AcDbLine
 62
2
  6
CONTINUOUS
 10
28.5774364863
 20
2.5027948387
 11
28.6336226989
 21
2.5589810513
  0
LINE
  5
50D
100
AcDbEntity
  8
0
100
AcDbLine
 62
2
  6
CONTINUOUS
 10
28.7554239893
 20
2.6807823417
 11
28.8671083837
 21
2.7924667361
  0
LINE
  5
50E
100
AcDbEntity
  8
0
100
AcDbLine
 62
2
  6
CONTINUOUS
 10
28.5800104517
 20
2.5027948387
 11
28.6336226989
 21
2.556407086
  0
LINE
  5
50F
100
AcDbEntity
  8
0
100
AcDbLine
 62
2
  6
CONTINUOUS
 10
28.7554239893
 20
2.6782083763
 11
28.8679290577
 21
2.7907134448
  0
LINE
  5
510
100
AcDbEntity
  8
0
100
AcDbLine
 62
2
  6
CONTINUOUS
 10
28.9444259915
 20
2.8672103785
 11
28.9454143226
 21
2.8681987097
  0
LINE
  5
511
100
AcDbEntity
  8
0
100
AcDbLine
 62
2
  6
CONTINUOUS
 10
28.582584417
 20
2.5027948387
 11
28.6336226989
 21
2.5538331206
  0
LINE
  5
512
100
AcDbEntity
  8
0
100
AcDbLine
 62
2
  6
CONTINUOUS
 10
28.7554239893
 20
2.6756344109
 11
28.8687497317
 21
2.7889601534
  0
LINE
  5
513
100
AcDbEntity
  8
0
100
AcDbLine
 62
2
  6
CONTINUOUS
 10
28.9444259915
 20
2.8646364132
 11
28.947988288
 21
2.8681987097
  0
LINE
  5
514
100
AcDbEntity
  8
0
100
AcDbLine
 62
2
  6
CONTINUOUS
 10
28.5851583824
 20
2.5027948387
 11
28.6336226989
 21
2.5512591553
  0
LINE
  5
515
100
AcDbEntity
  8
0
100
AcDbLine
 62
2
  6
CONTINUOUS
 10
28.7554239893
 20
2.6730604456
 11
28.8694943443
 21
2.7871308007
  0
LINE
  5
516
100
AcDbEntity
  8
0
100
AcDbLine
 62
2
  6
CONTINUOUS
 10
28.9444259915
 20
2.8620624478
 11
28.9505622533
 21
2.8681987097
  0
LINE
  5
517
100
AcDbEntity
  8
0
100
AcDbLine
 62
2
  6
CONTINUOUS
 10
28.5877323477
 20
2.5027948387
 11
28.6336226989
 21
2.5486851899
  0
LINE
  5
518
100
AcDbEntity
  8
0
100
AcDbLine
 62
2
  6
CONTINUOUS
 10
28.7554239893
 20
2.6704864802
 11
28.8700347604
 21
2.7850972514
  0
LINE
  5
519
100
AcDbEntity
  8
0
100
AcDbLine
 62
2
  6
CONTINUOUS
 10
28.9444259915
 20
2.8594884825
 11
28.9531362187
 21
2.8681987097
  0
LINE
  5
51A
100
AcDbEntity
  8
0
100
AcDbLine
 62
2
  6
CONTINUOUS
 10
28.5903063131
 20
2.5027948387
 11
28.6336226989
 21
2.5461112246
  0
LINE
  5
51B
100
AcDbEntity
  8
0
100
AcDbLine
 62
2
  6
CONTINUOUS
 10
28.7554239893
 20
2.6679125149
 11
28.8705751765
 21
2.7830637022
  0
LINE
  5
51C
100
AcDbEntity
  8
0
100
AcDbLine
 62
2
  6
CONTINUOUS
 10
28.9444259915
 20
2.8569145171
 11
28.9557101841
 21
2.8681987097
  0
LINE
  5
51D
100
AcDbEntity
  8
0
100
AcDbLine
 62
2
  6
CONTINUOUS
 10
28.5928802785
 20
2.5027948387
 11
28.6336226989
 21
2.5435372592
  0
LINE
  5
51E
100
AcDbEntity
  8
0
100
AcDbLine
 62
2
  6
CONTINUOUS
 10
28.7554239893
 20
2.6653385495
 11
28.8711155927
 21
2.7810301529
  0
LINE
  5
51F
100
AcDbEntity
  8
0
100
AcDbLine
 62
2
  6
CONTINUOUS
 10
28.9444259915
 20
2.8543405517
 11
28.9582841494
 21
2.8681987097
  0
LINE
  5
520
100
AcDbEntity
  8
0
100
AcDbLine
 62
2
  6
CONTINUOUS
 10
28.5954542438
 20
2.5027948387
 11
28.6336226989
 21
2.5409632938
  0
LINE
  5
521
100
AcDbEntity
  8
0
100
AcDbLine
 62
2
  6
CONTINUOUS
 10
28.7554239893
 20
2.6627645842
 11
28.8716560088
 21
2.7789966037
  0
LINE
  5
522
100
AcDbEntity
  8
0
100
AcDbLine
 62
2
  6
CONTINUOUS
 10
28.9444259915
 20
2.8517665864
 11
28.9608581148
 21
2.8681987097
  0
LINE
  5
523
100
AcDbEntity
  8
0
100
AcDbLine
 62
2
  6
CONTINUOUS
 10
28.5980282092
 20
2.5027948387
 11
28.6336226989
 21
2.5383893285
  0
LINE
  5
524
100
AcDbEntity
  8
0
100
AcDbLine
 62
2
  6
CONTINUOUS
 10
28.7554239893
 20
2.6601906188
 11
28.8721964249
 21
2.7769630544
  0
LINE
  5
525
100
AcDbEntity
  8
0
100
AcDbLine
 62
2
  6
CONTINUOUS
 10
28.9444259915
 20
2.849192621
 11
28.9634320801
 21
2.8681987097
  0
LINE
  5
526
100
AcDbEntity
  8
0
100
AcDbLine
 62
2
  6
CONTINUOUS
 10
28.6006021745
 20
2.5027948387
 11
28.6336226989
 21
2.5358153631
  0
LINE
  5
527
100
AcDbEntity
  8
0
100
AcDbLine
 62
2
  6
CONTINUOUS
 10
28.7554239893
 20
2.6576166534
 11
28.872736841
 21
2.7749295052
  0
LINE
  5
528
100
AcDbEntity
  8
0
100
AcDbLine
 62
2
  6
CONTINUOUS
 10
28.9444259915
 20
2.8466186557
 11
28.9660060455
 21
2.8681987097
  0
LINE
  5
529
100
AcDbEntity
  8
0
100
AcDbLine
 62
2
  6
CONTINUOUS
 10
28.6031761399
 20
2.5027948387
 11
28.6336226989
 21
2.5332413978
  0
LINE
  5
52A
100
AcDbEntity
  8
0
100
AcDbLine
 62
2
  6
CONTINUOUS
 10
28.7554239893
 20
2.6550426881
 11
28.8732772571
 21
2.7728959559
  0
LINE
  5
52B
100
AcDbEntity
  8
0
100
AcDbLine
 62
2
  6
CONTINUOUS
 10
28.9444259915
 20
2.8440446903
 11
28.9685800109
 21
2.8681987097
  0
LINE
  5
52C
100
AcDbEntity
  8
0
100
AcDbLine
 62
2
  6
CONTINUOUS
 10
28.6057501053
 20
2.5027948387
 11
28.6336226989
 21
2.5306674324
  0
LINE
  5
52D
100
AcDbEntity
  8
0
100
AcDbLine
 62
2
  6
CONTINUOUS
 10
28.7554239893
 20
2.6524687227
 11
28.8738176732
 21
2.7708624067
  0
LINE
  5
52E
100
AcDbEntity
  8
0
100
AcDbLine
 62
2
  6
CONTINUOUS
 10
28.9444259915
 20
2.8414707249
 11
28.9711539762
 21
2.8681987097
  0
LINE
  5
52F
100
AcDbEntity
  8
0
100
AcDbLine
 62
2
  6
CONTINUOUS
 10
28.6083240706
 20
2.5027948387
 11
28.6336226989
 21
2.528093467
  0
LINE
  5
530
100
AcDbEntity
  8
0
100
AcDbLine
 62
2
  6
CONTINUOUS
 10
28.7554239893
 20
2.6498947574
 11
28.8743580893
 21
2.7688288574
  0
LINE
  5
531
100
AcDbEntity
  8
0
100
AcDbLine
 62
2
  6
CONTINUOUS
 10
28.9444259915
 20
2.8388967596
 11
28.9737279416
 21
2.8681987097
  0
LINE
  5
532
100
AcDbEntity
  8
0
100
AcDbLine
 62
2
  6
CONTINUOUS
 10
28.610898036
 20
2.5027948387
 11
28.6336226989
 21
2.5255195017
  0
LINE
  5
533
100
AcDbEntity
  8
0
100
AcDbLine
 62
2
  6
CONTINUOUS
 10
28.7554239893
 20
2.647320792
 11
28.8748985054
 21
2.7667953082
  0
LINE
  5
534
100
AcDbEntity
  8
0
100
AcDbLine
 62
2
  6
CONTINUOUS
 10
28.9444259915
 20
2.8363227942
 11
28.9763019069
 21
2.8681987097
  0
LINE
  5
535
100
AcDbEntity
  8
0
100
AcDbLine
 62
2
  6
CONTINUOUS
 10
28.6134720013
 20
2.5027948387
 11
28.6336226989
 21
2.5229455363
  0
LINE
  5
536
100
AcDbEntity
  8
0
100
AcDbLine
 62
2
  6
CONTINUOUS
 10
28.7554239893
 20
2.6447468267
 11
28.8753081366
 21
2.764630974
  0
LINE
  5
537
100
AcDbEntity
  8
0
100
AcDbLine
 62
2
  6
CONTINUOUS
 10
28.9444259915
 20
2.8337488289
 11
28.9788758723
 21
2.8681987097
  0
LINE
  5
538
100
AcDbEntity
  8
0
100
AcDbLine
 62
2
  6
CONTINUOUS
 10
28.6160459667
 20
2.5027948387
 11
28.6336226989
 21
2.520371571
  0
LINE
  5
539
100
AcDbEntity
  8
0
100
AcDbLine
 62
2
  6
CONTINUOUS
 10
28.7554239893
 20
2.6421728613
 11
28.8755107858
 21
2.7622596579
  0
LINE
  5
53A
100
AcDbEntity
  8
0
100
AcDbLine
 62
2
  6
CONTINUOUS
 10
28.9444259915
 20
2.8311748635
 11
28.9814498376
 21
2.8681987097
  0
LINE
  5
53B
100
AcDbEntity
  8
0
100
AcDbLine
 62
2
  6
CONTINUOUS
 10
28.618619932
 20
2.5027948387
 11
28.6336226989
 21
2.5177976056
  0
LINE
  5
53C
100
AcDbEntity
  8
0
100
AcDbLine
 62
2
  6
CONTINUOUS
 10
28.7554239893
 20
2.6395988959
 11
28.8757134351
 21
2.7598883418
  0
LINE
  5
53D
100
AcDbEntity
  8
0
100
AcDbLine
 62
2
  6
CONTINUOUS
 10
28.9444259915
 20
2.8286008982
 11
28.984023803
 21
2.8681987097
  0
LINE
  5
53E
100
AcDbEntity
  8
0
100
AcDbLine
 62
2
  6
CONTINUOUS
 10
28.6211938974
 20
2.5027948387
 11
28.6336226989
 21
2.5152236403
  0
LINE
  5
53F
100
AcDbEntity
  8
0
100
AcDbLine
 62
2
  6
CONTINUOUS
 10
28.7554239893
 20
2.6370249306
 11
28.8759160843
 21
2.7575170257
  0
LINE
  5
540
100
AcDbEntity
  8
0
100
AcDbLine
 62
2
  6
CONTINUOUS
 10
28.9444259915
 20
2.8260269328
 11
28.9865977684
 21
2.8681987097
  0
LINE
  5
541
100
AcDbEntity
  8
0
100
AcDbLine
 62
2
  6
CONTINUOUS
 10
28.6237678628
 20
2.5027948387
 11
28.6336226989
 21
2.5126496749
  0
LINE
  5
542
100
AcDbEntity
  8
0
100
AcDbLine
 62
2
  6
CONTINUOUS
 10
28.7554239893
 20
2.6344509652
 11
28.8761187336
 21
2.7551457095
  0
LINE
  5
543
100
AcDbEntity
  8
0
100
AcDbLine
 62
2
  6
CONTINUOUS
 10
28.9444259915
 20
2.8234529674
 11
28.9891717337
 21
2.8681987097
  0
LINE
  5
544
100
AcDbEntity
  8
0
100
AcDbLine
 62
2
  6
CONTINUOUS
 10
28.6263418281
 20
2.5027948387
 11
28.6336226989
 21
2.5100757095
  0
LINE
  5
545
100
AcDbEntity
  8
0
100
AcDbLine
 62
2
  6
CONTINUOUS
 10
28.7554239893
 20
2.6318769999
 11
28.8763213828
 21
2.7527743934
  0
LINE
  5
546
100
AcDbEntity
  8
0
100
AcDbLine
 62
2
  6
CONTINUOUS
 10
28.9444259915
 20
2.8208790021
 11
28.9917456991
 21
2.8681987097
  0
LINE
  5
547
100
AcDbEntity
  8
0
100
AcDbLine
 62
2
  6
CONTINUOUS
 10
28.6289157935
 20
2.5027948387
 11
28.6336226989
 21
2.5075017442
  0
LINE
  5
548
100
AcDbEntity
  8
0
100
AcDbLine
 62
2
  6
CONTINUOUS
 10
28.7554239893
 20
2.6293030345
 11
28.8765240321
 21
2.7504030773
  0
LINE
  5
549
100
AcDbEntity
  8
0
100
AcDbLine
 62
2
  6
CONTINUOUS
 10
28.9444259915
 20
2.8183050367
 11
28.9943196644
 21
2.8681987097
  0
LINE
  5
54A
100
AcDbEntity
  8
0
100
AcDbLine
 62
2
  6
CONTINUOUS
 10
28.6314897588
 20
2.5027948387
 11
28.6336226989
 21
2.5049277788
  0
LINE
  5
54B
100
AcDbEntity
  8
0
100
AcDbLine
 62
2
  6
CONTINUOUS
 10
28.7554239893
 20
2.6267290691
 11
28.8767266813
 21
2.7480317612
  0
LINE
  5
54C
100
AcDbEntity
  8
0
100
AcDbLine
 62
2
  6
CONTINUOUS
 10
28.9444259915
 20
2.8157310714
 11
28.9968936298
 21
2.8681987097
  0
LINE
  5
54D
100
AcDbEntity
  8
0
100
AcDbLine
 62
2
  6
CONTINUOUS
 10
28.7554239893
 20
2.6241551038
 11
28.8769293306
 21
2.7456604451
  0
LINE
  5
54E
100
AcDbEntity
  8
0
100
AcDbLine
 62
2
  6
CONTINUOUS
 10
28.9444259915
 20
2.813157106
 11
28.9994675952
 21
2.8681987097
  0
LINE
  5
54F
100
AcDbEntity
  8
0
100
AcDbLine
 62
2
  6
CONTINUOUS
 10
28.7554239893
 20
2.6215811384
 11
28.8771319798
 21
2.743289129
  0
LINE
  5
550
100
AcDbEntity
  8
0
100
AcDbLine
 62
2
  6
CONTINUOUS
 10
28.9444259915
 20
2.8105831406
 11
29.0020415605
 21
2.8681987097
  0
LINE
  5
551
100
AcDbEntity
  8
0
100
AcDbLine
 62
2
  6
CONTINUOUS
 10
28.7554239893
 20
2.6190071731
 11
28.8772252796
 21
2.7408084634
  0
LINE
  5
552
100
AcDbEntity
  8
0
100
AcDbLine
 62
2
  6
CONTINUOUS
 10
28.9444259915
 20
2.8080091753
 11
29.0046155259
 21
2.8681987097
  0
LINE
  5
553
100
AcDbEntity
  8
0
100
AcDbLine
 62
2
  6
CONTINUOUS
 10
28.7554239893
 20
2.6164332077
 11
28.8772252796
 21
2.738234498
  0
LINE
  5
554
100
AcDbEntity
  8
0
100
AcDbLine
 62
2
  6
CONTINUOUS
 10
28.9444259915
 20
2.8054352099
 11
29.0071894912
 21
2.8681987097
  0
LINE
  5
555
100
AcDbEntity
  8
0
100
AcDbLine
 62
2
  6
CONTINUOUS
 10
28.7554239893
 20
2.6138592424
 11
28.8772252796
 21
2.7356605327
  0
LINE
  5
556
100
AcDbEntity
  8
0
100
AcDbLine
 62
2
  6
CONTINUOUS
 10
28.9444259915
 20
2.8028612446
 11
29.0097634566
 21
2.8681987097
  0
LINE
  5
557
100
AcDbEntity
  8
0
100
AcDbLine
 62
2
  6
CONTINUOUS
 10
28.7554239893
 20
2.611285277
 11
28.8772252796
 21
2.7330865673
  0
LINE
  5
558
100
AcDbEntity
  8
0
100
AcDbLine
 62
2
  6
CONTINUOUS
 10
28.9444259915
 20
2.8002872792
 11
29.0123374219
 21
2.8681987097
  0
LINE
  5
559
100
AcDbEntity
  8
0
100
AcDbLine
 62
2
  6
CONTINUOUS
 10
28.7554239893
 20
2.6087113116
 11
28.8772252796
 21
2.730512602
  0
LINE
  5
55A
100
AcDbEntity
  8
0
100
AcDbLine
 62
2
  6
CONTINUOUS
 10
28.9444259915
 20
2.7977133139
 11
29.0149113873
 21
2.8681987097
  0
LINE
  5
55B
100
AcDbEntity
  8
0
100
AcDbLine
 62
2
  6
CONTINUOUS
 10
28.7554239893
 20
2.6061373463
 11
28.8772252796
 21
2.7279386366
  0
LINE
  5
55C
100
AcDbEntity
  8
0
100
AcDbLine
 62
2
  6
CONTINUOUS
 10
28.9444259915
 20
2.7951393485
 11
29.0174853527
 21
2.8681987097
  0
LINE
  5
55D
100
AcDbEntity
  8
0
100
AcDbLine
 62
2
  6
CONTINUOUS
 10
28.7554239893
 20
2.6035633809
 11
28.8772252796
 21
2.7253646712
  0
LINE
  5
55E
100
AcDbEntity
  8
0
100
AcDbLine
 62
2
  6
CONTINUOUS
 10
28.9444259915
 20
2.7925653831
 11
29.020059318
 21
2.8681987097
  0
LINE
  5
55F
100
AcDbEntity
  8
0
100
AcDbLine
 62
2
  6
CONTINUOUS
 10
28.7554239893
 20
2.6009894156
 11
28.8772252796
 21
2.7227907059
  0
LINE
  5
560
100
AcDbEntity
  8
0
100
AcDbLine
 62
2
  6
CONTINUOUS
 10
28.9444259915
 20
2.7899914178
 11
29.0226332834
 21
2.8681987097
  0
LINE
  5
561
100
AcDbEntity
  8
0
100
AcDbLine
 62
2
  6
CONTINUOUS
 10
28.7554239893
 20
2.5984154502
 11
28.8772252796
 21
2.7202167405
  0
LINE
  5
562
100
AcDbEntity
  8
0
100
AcDbLine
 62
2
  6
CONTINUOUS
 10
28.9444259915
 20
2.7874174524
 11
29.0252072487
 21
2.8681987097
  0
LINE
  5
563
100
AcDbEntity
  8
0
100
AcDbLine
 62
2
  6
CONTINUOUS
 10
28.7554239893
 20
2.5958414848
 11
28.8772252796
 21
2.7176427752
  0
LINE
  5
564
100
AcDbEntity
  8
0
100
AcDbLine
 62
2
  6
CONTINUOUS
 10
28.9444259915
 20
2.7848434871
 11
29.0277812141
 21
2.8681987097
  0
LINE
  5
565
100
AcDbEntity
  8
0
100
AcDbLine
 62
2
  6
CONTINUOUS
 10
28.7554239893
 20
2.5932675195
 11
28.8772252796
 21
2.7150688098
  0
LINE
  5
566
100
AcDbEntity
  8
0
100
AcDbLine
 62
2
  6
CONTINUOUS
 10
28.9444259915
 20
2.7822695217
 11
29.0303551795
 21
2.8681987097
  0
LINE
  5
567
100
AcDbEntity
  8
0
100
AcDbLine
 62
2
  6
CONTINUOUS
 10
28.7554239893
 20
2.5906935541
 11
28.8772252796
 21
2.7124948444
  0
LINE
  5
568
100
AcDbEntity
  8
0
100
AcDbLine
 62
2
  6
CONTINUOUS
 10
28.9444259915
 20
2.7796955563
 11
29.0329291448
 21
2.8681987097
  0
LINE
  5
569
100
AcDbEntity
  8
0
100
AcDbLine
 62
2
  6
CONTINUOUS
 10
28.7554239893
 20
2.5881195888
 11
28.8772252796
 21
2.7099208791
  0
LINE
  5
56A
100
AcDbEntity
  8
0
100
AcDbLine
 62
2
  6
CONTINUOUS
 10
28.9444259915
 20
2.777121591
 11
29.0355031102
 21
2.8681987097
  0
LINE
  5
56B
100
AcDbEntity
  8
0
100
AcDbLine
 62
2
  6
CONTINUOUS
 10
28.7554239893
 20
2.5855456234
 11
28.8772252796
 21
2.7073469137
  0
LINE
  5
56C
100
AcDbEntity
  8
0
100
AcDbLine
 62
2
  6
CONTINUOUS
 10
28.9444259915
 20
2.7745476256
 11
29.0380770755
 21
2.8681987097
  0
LINE
  5
56D
100
AcDbEntity
  8
0
100
AcDbLine
 62
2
  6
CONTINUOUS
 10
28.7554239893
 20
2.5829716581
 11
28.8772252796
 21
2.7047729484
  0
LINE
  5
56E
100
AcDbEntity
  8
0
100
AcDbLine
 62
2
  6
CONTINUOUS
 10
28.9444259915
 20
2.7719736603
 11
29.0406510409
 21
2.8681987097
  0
LINE
  5
56F
100
AcDbEntity
  8
0
100
AcDbLine
 62
2
  6
CONTINUOUS
 10
28.7554239893
 20
2.5803976927
 11
28.8772252796
 21
2.702198983
  0
LINE
  5
570
100
AcDbEntity
  8
0
100
AcDbLine
 62
2
  6
CONTINUOUS
 10
28.9444259915
 20
2.7693996949
 11
29.0432250062
 21
2.8681987097
  0
LINE
  5
571
100
AcDbEntity
  8
0
100
AcDbLine
 62
2
  6
CONTINUOUS
 10
28.7554239893
 20
2.5778237273
 11
28.8772252796
 21
2.6996250177
  0
LINE
  5
572
100
AcDbEntity
  8
0
100
AcDbLine
 62
2
  6
CONTINUOUS
 10
28.9444259915
 20
2.7668257296
 11
29.0457989716
 21
2.8681987097
  0
LINE
  5
573
100
AcDbEntity
  8
0
100
AcDbLine
 62
2
  6
CONTINUOUS
 10
28.7554239893
 20
2.575249762
 11
28.8772252796
 21
2.6970510523
  0
LINE
  5
574
100
AcDbEntity
  8
0
100
AcDbLine
 62
2
  6
CONTINUOUS
 10
28.9444259915
 20
2.7642517642
 11
29.048372937
 21
2.8681987097
  0
LINE
  5
575
100
AcDbEntity
  8
0
100
AcDbLine
 62
2
  6
CONTINUOUS
 10
28.7554239893
 20
2.5726757966
 11
28.8772252796
 21
2.6944770869
  0
LINE
  5
576
100
AcDbEntity
  8
0
100
AcDbLine
 62
2
  6
CONTINUOUS
 10
28.9444259915
 20
2.7616777988
 11
29.0509469023
 21
2.8681987097
  0
LINE
  5
577
100
AcDbEntity
  8
0
100
AcDbLine
 62
2
  6
CONTINUOUS
 10
28.7554239893
 20
2.5701018313
 11
28.8772252796
 21
2.6919031216
  0
LINE
  5
578
100
AcDbEntity
  8
0
100
AcDbLine
 62
2
  6
CONTINUOUS
 10
28.9444259915
 20
2.7591038335
 11
29.0535208677
 21
2.8681987097
  0
LINE
  5
579
100
AcDbEntity
  8
0
100
AcDbLine
 62
2
  6
CONTINUOUS
 10
28.7554239893
 20
2.5675278659
 11
28.8772252796
 21
2.6893291562
  0
LINE
  5
57A
100
AcDbEntity
  8
0
100
AcDbLine
 62
2
  6
CONTINUOUS
 10
28.9444259915
 20
2.7565298681
 11
29.056094833
 21
2.8681987097
  0
LINE
  5
57B
100
AcDbEntity
  8
0
100
AcDbLine
 62
2
  6
CONTINUOUS
 10
28.7554239893
 20
2.5649539005
 11
28.8772252796
 21
2.6867551909
  0
LINE
  5
57C
100
AcDbEntity
  8
0
100
AcDbLine
 62
2
  6
CONTINUOUS
 10
28.9444259915
 20
2.7539559028
 11
29.0586687984
 21
2.8681987097
  0
LINE
  5
57D
100
AcDbEntity
  8
0
100
AcDbLine
 62
2
  6
CONTINUOUS
 10
28.7554239893
 20
2.5623799352
 11
28.8772252796
 21
2.6841812255
  0
LINE
  5
57E
100
AcDbEntity
  8
0
100
AcDbLine
 62
2
  6
CONTINUOUS
 10
28.9444259915
 20
2.7513819374
 11
29.0612427638
 21
2.8681987097
  0
LINE
  5
57F
100
AcDbEntity
  8
0
100
AcDbLine
 62
2
  6
CONTINUOUS
 10
28.7554239893
 20
2.5598059698
 11
28.8772252796
 21
2.6816072601
  0
LINE
  5
580
100
AcDbEntity
  8
0
100
AcDbLine
 62
2
  6
CONTINUOUS
 10
28.9444259915
 20
2.748807972
 11
29.0638167291
 21
2.8681987097
  0
LINE
  5
581
100
AcDbEntity
  8
0
100
AcDbLine
 62
2
  6
CONTINUOUS
 10
28.7554239893
 20
2.5572320045
 11
28.8772252796
 21
2.6790332948
  0
LINE
  5
582
100
AcDbEntity
  8
0
100
AcDbLine
 62
2
  6
CONTINUOUS
 10
28.9444259915
 20
2.7462340067
 11
29.0662272818
 21
2.868035297
  0
LINE
  5
583
100
AcDbEntity
  8
0
100
AcDbLine
 62
2
  6
CONTINUOUS
 10
28.7554239893
 20
2.5546580391
 11
28.8772252796
 21
2.6764593294
  0
LINE
  5
584
100
AcDbEntity
  8
0
100
AcDbLine
 62
2
  6
CONTINUOUS
 10
28.9444259915
 20
2.7436600413
 11
29.0662272818
 21
2.8654613316
  0
LINE
  5
585
100
AcDbEntity
  8
0
100
AcDbLine
 62
2
  6
CONTINUOUS
 10
28.7554239893
 20
2.5520840738
 11
28.8772252796
 21
2.6738853641
  0
LINE
  5
586
100
AcDbEntity
  8
0
100
AcDbLine
 62
2
  6
CONTINUOUS
 10
28.9444259915
 20
2.741086076
 11
29.0662272818
 21
2.8628873663
  0
LINE
  5
587
100
AcDbEntity
  8
0
100
AcDbLine
 62
2
  6
CONTINUOUS
 10
28.7554239893
 20
2.5495101084
 11
28.8772252796
 21
2.6713113987
  0
LINE
  5
588
100
AcDbEntity
  8
0
100
AcDbLine
 62
2
  6
CONTINUOUS
 10
28.9444259915
 20
2.7385121106
 11
29.0662272818
 21
2.8603134009
  0
LINE
  5
589
100
AcDbEntity
  8
0
100
AcDbLine
 62
2
  6
CONTINUOUS
 10
28.7554239893
 20
2.546936143
 11
28.8772252796
 21
2.6687374334
  0
LINE
  5
58A
100
AcDbEntity
  8
0
100
AcDbLine
 62
2
  6
CONTINUOUS
 10
28.9444259915
 20
2.7359381453
 11
29.0662272818
 21
2.8577394356
  0
LINE
  5
58B
100
AcDbEntity
  8
0
100
AcDbLine
 62
2
  6
CONTINUOUS
 10
28.7554239893
 20
2.5443621777
 11
28.8772252796
 21
2.666163468
  0
LINE
  5
58C
100
AcDbEntity
  8
0
100
AcDbLine
 62
2
  6
CONTINUOUS
 10
28.9444259915
 20
2.7333641799
 11
29.0662272818
 21
2.8551654702
  0
LINE
  5
58D
100
AcDbEntity
  8
0
100
AcDbLine
 62
2
  6
CONTINUOUS
 10
28.7554239893
 20
2.5417882123
 11
28.8772252796
 21
2.6635895026
  0
LINE
  5
58E
100
AcDbEntity
  8
0
100
AcDbLine
 62
2
  6
CONTINUOUS
 10
28.9444259915
 20
2.7307902145
 11
29.0662272818
 21
2.8525915049
  0
LINE
  5
58F
100
AcDbEntity
  8
0
100
AcDbLine
 62
2
  6
CONTINUOUS
 10
28.7554239893
 20
2.539214247
 11
28.8772252796
 21
2.6610155373
  0
LINE
  5
590
100
AcDbEntity
  8
0
100
AcDbLine
 62
2
  6
CONTINUOUS
 10
28.9444259915
 20
2.7282162492
 11
29.0662272818
 21
2.8500175395
  0
LINE
  5
591
100
AcDbEntity
  8
0
100
AcDbLine
 62
2
  6
CONTINUOUS
 10
28.7554239893
 20
2.5366402816
 11
28.8772252796
 21
2.6584415719
  0
LINE
  5
592
100
AcDbEntity
  8
0
100
AcDbLine
 62
2
  6
CONTINUOUS
 10
28.9444259915
 20
2.7256422838
 11
29.0662272818
 21
2.8474435741
  0
LINE
  5
593
100
AcDbEntity
  8
0
100
AcDbLine
 62
2
  6
CONTINUOUS
 10
28.7554239893
 20
2.5340663162
 11
28.8772252796
 21
2.6558676066
  0
LINE
  5
594
100
AcDbEntity
  8
0
100
AcDbLine
 62
2
  6
CONTINUOUS
 10
28.9444259915
 20
2.7230683185
 11
29.0662272818
 21
2.8448696088
  0
LINE
  5
595
100
AcDbEntity
  8
0
100
AcDbLine
 62
2
  6
CONTINUOUS
 10
28.7554239893
 20
2.5314923509
 11
28.8772252796
 21
2.6532936412
  0
LINE
  5
596
100
AcDbEntity
  8
0
100
AcDbLine
 62
2
  6
CONTINUOUS
 10
28.9444259915
 20
2.7204943531
 11
29.0662272818
 21
2.8422956434
  0
LINE
  5
597
100
AcDbEntity
  8
0
100
AcDbLine
 62
2
  6
CONTINUOUS
 10
28.7554239893
 20
2.5289183855
 11
28.8772252796
 21
2.6507196758
  0
LINE
  5
598
100
AcDbEntity
  8
0
100
AcDbLine
 62
2
  6
CONTINUOUS
 10
28.9444259915
 20
2.7179203877
 11
29.0662272818
 21
2.8397216781
  0
LINE
  5
599
100
AcDbEntity
  8
0
100
AcDbLine
 62
2
  6
CONTINUOUS
 10
28.7554239893
 20
2.5263444202
 11
28.8772252796
 21
2.6481457105
  0
LINE
  5
59A
100
AcDbEntity
  8
0
100
AcDbLine
 62
2
  6
CONTINUOUS
 10
28.9444259915
 20
2.7153464224
 11
29.0662272818
 21
2.8371477127
  0
LINE
  5
59B
100
AcDbEntity
  8
0
100
AcDbLine
 62
2
  6
CONTINUOUS
 10
28.7554239893
 20
2.5237704548
 11
28.8772252796
 21
2.6455717451
  0
LINE
  5
59C
100
AcDbEntity
  8
0
100
AcDbLine
 62
2
  6
CONTINUOUS
 10
28.9444259915
 20
2.712772457
 11
29.0662272818
 21
2.8345737473
  0
LINE
  5
59D
100
AcDbEntity
  8
0
100
AcDbLine
 62
2
  6
CONTINUOUS
 10
28.7554239893
 20
2.5211964895
 11
28.8772252796
 21
2.6429977798
  0
LINE
  5
59E
100
AcDbEntity
  8
0
100
AcDbLine
 62
2
  6
CONTINUOUS
 10
28.9444259915
 20
2.7101984917
 11
29.0662272818
 21
2.831999782
  0
LINE
  5
59F
100
AcDbEntity
  8
0
100
AcDbLine
 62
2
  6
CONTINUOUS
 10
28.7554239893
 20
2.5186225241
 11
28.8772252796
 21
2.6404238144
  0
LINE
  5
5A0
100
AcDbEntity
  8
0
100
AcDbLine
 62
2
  6
CONTINUOUS
 10
28.9444259915
 20
2.7076245263
 11
29.0662272818
 21
2.8294258166
  0
LINE
  5
5A1
100
AcDbEntity
  8
0
100
AcDbLine
 62
2
  6
CONTINUOUS
 10
28.7554239893
 20
2.5160485587
 11
28.8772252796
 21
2.6378498491
  0
LINE
  5
5A2
100
AcDbEntity
  8
0
100
AcDbLine
 62
2
  6
CONTINUOUS
 10
28.9444259915
 20
2.705050561
 11
29.0662272818
 21
2.8268518513
  0
LINE
  5
5A3
100
AcDbEntity
  8
0
100
AcDbLine
 62
2
  6
CONTINUOUS
 10
28.7554239893
 20
2.5134745934
 11
28.8772252796
 21
2.6352758837
  0
LINE
  5
5A4
100
AcDbEntity
  8
0
100
AcDbLine
 62
2
  6
CONTINUOUS
 10
28.9444259915
 20
2.7024765956
 11
29.0662272818
 21
2.8242778859
  0
LINE
  5
5A5
100
AcDbEntity
  8
0
100
AcDbLine
 62
2
  6
CONTINUOUS
 10
28.7554239893
 20
2.510900628
 11
28.8772252796
 21
2.6327019183
  0
LINE
  5
5A6
100
AcDbEntity
  8
0
100
AcDbLine
 62
2
  6
CONTINUOUS
 10
28.9444259915
 20
2.6999026302
 11
29.0662272818
 21
2.8217039206
  0
LINE
  5
5A7
100
AcDbEntity
  8
0
100
AcDbLine
 62
2
  6
CONTINUOUS
 10
28.7554239893
 20
2.5083266627
 11
28.8772252796
 21
2.630127953
  0
LINE
  5
5A8
100
AcDbEntity
  8
0
100
AcDbLine
 62
2
  6
CONTINUOUS
 10
28.9444259915
 20
2.6973286649
 11
29.0662272818
 21
2.8191299552
  0
LINE
  5
5A9
100
AcDbEntity
  8
0
100
AcDbLine
 62
2
  6
CONTINUOUS
 10
28.7554239893
 20
2.5057526973
 11
28.8772252796
 21
2.6275539876
  0
LINE
  5
5AA
100
AcDbEntity
  8
0
100
AcDbLine
 62
2
  6
CONTINUOUS
 10
28.9444259915
 20
2.6947546995
 11
29.0662272818
 21
2.8165559898
  0
LINE
  5
5AB
100
AcDbEntity
  8
0
100
AcDbLine
 62
2
  6
CONTINUOUS
 10
28.7554239893
 20
2.5031787319
 11
28.8772252796
 21
2.6249800223
  0
LINE
  5
5AC
100
AcDbEntity
  8
0
100
AcDbLine
 62
2
  6
CONTINUOUS
 10
28.9444259915
 20
2.6921807342
 11
29.0662272818
 21
2.8139820245
  0
LINE
  5
5AD
100
AcDbEntity
  8
0
100
AcDbLine
 62
2
  6
CONTINUOUS
 10
28.7576140614
 20
2.5027948387
 11
28.8772252796
 21
2.6224060569
  0
LINE
  5
5AE
100
AcDbEntity
  8
0
100
AcDbLine
 62
2
  6
CONTINUOUS
 10
28.9444259915
 20
2.6896067688
 11
29.0662272818
 21
2.8114080591
  0
LINE
  5
5AF
100
AcDbEntity
  8
0
100
AcDbLine
 62
2
  6
CONTINUOUS
 10
28.7601880268
 20
2.5027948387
 11
28.8772252796
 21
2.6198320915
  0
LINE
  5
5B0
100
AcDbEntity
  8
0
100
AcDbLine
 62
2
  6
CONTINUOUS
 10
28.9444259915
 20
2.6870328034
 11
29.0662272818
 21
2.8088340938
  0
LINE
  5
5B1
100
AcDbEntity
  8
0
100
AcDbLine
 62
2
  6
CONTINUOUS
 10
28.7627619921
 20
2.5027948387
 11
28.8772252796
 21
2.6172581262
  0
LINE
  5
5B2
100
AcDbEntity
  8
0
100
AcDbLine
 62
2
  6
CONTINUOUS
 10
28.9444259915
 20
2.6844588381
 11
29.0662272818
 21
2.8062601284
  0
LINE
  5
5B3
100
AcDbEntity
  8
0
100
AcDbLine
 62
2
  6
CONTINUOUS
 10
28.7653359575
 20
2.5027948387
 11
28.8772252796
 21
2.6146841608
  0
LINE
  5
5B4
100
AcDbEntity
  8
0
100
AcDbLine
 62
2
  6
CONTINUOUS
 10
28.9444259915
 20
2.6818848727
 11
29.0662272818
 21
2.803686163
  0
LINE
  5
5B5
100
AcDbEntity
  8
0
100
AcDbLine
 62
2
  6
CONTINUOUS
 10
28.7679099228
 20
2.5027948387
 11
28.8772252796
 21
2.6121101955
  0
LINE
  5
5B6
100
AcDbEntity
  8
0
100
AcDbLine
 62
2
  6
CONTINUOUS
 10
28.9444259915
 20
2.6793109074
 11
29.0662272818
 21
2.8011121977
  0
LINE
  5
5B7
100
AcDbEntity
  8
0
100
AcDbLine
 62
2
  6
CONTINUOUS
 10
28.7704838882
 20
2.5027948387
 11
28.8772252796
 21
2.6095362301
  0
LINE
  5
5B8
100
AcDbEntity
  8
0
100
AcDbLine
 62
2
  6
CONTINUOUS
 10
28.9444259915
 20
2.676736942
 11
29.0662272818
 21
2.7985382323
  0
LINE
  5
5B9
100
AcDbEntity
  8
0
100
AcDbLine
 62
2
  6
CONTINUOUS
 10
28.7730578535
 20
2.5027948387
 11
28.8772252796
 21
2.6069622648
  0
LINE
  5
5BA
100
AcDbEntity
  8
0
100
AcDbLine
 62
2
  6
CONTINUOUS
 10
28.9444259915
 20
2.6741629767
 11
29.0662272818
 21
2.795964267
  0
LINE
  5
5BB
100
AcDbEntity
  8
0
100
AcDbLine
 62
2
  6
CONTINUOUS
 10
28.7756318189
 20
2.5027948387
 11
28.8772252796
 21
2.6043882994
  0
LINE
  5
5BC
100
AcDbEntity
  8
0
100
AcDbLine
 62
2
  6
CONTINUOUS
 10
28.9444259915
 20
2.6715890113
 11
29.0662272818
 21
2.7933903016
  0
LINE
  5
5BD
100
AcDbEntity
  8
0
100
AcDbLine
 62
2
  6
CONTINUOUS
 10
28.7782057843
 20
2.5027948387
 11
28.8772252796
 21
2.601814334
  0
LINE
  5
5BE
100
AcDbEntity
  8
0
100
AcDbLine
 62
2
  6
CONTINUOUS
 10
28.9444259915
 20
2.6690150459
 11
29.0662272818
 21
2.7908163363
  0
LINE
  5
5BF
100
AcDbEntity
  8
0
100
AcDbLine
 62
2
  6
CONTINUOUS
 10
28.7807797496
 20
2.5027948387
 11
28.8772252796
 21
2.5992403687
  0
LINE
  5
5C0
100
AcDbEntity
  8
0
100
AcDbLine
 62
2
  6
CONTINUOUS
 10
28.9444259915
 20
2.6664410806
 11
29.0662272818
 21
2.7882423709
  0
LINE
  5
5C1
100
AcDbEntity
  8
0
100
AcDbLine
 62
2
  6
CONTINUOUS
 10
28.783353715
 20
2.5027948387
 11
28.8772252796
 21
2.5966664033
  0
LINE
  5
5C2
100
AcDbEntity
  8
0
100
AcDbLine
 62
2
  6
CONTINUOUS
 10
28.9444259915
 20
2.6638671152
 11
29.0662272818
 21
2.7856684055
  0
LINE
  5
5C3
100
AcDbEntity
  8
0
100
AcDbLine
 62
2
  6
CONTINUOUS
 10
28.7859276803
 20
2.5027948387
 11
28.8772252796
 21
2.594092438
  0
LINE
  5
5C4
100
AcDbEntity
  8
0
100
AcDbLine
 62
2
  6
CONTINUOUS
 10
28.9444259915
 20
2.6612931499
 11
29.0662272818
 21
2.7830944402
  0
LINE
  5
5C5
100
AcDbEntity
  8
0
100
AcDbLine
 62
2
  6
CONTINUOUS
 10
28.7885016457
 20
2.5027948387
 11
28.8772252796
 21
2.5915184726
  0
LINE
  5
5C6
100
AcDbEntity
  8
0
100
AcDbLine
 62
2
  6
CONTINUOUS
 10
28.9444259915
 20
2.6587191845
 11
29.0662272818
 21
2.7805204748
  0
LINE
  5
5C7
100
AcDbEntity
  8
0
100
AcDbLine
 62
2
  6
CONTINUOUS
 10
28.7910756111
 20
2.5027948387
 11
28.8772252796
 21
2.5889445072
  0
LINE
  5
5C8
100
AcDbEntity
  8
0
100
AcDbLine
 62
2
  6
CONTINUOUS
 10
28.9444259915
 20
2.6561452191
 11
29.0662272818
 21
2.7779465095
  0
LINE
  5
5C9
100
AcDbEntity
  8
0
100
AcDbLine
 62
2
  6
CONTINUOUS
 10
28.7936495764
 20
2.5027948387
 11
28.8772252796
 21
2.5863705419
  0
LINE
  5
5CA
100
AcDbEntity
  8
0
100
AcDbLine
 62
2
  6
CONTINUOUS
 10
28.9444259915
 20
2.6535712538
 11
29.0662272818
 21
2.7753725441
  0
LINE
  5
5CB
100
AcDbEntity
  8
0
100
AcDbLine
 62
2
  6
CONTINUOUS
 10
28.7962235418
 20
2.5027948387
 11
28.8772252796
 21
2.5837965765
  0
LINE
  5
5CC
100
AcDbEntity
  8
0
100
AcDbLine
 62
2
  6
CONTINUOUS
 10
28.9444259915
 20
2.6509972884
 11
29.0662272818
 21
2.7727985788
  0
LINE
  5
5CD
100
AcDbEntity
  8
0
100
AcDbLine
 62
2
  6
CONTINUOUS
 10
28.7987975071
 20
2.5027948387
 11
28.8772252796
 21
2.5812226112
  0
LINE
  5
5CE
100
AcDbEntity
  8
0
100
AcDbLine
 62
2
  6
CONTINUOUS
 10
28.9444259915
 20
2.6484233231
 11
29.0662272818
 21
2.7702246134
  0
LINE
  5
5CF
100
AcDbEntity
  8
0
100
AcDbLine
 62
2
  6
CONTINUOUS
 10
28.8013714725
 20
2.5027948387
 11
28.8772252796
 21
2.5786486458
  0
LINE
  5
5D0
100
AcDbEntity
  8
0
100
AcDbLine
 62
2
  6
CONTINUOUS
 10
28.9444259915
 20
2.6458493577
 11
29.0662272818
 21
2.767650648
  0
LINE
  5
5D1
100
AcDbEntity
  8
0
100
AcDbLine
 62
2
  6
CONTINUOUS
 10
28.8039454378
 20
2.5027948387
 11
28.8772252796
 21
2.5760746805
  0
LINE
  5
5D2
100
AcDbEntity
  8
0
100
AcDbLine
 62
2
  6
CONTINUOUS
 10
28.9444259915
 20
2.6432753924
 11
29.0662272818
 21
2.7650766827
  0
LINE
  5
5D3
100
AcDbEntity
  8
0
100
AcDbLine
 62
2
  6
CONTINUOUS
 10
28.8065194032
 20
2.5027948387
 11
28.8772252796
 21
2.5735007151
  0
LINE
  5
5D4
100
AcDbEntity
  8
0
100
AcDbLine
 62
2
  6
CONTINUOUS
 10
28.9444259915
 20
2.640701427
 11
29.0662272818
 21
2.7625027173
  0
LINE
  5
5D5
100
AcDbEntity
  8
0
100
AcDbLine
 62
2
  6
CONTINUOUS
 10
28.8090933686
 20
2.5027948387
 11
28.8772252796
 21
2.5709267497
  0
LINE
  5
5D6
100
AcDbEntity
  8
0
100
AcDbLine
 62
2
  6
CONTINUOUS
 10
28.9444259915
 20
2.6381274616
 11
29.0662272818
 21
2.759928752
  0
LINE
  5
5D7
100
AcDbEntity
  8
0
100
AcDbLine
 62
2
  6
CONTINUOUS
 10
28.8116673339
 20
2.5027948387
 11
28.8772252796
 21
2.5683527844
  0
LINE
  5
5D8
100
AcDbEntity
  8
0
100
AcDbLine
 62
2
  6
CONTINUOUS
 10
28.9444259915
 20
2.6355534963
 11
29.0662272818
 21
2.7573547866
  0
LINE
  5
5D9
100
AcDbEntity
  8
0
100
AcDbLine
 62
2
  6
CONTINUOUS
 10
28.8142412993
 20
2.5027948387
 11
28.8772252796
 21
2.565778819
  0
LINE
  5
5DA
100
AcDbEntity
  8
0
100
AcDbLine
 62
2
  6
CONTINUOUS
 10
28.9444259915
 20
2.6329795309
 11
29.0662272818
 21
2.7547808212
  0
LINE
  5
5DB
100
AcDbEntity
  8
0
100
AcDbLine
 62
2
  6
CONTINUOUS
 10
28.8168152646
 20
2.5027948387
 11
28.8772252796
 21
2.5632048537
  0
LINE
  5
5DC
100
AcDbEntity
  8
0
100
AcDbLine
 62
2
  6
CONTINUOUS
 10
28.9444259915
 20
2.6304055656
 11
29.0662272818
 21
2.7522068559
  0
LINE
  5
5DD
100
AcDbEntity
  8
0
100
AcDbLine
 62
2
  6
CONTINUOUS
 10
28.81938923
 20
2.5027948387
 11
28.8772252796
 21
2.5606308883
  0
LINE
  5
5DE
100
AcDbEntity
  8
0
100
AcDbLine
 62
2
  6
CONTINUOUS
 10
28.9444259915
 20
2.6278316002
 11
29.0662272818
 21
2.7496328905
  0
LINE
  5
5DF
100
AcDbEntity
  8
0
100
AcDbLine
 62
2
  6
CONTINUOUS
 10
28.8219631954
 20
2.5027948387
 11
28.8772252796
 21
2.5580569229
  0
LINE
  5
5E0
100
AcDbEntity
  8
0
100
AcDbLine
 62
2
  6
CONTINUOUS
 10
28.9444259915
 20
2.6252576348
 11
29.0662272818
 21
2.7470589252
  0
LINE
  5
5E1
100
AcDbEntity
  8
0
100
AcDbLine
 62
2
  6
CONTINUOUS
 10
28.8245371607
 20
2.5027948387
 11
28.8772252796
 21
2.5554829576
  0
LINE
  5
5E2
100
AcDbEntity
  8
0
100
AcDbLine
 62
2
  6
CONTINUOUS
 10
28.9445762635
 20
2.6228339415
 11
29.0662272818
 21
2.7444849598
  0
LINE
  5
5E3
100
AcDbEntity
  8
0
100
AcDbLine
 62
2
  6
CONTINUOUS
 10
28.8271111261
 20
2.5027948387
 11
28.8772252796
 21
2.5529089922
  0
LINE
  5
5E4
100
AcDbEntity
  8
0
100
AcDbLine
 62
2
  6
CONTINUOUS
 10
28.9447785135
 20
2.6204622261
 11
29.0662272818
 21
2.7419109945
  0
LINE
  5
5E5
100
AcDbEntity
  8
0
100
AcDbLine
 62
2
  6
CONTINUOUS
 10
28.8296850914
 20
2.5027948387
 11
28.8772252796
 21
2.5503350269
  0
LINE
  5
5E6
100
AcDbEntity
  8
0
100
AcDbLine
 62
2
  6
CONTINUOUS
 10
28.9449807635
 20
2.6180905108
 11
29.0662272818
 21
2.7393370291
  0
LINE
  5
5E7
100
AcDbEntity
  8
0
100
AcDbLine
 62
2
  6
CONTINUOUS
 10
28.8322590568
 20
2.5027948387
 11
28.8772252796
 21
2.5477610615
  0
LINE
  5
5E8
100
AcDbEntity
  8
0
100
AcDbLine
 62
2
  6
CONTINUOUS
 10
28.9451830135
 20
2.6157187954
 11
29.0662272818
 21
2.7367630637
  0
LINE
  5
5E9
100
AcDbEntity
  8
0
100
AcDbLine
 62
2
  6
CONTINUOUS
 10
28.8348330221
 20
2.5027948387
 11
28.8772252796
 21
2.5451870962
  0
LINE
  5
5EA
100
AcDbEntity
  8
0
100
AcDbLine
 62
2
  6
CONTINUOUS
 10
28.9453852634
 20
2.61334708
 11
29.0662272818
 21
2.7341890984
  0
LINE
  5
5EB
100
AcDbEntity
  8
0
100
AcDbLine
 62
2
  6
CONTINUOUS
 10
28.8374069875
 20
2.5027948387
 11
28.8772252796
 21
2.5426131308
  0
LINE
  5
5EC
100
AcDbEntity
  8
0
100
AcDbLine
 62
2
  6
CONTINUOUS
 10
28.9455875134
 20
2.6109753647
 11
29.0662272818
 21
2.731615133
  0
LINE
  5
5ED
100
AcDbEntity
  8
0
100
AcDbLine
 62
2
  6
CONTINUOUS
 10
28.8399809529
 20
2.5027948387
 11
28.8772252796
 21
2.5400391654
  0
LINE
  5
5EE
100
AcDbEntity
  8
0
100
AcDbLine
 62
2
  6
CONTINUOUS
 10
28.9457897634
 20
2.6086036493
 11
29.0662272818
 21
2.7290411677
  0
LINE
  5
5EF
100
AcDbEntity
  8
0
100
AcDbLine
 62
2
  6
CONTINUOUS
 10
28.8425549182
 20
2.5027948387
 11
28.8772252796
 21
2.5374652001
  0
LINE
  5
5F0
100
AcDbEntity
  8
0
100
AcDbLine
 62
2
  6
CONTINUOUS
 10
28.9459920134
 20
2.6062319339
 11
29.0662272818
 21
2.7264672023
  0
LINE
  5
5F1
100
AcDbEntity
  8
0
100
AcDbLine
 62
2
  6
CONTINUOUS
 10
28.8451288836
 20
2.5027948387
 11
28.8772252796
 21
2.5348912347
  0
LINE
  5
5F2
100
AcDbEntity
  8
0
100
AcDbLine
 62
2
  6
CONTINUOUS
 10
28.9462313814
 20
2.6038973365
 11
29.0662272818
 21
2.7238932369
  0
LINE
  5
5F3
100
AcDbEntity
  8
0
100
AcDbLine
 62
2
  6
CONTINUOUS
 10
28.8477028489
 20
2.5027948387
 11
28.8772252796
 21
2.5323172694
  0
LINE
  5
5F4
100
AcDbEntity
  8
0
100
AcDbLine
 62
2
  6
CONTINUOUS
 10
28.9467647107
 20
2.6018567005
 11
29.0662272818
 21
2.7213192716
  0
LINE
  5
5F5
100
AcDbEntity
  8
0
100
AcDbLine
 62
2
  6
CONTINUOUS
 10
28.8502768143
 20
2.5027948387
 11
28.8772252796
 21
2.529743304
  0
LINE
  5
5F6
100
AcDbEntity
  8
0
100
AcDbLine
 62
2
  6
CONTINUOUS
 10
28.9472980401
 20
2.5998160645
 11
29.0662272818
 21
2.7187453062
  0
LINE
  5
5F7
100
AcDbEntity
  8
0
100
AcDbLine
 62
2
  6
CONTINUOUS
 10
28.8528507797
 20
2.5027948387
 11
28.8772252796
 21
2.5271693386
  0
LINE
  5
5F8
100
AcDbEntity
  8
0
100
AcDbLine
 62
2
  6
CONTINUOUS
 10
28.9478313694
 20
2.5977754285
 11
29.0662272818
 21
2.7161713409
  0
LINE
  5
5F9
100
AcDbEntity
  8
0
100
AcDbLine
 62
2
  6
CONTINUOUS
 10
28.855424745
 20
2.5027948387
 11
28.8772252796
 21
2.5245953733
  0
LINE
  5
5FA
100
AcDbEntity
  8
0
100
AcDbLine
 62
2
  6
CONTINUOUS
 10
28.9483646988
 20
2.5957347925
 11
29.0662272818
 21
2.7135973755
  0
LINE
  5
5FB
100
AcDbEntity
  8
0
100
AcDbLine
 62
2
  6
CONTINUOUS
 10
28.8579987104
 20
2.5027948387
 11
28.8772252796
 21
2.5220214079
  0
LINE
  5
5FC
100
AcDbEntity
  8
0
100
AcDbLine
 62
2
  6
CONTINUOUS
 10
28.9488980281
 20
2.5936941565
 11
29.0662272818
 21
2.7110234102
  0
LINE
  5
5FD
100
AcDbEntity
  8
0
100
AcDbLine
 62
2
  6
CONTINUOUS
 10
28.8605726757
 20
2.5027948387
 11
28.8772252796
 21
2.5194474426
  0
LINE
  5
5FE
100
AcDbEntity
  8
0
100
AcDbLine
 62
2
  6
CONTINUOUS
 10
28.9494313575
 20
2.5916535205
 11
29.0662272818
 21
2.7084494448
  0
LINE
  5
5FF
100
AcDbEntity
  8
0
100
AcDbLine
 62
2
  6
CONTINUOUS
 10
28.8631466411
 20
2.5027948387
 11
28.8772252796
 21
2.5168734772
  0
LINE
  5
600
100
AcDbEntity
  8
0
100
AcDbLine
 62
2
  6
CONTINUOUS
 10
28.9499646868
 20
2.5896128845
 11
29.0662272818
 21
2.7058754794
  0
LINE
  5
601
100
AcDbEntity
  8
0
100
AcDbLine
 62
2
  6
CONTINUOUS
 10
28.8657206064
 20
2.5027948387
 11
28.8772252796
 21
2.5142995119
  0
LINE
  5
602
100
AcDbEntity
  8
0
100
AcDbLine
 62
2
  6
CONTINUOUS
 10
28.9504980162
 20
2.5875722485
 11
29.0662272818
 21
2.7033015141
  0
LINE
  5
603
100
AcDbEntity
  8
0
100
AcDbLine
 62
2
  6
CONTINUOUS
 10
28.8682945718
 20
2.5027948387
 11
28.8772252796
 21
2.5117255465
  0
LINE
  5
604
100
AcDbEntity
  8
0
100
AcDbLine
 62
2
  6
CONTINUOUS
 10
28.9510313455
 20
2.5855316124
 11
29.0662272818
 21
2.7007275487
  0
LINE
  5
605
100
AcDbEntity
  8
0
100
AcDbLine
 62
2
  6
CONTINUOUS
 10
28.8708685372
 20
2.5027948387
 11
28.8772252796
 21
2.5091515811
  0
LINE
  5
606
100
AcDbEntity
  8
0
100
AcDbLine
 62
2
  6
CONTINUOUS
 10
28.9516609824
 20
2.583587284
 11
29.0662272818
 21
2.6981535834
  0
LINE
  5
607
100
AcDbEntity
  8
0
100
AcDbLine
 62
2
  6
CONTINUOUS
 10
28.8734425025
 20
2.5027948387
 11
28.8772252796
 21
2.5065776158
  0
LINE
  5
608
100
AcDbEntity
  8
0
100
AcDbLine
 62
2
  6
CONTINUOUS
 10
28.9524641911
 20
2.5818165273
 11
29.0662272818
 21
2.695579618
  0
LINE
  5
609
100
AcDbEntity
  8
0
100
AcDbLine
 62
2
  6
CONTINUOUS
 10
28.8760164679
 20
2.5027948387
 11
28.8772252796
 21
2.5040036504
  0
LINE
  5
60A
100
AcDbEntity
  8
0
100
AcDbLine
 62
2
  6
CONTINUOUS
 10
28.9532673997
 20
2.5800457706
 11
29.0662272818
 21
2.6930056526
  0
LINE
  5
60B
100
AcDbEntity
  8
0
100
AcDbLine
 62
2
  6
CONTINUOUS
 10
28.9540706084
 20
2.5782750139
 11
29.0662272818
 21
2.6904316873
  0
LINE
  5
60C
100
AcDbEntity
  8
0
100
AcDbLine
 62
2
  6
CONTINUOUS
 10
28.954873817
 20
2.5765042571
 11
29.0662272818
 21
2.6878577219
  0
LINE
  5
60D
100
AcDbEntity
  8
0
100
AcDbLine
 62
2
  6
CONTINUOUS
 10
28.9556770256
 20
2.5747335004
 11
29.0662272818
 21
2.6852837566
  0
LINE
  5
60E
100
AcDbEntity
  8
0
100
AcDbLine
 62
2
  6
CONTINUOUS
 10
28.9564802343
 20
2.5729627437
 11
29.0662272818
 21
2.6827097912
  0
LINE
  5
60F
100
AcDbEntity
  8
0
100
AcDbLine
 62
2
  6
CONTINUOUS
 10
28.9572834429
 20
2.571191987
 11
29.0662272818
 21
2.6801358259
  0
LINE
  5
610
100
AcDbEntity
  8
0
100
AcDbLine
 62
2
  6
CONTINUOUS
 10
28.9580866516
 20
2.5694212303
 11
29.0662272818
 21
2.6775618605
  0
LINE
  5
611
100
AcDbEntity
  8
0
100
AcDbLine
 62
2
  6
CONTINUOUS
 10
28.9588898602
 20
2.5676504735
 11
29.0662272818
 21
2.6749878951
  0
LINE
  5
612
100
AcDbEntity
  8
0
100
AcDbLine
 62
2
  6
CONTINUOUS
 10
28.9596930688
 20
2.5658797168
 11
29.0662272818
 21
2.6724139298
  0
LINE
  5
613
100
AcDbEntity
  8
0
100
AcDbLine
 62
2
  6
CONTINUOUS
 10
28.9606602278
 20
2.5642729104
 11
29.0662272818
 21
2.6698399644
  0
LINE
  5
614
100
AcDbEntity
  8
0
100
AcDbLine
 62
2
  6
CONTINUOUS
 10
28.9617000492
 20
2.5627387665
 11
29.0662272818
 21
2.6672659991
  0
LINE
  5
615
100
AcDbEntity
  8
0
100
AcDbLine
 62
2
  6
CONTINUOUS
 10
28.9627398707
 20
2.5612046226
 11
29.0662272818
 21
2.6646920337
  0
LINE
  5
616
100
AcDbEntity
  8
0
100
AcDbLine
 62
2
  6
CONTINUOUS
 10
28.9637796922
 20
2.5596704787
 11
29.0662272818
 21
2.6621180683
  0
LINE
  5
617
100
AcDbEntity
  8
0
100
AcDbLine
 62
2
  6
CONTINUOUS
 10
28.9648195136
 20
2.5581363348
 11
29.0662272818
 21
2.659544103
  0
LINE
  5
618
100
AcDbEntity
  8
0
100
AcDbLine
 62
2
  6
CONTINUOUS
 10
28.9658593351
 20
2.5566021909
 11
29.0662272818
 21
2.6569701376
  0
LINE
  5
619
100
AcDbEntity
  8
0
100
AcDbLine
 62
2
  6
CONTINUOUS
 10
28.9668991566
 20
2.555068047
 11
29.0662272818
 21
2.6543961723
  0
LINE
  5
61A
100
AcDbEntity
  8
0
100
AcDbLine
 62
2
  6
CONTINUOUS
 10
28.967938978
 20
2.5535339031
 11
29.0662272818
 21
2.6518222069
  0
LINE
  5
61B
100
AcDbEntity
  8
0
100
AcDbLine
 62
2
  6
CONTINUOUS
 10
28.9689787995
 20
2.5519997593
 11
29.0662272818
 21
2.6492482416
  0
LINE
  5
61C
100
AcDbEntity
  8
0
100
AcDbLine
 62
2
  6
CONTINUOUS
 10
28.970018621
 20
2.5504656154
 11
29.0662272818
 21
2.6466742762
  0
LINE
  5
61D
100
AcDbEntity
  8
0
100
AcDbLine
 62
2
  6
CONTINUOUS
 10
28.9710584424
 20
2.5489314715
 11
29.0662272818
 21
2.6441003108
  0
LINE
  5
61E
100
AcDbEntity
  8
0
100
AcDbLine
 62
2
  6
CONTINUOUS
 10
28.9721546717
 20
2.5474537354
 11
29.0662272818
 21
2.6415263455
  0
LINE
  5
61F
100
AcDbEntity
  8
0
100
AcDbLine
 62
2
  6
CONTINUOUS
 10
28.9733319644
 20
2.5460570627
 11
29.0662272818
 21
2.6389523801
  0
LINE
  5
620
100
AcDbEntity
  8
0
100
AcDbLine
 62
2
  6
CONTINUOUS
 10
28.974509257
 20
2.54466039
 11
29.0662272818
 21
2.6363784148
  0
LINE
  5
621
100
AcDbEntity
  8
0
100
AcDbLine
 62
2
  6
CONTINUOUS
 10
28.9757846612
 20
2.5433618288
 11
29.0662272818
 21
2.6338044494
  0
LINE
  5
622
100
AcDbEntity
  8
0
100
AcDbLine
 62
2
  6
CONTINUOUS
 10
28.9770969971
 20
2.5421001994
 11
29.0662272818
 21
2.631230484
  0
LINE
  5
623
100
AcDbEntity
  8
0
100
AcDbLine
 62
2
  6
CONTINUOUS
 10
28.978409333
 20
2.5408385699
 11
29.0662272818
 21
2.6286565187
  0
LINE
  5
624
100
AcDbEntity
  8
0
100
AcDbLine
 62
2
  6
CONTINUOUS
 10
28.9797216689
 20
2.5395769404
 11
29.0662272818
 21
2.6260825533
  0
LINE
  5
625
100
AcDbEntity
  8
0
100
AcDbLine
 62
2
  6
CONTINUOUS
 10
28.9810340048
 20
2.538315311
 11
29.0662272818
 21
2.623508588
  0
LINE
  5
626
100
AcDbEntity
  8
0
100
AcDbLine
 62
2
  6
CONTINUOUS
 10
28.9823463407
 20
2.5370536815
 11
29.0662272818
 21
2.6209346226
  0
LINE
  5
627
100
AcDbEntity
  8
0
100
AcDbLine
 62
2
  6
CONTINUOUS
 10
28.9836586766
 20
2.535792052
 11
29.0662272818
 21
2.6183606573
  0
LINE
  5
628
100
AcDbEntity
  8
0
100
AcDbLine
 62
2
  6
CONTINUOUS
 10
28.9849710125
 20
2.5345304226
 11
29.0662272818
 21
2.6157866919
  0
LINE
  5
629
100
AcDbEntity
  8
0
100
AcDbLine
 62
2
  6
CONTINUOUS
 10
28.9862833484
 20
2.5332687931
 11
29.0662272818
 21
2.6132127265
  0
LINE
  5
62A
100
AcDbEntity
  8
0
100
AcDbLine
 62
2
  6
CONTINUOUS
 10
28.9875956842
 20
2.5320071636
 11
29.0662272818
 21
2.6106387612
  0
LINE
  5
62B
100
AcDbEntity
  8
0
100
AcDbLine
 62
2
  6
CONTINUOUS
 10
28.9889080201
 20
2.5307455342
 11
29.0662272818
 21
2.6080647958
  0
LINE
  5
62C
100
AcDbEntity
  8
0
100
AcDbLine
 62
2
  6
CONTINUOUS
 10
28.9902748705
 20
2.5295384191
 11
29.0662272818
 21
2.6054908305
  0
LINE
  5
62D
100
AcDbEntity
  8
0
100
AcDbLine
 62
2
  6
CONTINUOUS
 10
28.9918088755
 20
2.5284984589
 11
29.0662272818
 21
2.6029168651
  0
LINE
  5
62E
100
AcDbEntity
  8
0
100
AcDbLine
 62
2
  6
CONTINUOUS
 10
28.9933428806
 20
2.5274584986
 11
29.0662272818
 21
2.6003428997
  0
LINE
  5
62F
100
AcDbEntity
  8
0
100
AcDbLine
 62
2
  6
CONTINUOUS
 10
28.9948768857
 20
2.5264185383
 11
29.0662272818
 21
2.5977689344
  0
LINE
  5
630
100
AcDbEntity
  8
0
100
AcDbLine
 62
2
  6
CONTINUOUS
 10
28.9964108908
 20
2.525378578
 11
29.0662272818
 21
2.595194969
  0
LINE
  5
631
100
AcDbEntity
  8
0
100
AcDbLine
 62
2
  6
CONTINUOUS
 10
28.9979448958
 20
2.5243386177
 11
29.0662272818
 21
2.5926210037
  0
LINE
  5
632
100
AcDbEntity
  8
0
100
AcDbLine
 62
2
  6
CONTINUOUS
 10
28.9994789009
 20
2.5232986574
 11
29.0662272818
 21
2.5900470383
  0
LINE
  5
633
100
AcDbEntity
  8
0
100
AcDbLine
 62
2
  6
CONTINUOUS
 10
29.001012906
 20
2.5222586971
 11
29.0662272818
 21
2.587473073
  0
LINE
  5
634
100
AcDbEntity
  8
0
100
AcDbLine
 62
2
  6
CONTINUOUS
 10
29.0025469111
 20
2.5212187369
 11
29.0662272818
 21
2.5848991076
  0
LINE
  5
635
100
AcDbEntity
  8
0
100
AcDbLine
 62
2
  6
CONTINUOUS
 10
29.0040809161
 20
2.5201787766
 11
29.0662272818
 21
2.5823251422
  0
LINE
  5
636
100
AcDbEntity
  8
0
100
AcDbLine
 62
2
  6
CONTINUOUS
 10
29.0056149212
 20
2.5191388163
 11
29.0662272818
 21
2.5797511769
  0
LINE
  5
637
100
AcDbEntity
  8
0
100
AcDbLine
 62
2
  6
CONTINUOUS
 10
29.0071656855
 20
2.5181156152
 11
29.0662272818
 21
2.5771772115
  0
LINE
  5
638
100
AcDbEntity
  8
0
100
AcDbLine
 62
2
  6
CONTINUOUS
 10
29.0089371788
 20
2.5173131431
 11
29.0662272818
 21
2.5746032462
  0
LINE
  5
639
100
AcDbEntity
  8
0
100
AcDbLine
 62
2
  6
CONTINUOUS
 10
29.010708672
 20
2.516510671
 11
29.0662272818
 21
2.5720292808
  0
LINE
  5
63A
100
AcDbEntity
  8
0
100
AcDbLine
 62
2
  6
CONTINUOUS
 10
29.0124801653
 20
2.515708199
 11
29.0662272818
 21
2.5694553154
  0
LINE
  5
63B
100
AcDbEntity
  8
0
100
AcDbLine
 62
2
  6
CONTINUOUS
 10
29.0142516586
 20
2.5149057269
 11
29.0662272818
 21
2.5668813501
  0
LINE
  5
63C
100
AcDbEntity
  8
0
100
AcDbLine
 62
2
  6
CONTINUOUS
 10
29.0160231518
 20
2.5141032548
 11
29.0662272818
 21
2.5643073847
  0
LINE
  5
63D
100
AcDbEntity
  8
0
100
AcDbLine
 62
2
  6
CONTINUOUS
 10
29.0177946451
 20
2.5133007827
 11
29.0662272818
 21
2.5617334194
  0
LINE
  5
63E
100
AcDbEntity
  8
0
100
AcDbLine
 62
2
  6
CONTINUOUS
 10
29.0195661384
 20
2.5124983106
 11
29.0662272818
 21
2.559159454
  0
LINE
  5
63F
100
AcDbEntity
  8
0
100
AcDbLine
 62
2
  6
CONTINUOUS
 10
29.0213376316
 20
2.5116958385
 11
29.0662272818
 21
2.5565854887
  0
LINE
  5
640
100
AcDbEntity
  8
0
100
AcDbLine
 62
2
  6
CONTINUOUS
 10
29.0231091249
 20
2.5108933664
 11
29.0662272818
 21
2.5540115233
  0
LINE
  5
641
100
AcDbEntity
  8
0
100
AcDbLine
 62
2
  6
CONTINUOUS
 10
29.0248806182
 20
2.5100908943
 11
29.0662272818
 21
2.5514375579
  0
LINE
  5
642
100
AcDbEntity
  8
0
100
AcDbLine
 62
2
  6
CONTINUOUS
 10
29.0267899672
 20
2.509426278
 11
29.0662272818
 21
2.5488635926
  0
LINE
  5
643
100
AcDbEntity
  8
0
100
AcDbLine
 62
2
  6
CONTINUOUS
 10
29.0288326304
 20
2.5088949758
 11
29.0662272818
 21
2.5462896272
  0
LINE
  5
644
100
AcDbEntity
  8
0
100
AcDbLine
 62
2
  6
CONTINUOUS
 10
29.0308752936
 20
2.5083636737
 11
29.0662272818
 21
2.5437156619
  0
LINE
  5
645
100
AcDbEntity
  8
0
100
AcDbLine
 62
2
  6
CONTINUOUS
 10
29.0329179568
 20
2.5078323715
 11
29.0662272818
 21
2.5411416965
  0
LINE
  5
646
100
AcDbEntity
  8
0
100
AcDbLine
 62
2
  6
CONTINUOUS
 10
29.03496062
 20
2.5073010693
 11
29.0662272818
 21
2.5385677311
  0
LINE
  5
647
100
AcDbEntity
  8
0
100
AcDbLine
 62
2
  6
CONTINUOUS
 10
29.0370032832
 20
2.5067697672
 11
29.0662272818
 21
2.5359937658
  0
LINE
  5
648
100
AcDbEntity
  8
0
100
AcDbLine
 62
2
  6
CONTINUOUS
 10
29.0390459464
 20
2.506238465
 11
29.0662272818
 21
2.5334198004
  0
LINE
  5
649
100
AcDbEntity
  8
0
100
AcDbLine
 62
2
  6
CONTINUOUS
 10
29.0410886096
 20
2.5057071628
 11
29.0662272818
 21
2.5308458351
  0
LINE
  5
64A
100
AcDbEntity
  8
0
100
AcDbLine
 62
2
  6
CONTINUOUS
 10
29.0431312728
 20
2.5051758607
 11
29.0662272818
 21
2.5282718697
  0
LINE
  5
64B
100
AcDbEntity
  8
0
100
AcDbLine
 62
2
  6
CONTINUOUS
 10
29.0451739359
 20
2.5046445585
 11
29.0662272818
 21
2.5256979044
  0
LINE
  5
64C
100
AcDbEntity
  8
0
100
AcDbLine
 62
2
  6
CONTINUOUS
 10
29.0474796505
 20
2.5043763077
 11
29.0662272818
 21
2.523123939
  0
LINE
  5
64D
100
AcDbEntity
  8
0
100
AcDbLine
 62
2
  6
CONTINUOUS
 10
29.0498533785
 20
2.5041760703
 11
29.0662272818
 21
2.5205499736
  0
LINE
  5
64E
100
AcDbEntity
  8
0
100
AcDbLine
 62
2
  6
CONTINUOUS
 10
29.0522271064
 20
2.5039758329
 11
29.0662272818
 21
2.5179760083
  0
LINE
  5
64F
100
AcDbEntity
  8
0
100
AcDbLine
 62
2
  6
CONTINUOUS
 10
29.0546008344
 20
2.5037755955
 11
29.0662272818
 21
2.5154020429
  0
LINE
  5
650
100
AcDbEntity
  8
0
100
AcDbLine
 62
2
  6
CONTINUOUS
 10
29.0569745623
 20
2.5035753581
 11
29.0662272818
 21
2.5128280776
  0
LINE
  5
651
100
AcDbEntity
  8
0
100
AcDbLine
 62
2
  6
CONTINUOUS
 10
29.0593482903
 20
2.5033751207
 11
29.0662272818
 21
2.5102541122
  0
LINE
  5
652
100
AcDbEntity
  8
0
100
AcDbLine
 62
2
  6
CONTINUOUS
 10
29.0617220182
 20
2.5031748833
 11
29.0662272818
 21
2.5076801468
  0
LINE
  5
653
100
AcDbEntity
  8
0
100
AcDbLine
 62
2
  6
CONTINUOUS
 10
29.0640957461
 20
2.5029746458
 11
29.0662272818
 21
2.5051061815
  0
LWPOLYLINE
  5
654
100
AcDbEntity
  8
0
100
AcDbPolyline
 62
7
  6
CONTINUOUS
 90
2
 70
0
 43
0.0200000008
 10
33.5000201183
 20
0.5
 10
33.5000201183
 20
21.5
  0
LINE
  5
655
100
AcDbEntity
  8
0
100
AcDbLine
 62
7
  6
CONTINUOUS
 10
24.5285892259
 20
6.6418927458
 11
26.6388254464
 21
6.6418927458
  0
LINE
  5
656
100
AcDbEntity
  8
DEFAULT_1
100
AcDbLine
 62
7
  6
CENTER
 10
26.511660092
 20
6.8950423521
 11
24.7435620819
 21
6.8950423521
  0
LINE
  5
657
100
AcDbEntity
  8
DEFAULT_1
100
AcDbLine
 62
7
  6
CENTER
 10
24.6557545802
 20
6.8950423521
 11
24.5307506432
 21
6.8950423521
  0
LINE
  5
658
100
AcDbEntity
  8
DEFAULT_1
100
AcDbLine
 62
7
  6
CENTER
 10
24.6557545802
 20
6.8950423521
 11
24.7435620819
 21
6.8950423521
  0
LINE
  5
659
100
AcDbEntity
  8
DEFAULT_1
100
AcDbLine
 62
7
  6
CENTER
 10
26.511660092
 20
6.8950423521
 11
26.636664029
 21
6.8950423521
  0
LINE
  5
65A
100
AcDbEntity
  8
0
100
AcDbLine
 62
7
  6
CONTINUOUS
 10
24.4026049739
 20
8.8781132183
 11
24.4026049739
 21
6.7678769978
  0
LINE
  5
65B
100
AcDbEntity
  8
0
100
AcDbLine
 62
7
  6
CONTINUOUS
 10
24.5797703283
 20
9.0299678645
 11
24.5797703283
 21
9.5474045569
  0
LINE
  5
65C
100
AcDbEntity
  8
DEFAULT_1
100
AcDbLine
 62
7
  6
CENTER
 10
24.6557545802
 20
8.750947864
 11
24.6557545802
 21
6.985728603
  0
LINE
  5
65D
100
AcDbEntity
  8
DEFAULT_1
100
AcDbLine
 62
7
  6
CENTER
 10
24.6557545802
 20
6.8950423521
 11
24.6557545802
 21
6.7700384151
  0
LINE
  5
65E
100
AcDbEntity
  8
DEFAULT_1
100
AcDbLine
 62
7
  6
CENTER
 10
24.6557545802
 20
6.8950423521
 11
24.6557545802
 21
6.985728603
  0
LINE
  5
65F
100
AcDbEntity
  8
DEFAULT_1
100
AcDbLine
 62
7
  6
CENTER
 10
24.6557545802
 20
8.750947864
 11
24.6557545802
 21
8.875951801
  0
LINE
  5
660
100
AcDbEntity
  8
0
100
AcDbLine
 62
7
  6
CONTINUOUS
 10
24.7057545802
 20
9.0395305411
 11
24.7057545802
 21
9.6733888088
  0
LINE
  5
661
100
AcDbEntity
  8
0
100
AcDbLine
 62
7
  6
CONTINUOUS
 10
25.6599471658
 20
7.6851998325
 11
25.5074675065
 21
7.6851998325
  0
LINE
  5
662
100
AcDbEntity
  8
0
100
AcDbLine
 62
7
  6
CONTINUOUS
 10
25.0087528185
 20
9.7521289663
 11
25.0087528185
 21
9.6733888088
  0
LINE
  5
663
100
AcDbEntity
  8
0
100
AcDbLine
 62
7
  6
CONTINUOUS
 10
25.0325262338
 20
10.2442549506
 11
25.0325262338
 21
9.6733888088
  0
LINE
  5
664
100
AcDbEntity
  8
DEFAULT_1
100
AcDbLine
 62
7
  6
CENTER
 10
26.511660092
 20
8.750947864
 11
26.386656155
 21
8.750947864
  0
LINE
  5
665
100
AcDbEntity
  8
DEFAULT_1
100
AcDbLine
 62
7
  6
CENTER
 10
24.6557545802
 20
8.750947864
 11
24.5307506432
 21
8.750947864
  0
LINE
  5
666
100
AcDbEntity
  8
DEFAULT_1
100
AcDbLine
 62
7
  6
CENTER
 10
24.6557545802
 20
8.750947864
 11
26.386656155
 21
8.750947864
  0
LINE
  5
667
100
AcDbEntity
  8
DEFAULT_1
100
AcDbLine
 62
7
  6
CENTER
 10
26.511660092
 20
8.750947864
 11
26.636664029
 21
8.750947864
  0
LINE
  5
668
100
AcDbEntity
  8
0
100
AcDbLine
 62
7
  6
CONTINUOUS
 10
26.1348884385
 20
10.2442549506
 11
26.1348884385
 21
9.6733888088
  0
LINE
  5
669
100
AcDbEntity
  8
0
100
AcDbLine
 62
7
  6
CONTINUOUS
 10
26.1589631206
 20
9.9450423521
 11
26.1589631206
 21
9.6733888088
  0
LINE
  5
66A
100
AcDbEntity
  8
0
100
AcDbLine
 62
7
  6
CONTINUOUS
 10
26.6388254464
 20
9.0040974703
 11
24.5285892259
 21
9.0040974703
  0
LINE
  5
66B
100
AcDbEntity
  8
0
100
AcDbLine
 62
7
  6
CONTINUOUS
 10
24.7057545802
 20
9.0395305411
 11
26.461660092
 21
9.0395305411
  0
LINE
  5
66C
100
AcDbEntity
  8
0
100
AcDbLine
 62
7
  6
CONTINUOUS
 10
26.587644344
 20
9.1655147931
 11
24.5797703283
 21
9.1655147931
  0
LINE
  5
66D
100
AcDbEntity
  8
0
100
AcDbLine
 62
7
  6
CONTINUOUS
 10
26.461660092
 20
9.6733888088
 11
26.461660092
 21
9.0395305411
  0
LINE
  5
66E
100
AcDbEntity
  8
DEFAULT_1
100
AcDbLine
 62
7
  6
CENTER
 10
26.511660092
 20
8.750947864
 11
26.511660092
 21
8.6259439269
  0
LINE
  5
66F
100
AcDbEntity
  8
DEFAULT_1
100
AcDbLine
 62
7
  6
CENTER
 10
26.511660092
 20
6.8950423521
 11
26.511660092
 21
6.7700384151
  0
LINE
  5
670
100
AcDbEntity
  8
DEFAULT_1
100
AcDbLine
 62
7
  6
CENTER
 10
26.511660092
 20
6.8950423521
 11
26.511660092
 21
8.6259439269
  0
LINE
  5
671
100
AcDbEntity
  8
DEFAULT_1
100
AcDbLine
 62
7
  6
CENTER
 10
26.511660092
 20
8.750947864
 11
26.511660092
 21
8.875951801
  0
LINE
  5
672
100
AcDbEntity
  8
0
100
AcDbLine
 62
7
  6
CONTINUOUS
 10
26.587644344
 20
9.0299678645
 11
26.587644344
 21
9.5474045569
  0
LINE
  5
673
100
AcDbEntity
  8
0
100
AcDbLine
 62
7
  6
CONTINUOUS
 10
24.5797703283
 20
9.5474045569
 11
26.587644344
 21
9.5474045569
  0
LINE
  5
674
100
AcDbEntity
  8
0
100
AcDbLine
 62
7
  6
CONTINUOUS
 10
26.7648096983
 20
6.7678769978
 11
26.7648096983
 21
8.8781132183
  0
LINE
  5
675
100
AcDbEntity
  8
0
100
AcDbLine
 62
7
  6
CONTINUOUS
 10
26.461660092
 20
9.6733888088
 11
24.7057545802
 21
9.6733888088
  0
LINE
  5
676
100
AcDbEntity
  8
0
100
AcDbLine
 62
7
  6
CONTINUOUS
 10
25.0087528185
 20
9.7521289663
 11
25.0325262338
 21
9.7521289663
  0
LINE
  5
677
100
AcDbEntity
  8
0
100
AcDbLine
 62
7
  6
CONTINUOUS
 10
26.1348884385
 20
9.9450423521
 11
26.1589631206
 21
9.9450423521
  0
LINE
  5
678
100
AcDbEntity
  8
0
100
AcDbLine
 62
7
  6
CONTINUOUS
 10
25.0325262338
 20
10.2442549506
 11
26.1348884385
 21
10.2442549506
  0
LINE
  5
679
100
AcDbEntity
  8
0
100
AcDbLine
 62
7
  6
CONTINUOUS
 10
25.7411876511
 20
13.7869206618
 11
25.4262298161
 21
13.7869206618
  0
LINE
  5
67A
100
AcDbEntity
  8
0
100
AcDbLine
 62
7
  6
CONTINUOUS
 10
26.3337073361
 20
14.5388891658
 11
24.8337073361
 21
14.5388891658
  0
LINE
  5
67B
100
AcDbEntity
  8
0
100
AcDbLine
 62
7
  6
CONTINUOUS
 10
26.7648096983
 20
14.5979442839
 11
24.4026049739
 21
14.5979442839
  0
LINE
  5
67C
100
AcDbEntity
  8
0
100
AcDbLine
 62
7
  6
CONTINUOUS
 10
24.4026049739
 20
14.873534835
 11
24.9392191472
 21
14.873534835
  0
LINE
  5
67D
100
AcDbEntity
  8
0
100
AcDbLine
 62
7
  6
CONTINUOUS
 10
26.2281955251
 20
14.873534835
 11
26.7648096983
 21
14.873534835
  0
LINE
  5
67E
100
AcDbEntity
  8
0
100
AcDbLine
 62
7
  6
CONTINUOUS
 10
24.4026049739
 20
19.4168419217
 11
24.4026049739
 21
14.5979442839
  0
LINE
  5
67F
100
AcDbEntity
  8
0
100
AcDbLine
 62
7
  6
CONTINUOUS
 10
24.5285892259
 20
14.5979442839
 11
24.5285892259
 21
19.5428261736
  0
LINE
  5
680
100
AcDbEntity
  8
0
100
AcDbLine
 62
7
  6
CONTINUOUS
 10
24.5797703283
 20
19.4168419217
 11
24.5797703283
 21
16.8892828665
  0
LINE
  5
681
100
AcDbEntity
  8
0
100
AcDbLine
 62
7
  6
CONTINUOUS
 10
24.6557545802
 20
19.5428261736
 11
24.6557545802
 21
19.5313289991
  0
LINE
  5
682
100
AcDbEntity
  8
0
100
AcDbLine
 62
7
  6
CONTINUOUS
 10
24.6557545802
 20
16.7747957891
 11
24.6557545802
 21
14.873534835
  0
LINE
  5
683
100
AcDbEntity
  8
0
100
AcDbLine
 62
7
  6
CONTINUOUS
 10
24.7057545802
 20
16.7632986146
 11
24.7057545802
 21
19.5428261736
  0
LINE
  5
684
100
AcDbEntity
  8
0
100
AcDbLine
 62
7
  6
CONTINUOUS
 10
24.8132348952
 20
16.7632986146
 11
24.8132348952
 21
14.873534835
  0
LINE
  5
685
100
AcDbEntity
  8
0
100
AcDbLine
 62
7
  6
CONTINUOUS
 10
24.8337073361
 20
14.5979442839
 11
24.8337073361
 21
14.5388891658
  0
LINE
  5
686
100
AcDbEntity
  8
0
100
AcDbLine
 62
7
  6
CONTINUOUS
 10
24.9392191472
 20
14.873534835
 11
24.9392191472
 21
16.7632986146
  0
LINE
  5
687
100
AcDbEntity
  8
0
100
AcDbLine
 62
7
  6
CONTINUOUS
 10
25.0087528185
 20
18.1767784012
 11
25.0087528185
 21
17.875203598
  0
LINE
  5
688
100
AcDbEntity
  8
0
100
AcDbLine
 62
7
  6
CONTINUOUS
 10
25.0325262338
 20
17.625503339
 11
25.0325262338
 21
17.1530623941
  0
LINE
  5
689
100
AcDbEntity
  8
0
100
AcDbLine
 62
7
  6
CONTINUOUS
 10
25.0718963125
 20
19.5428261736
 11
25.0718963125
 21
19.4404639689
  0
LINE
  5
68A
100
AcDbEntity
  8
0
100
AcDbLine
 62
7
  6
CONTINUOUS
 10
25.15063647
 20
19.4404639689
 11
25.15063647
 21
19.5428261736
  0
LINE
  5
68B
100
AcDbEntity
  8
0
100
AcDbLine
 62
7
  6
CONTINUOUS
 10
25.2293766275
 20
19.5428261736
 11
25.2293766275
 21
19.4404639689
  0
LINE
  5
68C
100
AcDbEntity
  8
0
100
AcDbLine
 62
7
  6
CONTINUOUS
 10
25.308116785
 20
19.4404639689
 11
25.308116785
 21
19.5428261736
  0
LINE
  5
68D
100
AcDbEntity
  8
0
100
AcDbLine
 62
7
  6
CONTINUOUS
 10
25.3868569424
 20
19.5428261736
 11
25.3868569424
 21
19.4404639689
  0
LINE
  5
68E
100
AcDbEntity
  8
0
100
AcDbLine
 62
7
  6
CONTINUOUS
 10
25.4262270212
 20
14.5388891658
 11
25.4262270212
 21
13.7869206618
  0
LINE
  5
68F
100
AcDbEntity
  8
0
100
AcDbLine
 62
7
  6
CONTINUOUS
 10
25.4655970999
 20
19.4404639689
 11
25.4655970999
 21
19.5428261736
  0
LINE
  5
690
100
AcDbEntity
  8
0
100
AcDbLine
 62
7
  6
CONTINUOUS
 10
25.5443372574
 20
19.5428261736
 11
25.5443372574
 21
19.4404639689
  0
LINE
  5
691
100
AcDbEntity
  8
0
100
AcDbLine
 62
7
  6
CONTINUOUS
 10
25.5638709287
 20
17.875203598
 11
25.5638709287
 21
18.1767784012
  0
LINE
  5
692
100
AcDbEntity
  8
0
100
AcDbLine
 62
7
  6
CONTINUOUS
 10
25.6230774149
 20
19.4404639689
 11
25.6230774149
 21
19.5428261736
  0
LINE
  5
693
100
AcDbEntity
  8
0
100
AcDbLine
 62
7
  6
CONTINUOUS
 10
25.6235300497
 20
18.3381017642
 11
25.6235300497
 21
17.7081805043
  0
LINE
  5
694
100
AcDbEntity
  8
0
100
AcDbLine
 62
7
  6
CONTINUOUS
 10
25.7018175724
 20
19.5428261736
 11
25.7018175724
 21
19.4404639689
  0
LINE
  5
695
100
AcDbEntity
  8
0
100
AcDbLine
 62
7
  6
CONTINUOUS
 10
25.7411876511
 20
14.5388891658
 11
25.7411876511
 21
13.7869206618
  0
LINE
  5
696
100
AcDbEntity
  8
0
100
AcDbLine
 62
7
  6
CONTINUOUS
 10
25.7805577298
 20
19.4404639689
 11
25.7805577298
 21
19.5428261736
  0
LINE
  5
697
100
AcDbEntity
  8
0
100
AcDbLine
 62
7
  6
CONTINUOUS
 10
24.7057545802
 20
16.7632986146
 11
26.461660092
 21
16.7632986146
  0
LINE
  5
698
100
AcDbEntity
  8
0
100
AcDbLine
 62
7
  6
CONTINUOUS
 10
26.587644344
 20
16.8892828665
 11
24.5797703283
 21
16.8892828665
  0
LINE
  5
699
100
AcDbEntity
  8
0
100
AcDbLine
 62
7
  6
CONTINUOUS
 10
25.8592978873
 20
19.5428261736
 11
25.8592978873
 21
19.4404639689
  0
LINE
  5
69A
100
AcDbEntity
  8
0
100
AcDbLine
 62
7
  6
CONTINUOUS
 10
25.9380380448
 20
19.4404639689
 11
25.9380380448
 21
19.5428261736
  0
LINE
  5
69B
100
AcDbEntity
  8
0
100
AcDbLine
 62
7
  6
CONTINUOUS
 10
26.0167782023
 20
19.5428261736
 11
26.0167782023
 21
19.4404639689
  0
LINE
  5
69C
100
AcDbEntity
  8
0
100
AcDbLine
 62
7
  6
CONTINUOUS
 10
26.0955183598
 20
19.4404639689
 11
26.0955183598
 21
19.5428261736
  0
LINE
  5
69D
100
AcDbEntity
  8
0
100
AcDbLine
 62
7
  6
CONTINUOUS
 10
26.1348884385
 20
17.1530623941
 11
26.1348884385
 21
17.625503339
  0
LINE
  5
69E
100
AcDbEntity
  8
0
100
AcDbLine
 62
7
  6
CONTINUOUS
 10
26.1589631206
 20
17.7081805043
 11
26.1589631206
 21
18.3381017642
  0
LINE
  5
69F
100
AcDbEntity
  8
0
100
AcDbLine
 62
7
  6
CONTINUOUS
 10
26.2281955251
 20
16.7632986146
 11
26.2281955251
 21
14.873534835
  0
LINE
  5
6A0
100
AcDbEntity
  8
0
100
AcDbLine
 62
7
  6
CONTINUOUS
 10
25.0325262338
 20
17.1530623941
 11
26.1348884385
 21
17.1530623941
  0
LINE
  5
6A1
100
AcDbEntity
  8
0
100
AcDbLine
 62
7
  6
CONTINUOUS
 10
26.3337073361
 20
14.5979442839
 11
26.3337073361
 21
14.5388891658
  0
LINE
  5
6A2
100
AcDbEntity
  8
0
100
AcDbLine
 62
7
  6
CONTINUOUS
 10
26.3541797771
 20
14.873534835
 11
26.3541797771
 21
16.7632986146
  0
LINE
  5
6A3
100
AcDbEntity
  8
0
100
AcDbLine
 62
7
  6
CONTINUOUS
 10
26.461660092
 20
19.5428261736
 11
26.461660092
 21
16.7632986146
  0
LINE
  5
6A4
100
AcDbEntity
  8
0
100
AcDbLine
 62
7
  6
CONTINUOUS
 10
26.511660092
 20
14.873534835
 11
26.511660092
 21
16.7747957891
  0
LINE
  5
6A5
100
AcDbEntity
  8
0
100
AcDbLine
 62
7
  6
CONTINUOUS
 10
26.511660092
 20
19.5313289991
 11
26.511660092
 21
19.5428261736
  0
LINE
  5
6A6
100
AcDbEntity
  8
0
100
AcDbLine
 62
7
  6
CONTINUOUS
 10
26.587644344
 20
16.8892828665
 11
26.587644344
 21
19.4168419217
  0
LINE
  5
6A7
100
AcDbEntity
  8
0
100
AcDbLine
 62
7
  6
CONTINUOUS
 10
26.6388254464
 20
19.5428261736
 11
26.6388254464
 21
14.5979442839
  0
LINE
  5
6A8
100
AcDbEntity
  8
0
100
AcDbLine
 62
7
  6
CONTINUOUS
 10
26.1348884385
 20
17.625503339
 11
25.0325262338
 21
17.625503339
  0
LINE
  5
6A9
100
AcDbEntity
  8
0
100
AcDbLine
 62
7
  6
CONTINUOUS
 10
25.6235300497
 20
17.7081805043
 11
26.1589631206
 21
17.7081805043
  0
LINE
  5
6AA
100
AcDbEntity
  8
0
100
AcDbLine
 62
7
  6
CONTINUOUS
 10
26.7648096983
 20
14.5979442839
 11
26.7648096983
 21
19.4168419217
  0
LINE
  5
6AB
100
AcDbEntity
  8
0
100
AcDbLine
 62
7
  6
CONTINUOUS
 10
25.0087528185
 20
17.875203598
 11
25.5638709287
 21
17.875203598
  0
LINE
  5
6AC
100
AcDbEntity
  8
0
100
AcDbLine
 62
7
  6
CONTINUOUS
 10
25.5638709287
 20
18.1767784012
 11
25.0087528185
 21
18.1767784012
  0
LINE
  5
6AD
100
AcDbEntity
  8
0
100
AcDbLine
 62
7
  6
CONTINUOUS
 10
26.1589631206
 20
18.3381017642
 11
25.6235300497
 21
18.3381017642
  0
LINE
  5
6AE
100
AcDbEntity
  8
0
100
AcDbLine
 62
7
  6
CONTINUOUS
 10
24.4026049739
 20
19.4168419217
 11
26.7648096983
 21
19.4168419217
  0
LINE
  5
6AF
100
AcDbEntity
  8
0
100
AcDbLine
 62
7
  6
CONTINUOUS
 10
26.0955183598
 20
19.4404639689
 11
26.0167782023
 21
19.4404639689
  0
LINE
  5
6B0
100
AcDbEntity
  8
0
100
AcDbLine
 62
7
  6
CONTINUOUS
 10
25.9380380448
 20
19.4404639689
 11
25.8592978873
 21
19.4404639689
  0
LINE
  5
6B1
100
AcDbEntity
  8
0
100
AcDbLine
 62
7
  6
CONTINUOUS
 10
25.7805577298
 20
19.4404639689
 11
25.7018175724
 21
19.4404639689
  0
LINE
  5
6B2
100
AcDbEntity
  8
0
100
AcDbLine
 62
7
  6
CONTINUOUS
 10
25.6230774149
 20
19.4404639689
 11
25.5443372574
 21
19.4404639689
  0
LINE
  5
6B3
100
AcDbEntity
  8
0
100
AcDbLine
 62
7
  6
CONTINUOUS
 10
25.4655970999
 20
19.4404639689
 11
25.3868569424
 21
19.4404639689
  0
LINE
  5
6B4
100
AcDbEntity
  8
0
100
AcDbLine
 62
7
  6
CONTINUOUS
 10
25.308116785
 20
19.4404639689
 11
25.2293766275
 21
19.4404639689
  0
LINE
  5
6B5
100
AcDbEntity
  8
0
100
AcDbLine
 62
7
  6
CONTINUOUS
 10
25.15063647
 20
19.4404639689
 11
25.0718963125
 21
19.4404639689
  0
LINE
  5
6B6
100
AcDbEntity
  8
0
100
AcDbLine
 62
7
  6
CONTINUOUS
 10
26.0167782023
 20
19.5428261736
 11
25.9380380448
 21
19.5428261736
  0
LINE
  5
6B7
100
AcDbEntity
  8
0
100
AcDbLine
 62
7
  6
CONTINUOUS
 10
25.8592978873
 20
19.5428261736
 11
25.7805577298
 21
19.5428261736
  0
LINE
  5
6B8
100
AcDbEntity
  8
0
100
AcDbLine
 62
7
  6
CONTINUOUS
 10
25.7018175724
 20
19.5428261736
 11
25.6230774149
 21
19.5428261736
  0
LINE
  5
6B9
100
AcDbEntity
  8
0
100
AcDbLine
 62
7
  6
CONTINUOUS
 10
25.5443372574
 20
19.5428261736
 11
25.4655970999
 21
19.5428261736
  0
LINE
  5
6BA
100
AcDbEntity
  8
0
100
AcDbLine
 62
7
  6
CONTINUOUS
 10
25.3868569424
 20
19.5428261736
 11
25.308116785
 21
19.5428261736
  0
LINE
  5
6BB
100
AcDbEntity
  8
0
100
AcDbLine
 62
7
  6
CONTINUOUS
 10
25.2293766275
 20
19.5428261736
 11
25.15063647
 21
19.5428261736
  0
LINE
  5
6BC
100
AcDbEntity
  8
0
100
AcDbLine
 62
7
  6
CONTINUOUS
 10
24.5285892259
 20
19.5428261736
 11
25.0718963125
 21
19.5428261736
  0
LINE
  5
6BD
100
AcDbEntity
  8
0
100
AcDbLine
 62
7
  6
CONTINUOUS
 10
26.0955183598
 20
19.5428261736
 11
26.6388254464
 21
19.5428261736
  0
LINE
  5
6BE
100
AcDbEntity
  8
0
100
AcDbLine
 62
7
  6
CONTINUOUS
 10
11.4197209104
 20
6.7678769978
 11
11.4197209104
 21
9.5474045569
  0
LINE
  5
6BF
100
AcDbEntity
  8
0
100
AcDbLine
 62
7
  6
CONTINUOUS
 10
11.5220831151
 20
8.4639399899
 11
11.5220831151
 21
8.3466171553
  0
LINE
  5
6C0
100
AcDbEntity
  8
0
100
AcDbLine
 62
7
  6
CONTINUOUS
 10
11.5220831151
 20
8.2670895962
 11
11.5220831151
 21
8.1497667616
  0
LINE
  5
6C1
100
AcDbEntity
  8
0
100
AcDbLine
 62
7
  6
CONTINUOUS
 10
11.5220831151
 20
8.0702392025
 11
11.5220831151
 21
7.9529163679
  0
LINE
  5
6C2
100
AcDbEntity
  8
0
100
AcDbLine
 62
7
  6
CONTINUOUS
 10
11.5220831151
 20
7.8733888088
 11
11.5220831151
 21
7.7560659742
  0
LINE
  5
6C3
100
AcDbEntity
  8
0
100
AcDbLine
 62
7
  6
CONTINUOUS
 10
11.5220831151
 20
7.6765384151
 11
11.5220831151
 21
7.5592155805
  0
LINE
  5
6C4
100
AcDbEntity
  8
0
100
AcDbLine
 62
7
  6
CONTINUOUS
 10
11.5457051623
 20
6.6418927458
 11
11.5457051623
 21
9.6733888088
  0
LINE
  5
6C5
100
AcDbEntity
  8
0
100
AcDbLine
 62
7
  6
CONTINUOUS
 10
11.5457051623
 20
6.6418927458
 11
16.3646028001
 21
6.6418927458
  0
LINE
  5
6C6
100
AcDbEntity
  8
0
100
AcDbLine
 62
7
  6
CONTINUOUS
 10
12.6244453198
 20
9.9450423521
 11
12.6244453198
 21
9.6733888088
  0
LINE
  5
6C7
100
AcDbEntity
  8
0
100
AcDbLine
 62
7
  6
CONTINUOUS
 10
16.3646028001
 20
6.7678769978
 11
11.4197209104
 21
6.7678769978
  0
LINE
  5
6C8
100
AcDbEntity
  8
0
100
AcDbLine
 62
7
  6
CONTINUOUS
 10
12.7857686828
 20
9.7521289663
 11
12.7857686828
 21
9.6733888088
  0
LINE
  5
6C9
100
AcDbEntity
  8
0
100
AcDbLine
 62
7
  6
CONTINUOUS
 10
11.4197209104
 20
6.8950423078
 11
16.089012249
 21
6.8950423078
  0
LINE
  5
6CA
100
AcDbEntity
  8
0
100
AcDbLine
 62
7
  6
CONTINUOUS
 10
11.5457051623
 20
7.0525226671
 11
16.089012249
 21
7.0525226671
  0
LINE
  5
6CB
100
AcDbEntity
  8
0
100
AcDbLine
 62
7
  6
CONTINUOUS
 10
16.3646028001
 20
7.072995108
 11
16.4236579182
 21
7.072995108
  0
LINE
  5
6CC
100
AcDbEntity
  8
0
100
AcDbLine
 62
7
  6
CONTINUOUS
 10
13.087343486
 20
9.7521289663
 11
13.087343486
 21
9.6733888088
  0
LINE
  5
6CD
100
AcDbEntity
  8
0
100
AcDbLine
 62
7
  6
CONTINUOUS
 10
16.089012249
 20
7.1785069191
 11
11.4197209104
 21
7.1785069191
  0
LINE
  5
6CE
100
AcDbEntity
  8
0
100
AcDbLine
 62
7
  6
CONTINUOUS
 10
13.2543665797
 20
9.9450423521
 11
13.2543665797
 21
9.6733888088
  0
LINE
  5
6CF
100
AcDbEntity
  8
0
100
AcDbLine
 62
7
  6
CONTINUOUS
 10
13.337043745
 20
10.2442549506
 11
13.337043745
 21
9.6733888088
  0
LINE
  5
6D0
100
AcDbEntity
  8
0
100
AcDbLine
 62
7
  6
CONTINUOUS
 10
13.4118468946
 20
8.750947864
 11
13.4118468946
 21
9.1655147931
  0
LINE
  5
6D1
100
AcDbEntity
  8
0
100
AcDbLine
 62
7
  6
CONTINUOUS
 10
11.4197209104
 20
7.5592155805
 11
11.5220831151
 21
7.5592155805
  0
LINE
  5
6D2
100
AcDbEntity
  8
0
100
AcDbLine
 62
7
  6
CONTINUOUS
 10
16.4236579182
 20
7.6655147931
 11
16.5850752411
 21
7.6655147931
  0
LINE
  5
6D3
100
AcDbEntity
  8
0
100
AcDbLine
 62
7
  6
CONTINUOUS
 10
11.5220831151
 20
7.6765384151
 11
11.4197209104
 21
7.6765384151
  0
LINE
  5
6D4
100
AcDbEntity
  8
0
100
AcDbLine
 62
7
  6
CONTINUOUS
 10
16.5850752411
 20
7.6851998325
 11
17.1756264222
 21
7.6851998325
  0
LINE
  5
6D5
100
AcDbEntity
  8
0
100
AcDbLine
 62
7
  6
CONTINUOUS
 10
11.4197209104
 20
7.7560659742
 11
11.5220831151
 21
7.7560659742
  0
LINE
  5
6D6
100
AcDbEntity
  8
0
100
AcDbLine
 62
7
  6
CONTINUOUS
 10
13.8094846899
 20
10.2442549506
 11
13.8094846899
 21
9.6733888088
  0
LINE
  5
6D7
100
AcDbEntity
  8
0
100
AcDbLine
 62
7
  6
CONTINUOUS
 10
11.5220831151
 20
7.8733888088
 11
11.4197209104
 21
7.8733888088
  0
LINE
  5
6D8
100
AcDbEntity
  8
0
100
AcDbLine
 62
7
  6
CONTINUOUS
 10
11.4197209104
 20
7.9529163679
 11
11.5220831151
 21
7.9529163679
  0
LINE
  5
6D9
100
AcDbEntity
  8
0
100
AcDbLine
 62
7
  6
CONTINUOUS
 10
16.4236579182
 20
7.980475423
 11
17.1756264222
 21
7.980475423
  0
LINE
  5
6DA
100
AcDbEntity
  8
0
100
AcDbLine
 62
7
  6
CONTINUOUS
 10
14.0732642175
 20
9.6733888088
 11
14.0732642175
 21
9.0395305411
  0
LINE
  5
6DB
100
AcDbEntity
  8
0
100
AcDbLine
 62
7
  6
CONTINUOUS
 10
11.5220831151
 20
8.0702392025
 11
11.4197209104
 21
8.0702392025
  0
LINE
  5
6DC
100
AcDbEntity
  8
0
100
AcDbLine
 62
7
  6
CONTINUOUS
 10
11.4197209104
 20
8.1497667616
 11
11.5220831151
 21
8.1497667616
  0
LINE
  5
6DD
100
AcDbEntity
  8
0
100
AcDbLine
 62
7
  6
CONTINUOUS
 10
14.1992484694
 20
9.1655147931
 11
14.1992484694
 21
9.5474045569
  0
LINE
  5
6DE
100
AcDbEntity
  8
0
100
AcDbLine
 62
7
  6
CONTINUOUS
 10
11.5220831151
 20
8.2670895962
 11
11.4197209104
 21
8.2670895962
  0
LINE
  5
6DF
100
AcDbEntity
  8
0
100
AcDbLine
 62
7
  6
CONTINUOUS
 10
11.4197209104
 20
8.3466171553
 11
11.5220831151
 21
8.3466171553
  0
LINE
  5
6E0
100
AcDbEntity
  8
0
100
AcDbLine
 62
7
  6
CONTINUOUS
 10
11.5220831151
 20
8.4639399899
 11
11.4197209104
 21
8.4639399899
  0
LINE
  5
6E1
100
AcDbEntity
  8
0
100
AcDbLine
 62
7
  6
CONTINUOUS
 10
11.4197209104
 20
8.467483297
 11
16.089012249
 21
8.467483297
  0
LINE
  5
6E2
100
AcDbEntity
  8
0
100
AcDbLine
 62
7
  6
CONTINUOUS
 10
16.3646028001
 20
8.572995108
 11
16.4236579182
 21
8.572995108
  0
LINE
  5
6E3
100
AcDbEntity
  8
0
100
AcDbLine
 62
7
  6
CONTINUOUS
 10
16.089012249
 20
8.593467549
 11
11.5457051623
 21
8.593467549
  0
LINE
  5
6E4
100
AcDbEntity
  8
0
100
AcDbLine
 62
7
  6
CONTINUOUS
 10
16.089012249
 20
8.750947864
 11
13.4118468946
 21
8.750947864
  0
LINE
  5
6E5
100
AcDbEntity
  8
0
100
AcDbLine
 62
7
  6
CONTINUOUS
 10
13.4118468946
 20
8.8781132183
 11
16.3646028001
 21
8.8781132183
  0
LINE
  5
6E6
100
AcDbEntity
  8
0
100
AcDbLine
 62
7
  6
CONTINUOUS
 10
13.4118468946
 20
8.9059589754
 11
11.5457051623
 21
8.9059589754
  0
LINE
  5
6E7
100
AcDbEntity
  8
0
100
AcDbLine
 62
7
  6
CONTINUOUS
 10
16.3646028001
 20
9.0040974703
 11
13.4118468946
 21
9.0040974703
  0
LINE
  5
6E8
100
AcDbEntity
  8
0
100
AcDbLine
 62
7
  6
CONTINUOUS
 10
13.4118468946
 20
9.0299678645
 11
11.4197209104
 21
9.0299678645
  0
LINE
  5
6E9
100
AcDbEntity
  8
0
100
AcDbLine
 62
7
  6
CONTINUOUS
 10
13.4118468946
 20
9.0395305411
 11
14.0732642175
 21
9.0395305411
  0
LINE
  5
6EA
100
AcDbEntity
  8
0
100
AcDbLine
 62
7
  6
CONTINUOUS
 10
14.1992484694
 20
9.1655147931
 11
13.4118468946
 21
9.1655147931
  0
LINE
  5
6EB
100
AcDbEntity
  8
0
100
AcDbLine
 62
7
  6
CONTINUOUS
 10
11.4197209104
 20
9.5474045569
 11
14.1992484694
 21
9.5474045569
  0
LINE
  5
6EC
100
AcDbEntity
  8
0
100
AcDbLine
 62
7
  6
CONTINUOUS
 10
14.0732642175
 20
9.6733888088
 11
11.5457051623
 21
9.6733888088
  0
LINE
  5
6ED
100
AcDbEntity
  8
0
100
AcDbLine
 62
7
  6
CONTINUOUS
 10
12.7857686828
 20
9.7521289663
 11
13.087343486
 21
9.7521289663
  0
LINE
  5
6EE
100
AcDbEntity
  8
0
100
AcDbLine
 62
7
  6
CONTINUOUS
 10
12.6244453198
 20
9.9450423521
 11
13.2543665797
 21
9.9450423521
  0
LINE
  5
6EF
100
AcDbEntity
  8
0
100
AcDbLine
 62
7
  6
CONTINUOUS
 10
16.089012249
 20
6.6418927458
 11
16.089012249
 21
7.1785069191
  0
LINE
  5
6F0
100
AcDbEntity
  8
0
100
AcDbLine
 62
7
  6
CONTINUOUS
 10
16.089012249
 20
8.467483297
 11
16.089012249
 21
9.0040974703
  0
LINE
  5
6F1
100
AcDbEntity
  8
0
100
AcDbLine
 62
7
  6
CONTINUOUS
 10
13.337043745
 20
10.2442549506
 11
13.8094846899
 21
10.2442549506
  0
LINE
  5
6F2
100
AcDbEntity
  8
0
100
AcDbLine
 62
7
  6
CONTINUOUS
 10
16.3646028001
 20
9.0040974703
 11
16.3646028001
 21
6.6418927458
  0
LINE
  5
6F3
100
AcDbEntity
  8
0
100
AcDbLine
 62
7
  6
CONTINUOUS
 10
16.4236579182
 20
8.5729753642
 11
16.4236579182
 21
7.0730148519
  0
LINE
  5
6F4
100
AcDbEntity
  8
0
100
AcDbLine
 62
7
  6
CONTINUOUS
 10
16.5850752411
 20
7.6851998325
 11
16.5850752411
 21
7.6655153795
  0
LINE
  5
6F5
100
AcDbEntity
  8
0
100
AcDbLine
 62
7
  6
CONTINUOUS
 10
17.1756264222
 20
7.9804733536
 11
17.1756264222
 21
7.6851998325
  0
LINE
  5
6F6
100
AcDbEntity
  8
0
100
AcDbLine
 62
7
  6
CONTINUOUS
 10
5.107816524
 20
19.8025905262
 11
4.8489121784
 21
19.6531024021
  0
LINE
  5
6F7
100
AcDbEntity
  8
0
100
AcDbLine
 62
7
  6
CONTINUOUS
 10
4.7932344791
 20
19.6209547963
 11
4.7375567798
 21
19.5888071906
  0
LINE
  5
6F8
100
AcDbEntity
  8
0
100
AcDbLine
 62
7
  6
CONTINUOUS
 10
4.6818790805
 20
19.5566595848
 11
4.6262013812
 21
19.524511979
  0
LINE
  5
6F9
100
AcDbEntity
  8
0
100
AcDbLine
 62
7
  6
CONTINUOUS
 10
4.5705236819
 20
19.4923643732
 11
4.5148459826
 21
19.4602167675
  0
LINE
  5
6FA
100
AcDbEntity
  8
0
100
AcDbLine
 62
7
  6
CONTINUOUS
 10
4.4591682833
 20
19.4280691617
 11
4.4034905839
 21
19.3959215559
  0
LINE
  5
6FB
100
AcDbEntity
  8
0
100
AcDbLine
 62
7
  6
CONTINUOUS
 10
4.3478128846
 20
19.3637739501
 11
4.2921351853
 21
19.3316263444
  0
LINE
  5
6FC
100
AcDbEntity
  8
0
100
AcDbLine
 62
7
  6
CONTINUOUS
 10
4.236457486
 20
19.2994787386
 11
4.1807797867
 21
19.2673311328
  0
LINE
  5
6FD
100
AcDbEntity
  8
0
100
AcDbLine
 62
7
  6
CONTINUOUS
 10
4.1251020874
 20
19.2351835271
 11
3.8662007856
 21
19.0856971602
  0
LINE
  5
6FE
100
AcDbEntity
  8
0
100
AcDbLine
 62
7
  6
CONTINUOUS
 10
4.8952040384
 20
19.6546809702
 11
4.8395263391
 21
19.6225333644
  0
LINE
  5
6FF
100
AcDbEntity
  8
0
100
AcDbLine
 62
7
  6
CONTINUOUS
 10
4.7838486398
 20
19.5903857586
 11
4.7281709405
 21
19.5582381528
  0
LINE
  5
700
100
AcDbEntity
  8
0
100
AcDbLine
 62
7
  6
CONTINUOUS
 10
4.6724932412
 20
19.5260905471
 11
4.6168155419
 21
19.4939429413
  0
LINE
  5
701
100
AcDbEntity
  8
0
100
AcDbLine
 62
7
  6
CONTINUOUS
 10
4.5611378426
 20
19.4617953355
 11
4.5054601432
 21
19.4296477298
  0
LINE
  5
702
100
AcDbEntity
  8
0
100
AcDbLine
 62
7
  6
CONTINUOUS
 10
4.4497824439
 20
19.397500124
 11
4.3941047446
 21
19.3653525182
  0
LINE
  5
703
100
AcDbEntity
  8
0
100
AcDbLine
 62
7
  6
CONTINUOUS
 10
4.3384270453
 20
19.3332049124
 11
4.282749346
 21
19.3010573067
  0
LINE
  5
704
100
AcDbEntity
  8
0
100
AcDbLine
 62
7
  6
CONTINUOUS
 10
4.2270716467
 20
19.2689097009
 11
4.1713939474
 21
19.2367620951
  0
LINE
  5
705
100
AcDbEntity
  8
0
100
AcDbLine
 62
7
  6
CONTINUOUS
 10
3.9291959554
 20
19.079455752
 11
5.17080865
 21
19.7963473608
  0
LINE
  5
706
100
AcDbEntity
  8
0
100
AcDbLine
 62
7
  6
CONTINUOUS
 10
3.67793688
 20
18.022537632
 11
3.67793688
 21
18.0196446271
  0
LINE
  5
707
100
AcDbEntity
  8
0
100
AcDbLine
 62
7
  6
CONTINUOUS
 10
3.67793688
 20
17.9238540198
 11
3.67793688
 21
17.8589221316
  0
LINE
  5
708
100
AcDbEntity
  8
0
100
AcDbLine
 62
7
  6
CONTINUOUS
 10
3.67793688
 20
17.7631315244
 11
3.67793688
 21
17.6981996362
  0
LINE
  5
709
100
AcDbEntity
  8
0
100
AcDbLine
 62
7
  6
CONTINUOUS
 10
3.67793688
 20
17.6024090289
 11
3.67793688
 21
17.5374771408
  0
LINE
  5
70A
100
AcDbEntity
  8
0
100
AcDbLine
 62
7
  6
CONTINUOUS
 10
3.67793688
 20
17.4416865335
 11
3.67793688
 21
17.3767546453
  0
LINE
  5
70B
100
AcDbEntity
  8
0
100
AcDbLine
 62
7
  6
CONTINUOUS
 10
3.67793688
 20
17.2809640381
 11
3.67793688
 21
16.9701267319
  0
LINE
  5
70C
100
AcDbEntity
  8
0
100
AcDbLine
 62
7
  6
CONTINUOUS
 10
3.6997134491
 20
17.9787649805
 11
3.6997134491
 21
17.8829743732
  0
LINE
  5
70D
100
AcDbEntity
  8
0
100
AcDbLine
 62
7
  6
CONTINUOUS
 10
3.6997134491
 20
17.818042485
 11
3.6997134491
 21
17.7222518777
  0
LINE
  5
70E
100
AcDbEntity
  8
0
100
AcDbLine
 62
7
  6
CONTINUOUS
 10
3.6997134491
 20
17.6573199896
 11
3.6997134491
 21
17.5615293823
  0
LINE
  5
70F
100
AcDbEntity
  8
0
100
AcDbLine
 62
7
  6
CONTINUOUS
 10
3.6997134491
 20
17.4965974942
 11
3.6997134491
 21
17.4008068869
  0
LINE
  5
710
100
AcDbEntity
  8
0
100
AcDbLine
 62
7
  6
CONTINUOUS
 10
3.6997134491
 20
17.3358749987
 11
3.6997134491
 21
17.2400843915
  0
LINE
  5
711
100
AcDbEntity
  8
0
100
AcDbLine
 62
7
  6
CONTINUOUS
 10
3.7148368131
 20
16.9186905627
 11
3.7148368131
 21
17.9711014627
  0
LINE
  5
712
100
AcDbEntity
  8
0
100
AcDbLine
 62
7
  6
CONTINUOUS
 10
3.8032117035
 20
18.5541216755
 11
3.8032117035
 21
18.9765933549
  0
LINE
  5
713
100
AcDbEntity
  8
0
100
AcDbLine
 62
7
  6
CONTINUOUS
 10
3.8401116365
 20
18.5026855062
 11
3.8401116365
 21
18.9251571857
  0
LINE
  5
714
100
AcDbEntity
  8
0
100
AcDbLine
 62
7
  6
CONTINUOUS
 10
5.7195540493
 20
19.4541387224
 11
5.340945694
 21
19.2355350032
  0
LINE
  5
715
100
AcDbEntity
  8
0
100
AcDbLine
 62
7
  6
CONTINUOUS
 10
3.7409259622
 20
18.1316414373
 11
3.8308454466
 21
18.1835598206
  0
LINE
  5
716
100
AcDbEntity
  8
0
100
AcDbLine
 62
7
  6
CONTINUOUS
 10
3.803921132
 20
18.1254000291
 11
3.8938406164
 21
18.1773184124
  0
LINE
  5
717
100
AcDbEntity
  8
0
100
AcDbLine
 62
7
  6
CONTINUOUS
 10
5.4128331689
 20
18.9878054238
 11
5.0203053888
 21
18.7611648031
  0
LINE
  5
718
100
AcDbEntity
  8
0
100
AcDbLine
 62
7
  6
CONTINUOUS
 10
6.206413857
 20
19.3976720022
 11
5.4269260668
 21
18.9476055214
  0
LINE
  5
719
100
AcDbEntity
  8
0
100
AcDbLine
 62
7
  6
CONTINUOUS
 10
5.2335509771
 20
18.638039473
 11
5.4269260668
 21
18.7496918262
  0
LINE
  5
71A
100
AcDbEntity
  8
0
100
AcDbLine
 62
7
  6
CONTINUOUS
 10
5.2335509771
 20
18.5737504748
 11
5.4269260668
 21
18.685402828
  0
LINE
  5
71B
100
AcDbEntity
  8
0
100
AcDbLine
 62
7
  6
CONTINUOUS
 10
6.9535292122
 20
14.670838948
 11
7.1484011597
 21
14.5583223278
  0
LINE
  5
71C
100
AcDbEntity
  8
0
100
AcDbLine
 62
7
  6
CONTINUOUS
 10
7.1223120106
 20
14.6159899638
 11
6.9274400631
 21
14.728506584
  0
LINE
  5
71D
100
AcDbEntity
  8
0
100
AcDbLine
 62
7
  6
CONTINUOUS
 10
5.7609922626
 20
18.7547198867
 11
6.5404800529
 21
19.2047863675
  0
LINE
  5
71E
100
AcDbEntity
  8
0
100
AcDbLine
 62
7
  6
CONTINUOUS
 10
3.7409259622
 20
16.8610229266
 11
6.9274400631
 21
15.0211696212
  0
LINE
  5
71F
100
AcDbEntity
  8
0
100
AcDbLine
 62
7
  6
CONTINUOUS
 10
6.9274400631
 20
15.0637737095
 11
3.7148368131
 21
16.9186905627
  0
LINE
  5
720
100
AcDbEntity
  8
0
100
AcDbLine
 62
7
  6
CONTINUOUS
 10
5.0203053888
 20
18.7611648031
 11
5.0203053888
 21
18.696875805
  0
LINE
  5
721
100
AcDbEntity
  8
0
100
AcDbLine
 62
7
  6
CONTINUOUS
 10
5.7609922626
 20
18.28862465
 11
6.5404800529
 21
18.7386911308
  0
LINE
  5
722
100
AcDbEntity
  8
0
100
AcDbLine
 62
7
  6
CONTINUOUS
 10
5.1596731101
 20
17.7407872494
 11
5.1596731101
 21
17.8514572877
  0
LINE
  5
723
100
AcDbEntity
  8
0
100
AcDbLine
 62
7
  6
CONTINUOUS
 10
5.2335509771
 20
18.638039473
 11
5.2335509771
 21
18.5737504748
  0
LINE
  5
724
100
AcDbEntity
  8
0
100
AcDbLine
 62
7
  6
CONTINUOUS
 10
6.9580627977
 20
18.7644092154
 11
5.7164501032
 21
18.0475176067
  0
LINE
  5
725
100
AcDbEntity
  8
0
100
AcDbLine
 62
7
  6
CONTINUOUS
 10
7.5824593801
 20
15.3101680351
 11
7.6242176546
 21
15.2860573308
  0
LINE
  5
726
100
AcDbEntity
  8
0
100
AcDbLine
 62
7
  6
CONTINUOUS
 10
5.3247574885
 20
17.7121200955
 11
5.3247574885
 21
17.6082933634
  0
LINE
  5
727
100
AcDbEntity
  8
0
100
AcDbLine
 62
7
  6
CONTINUOUS
 10
5.340945694
 20
19.2355350032
 11
5.340945694
 21
19.0137379595
  0
LINE
  5
728
100
AcDbEntity
  8
0
100
AcDbLine
 62
7
  6
CONTINUOUS
 10
5.4269260668
 20
18.9476055214
 11
5.4269260668
 21
18.4815102846
  0
LINE
  5
729
100
AcDbEntity
  8
0
100
AcDbLine
 62
7
  6
CONTINUOUS
 10
5.805534422
 20
17.8932190403
 11
7.0471471166
 21
18.6101106491
  0
LINE
  5
72A
100
AcDbEntity
  8
0
100
AcDbLine
 62
7
  6
CONTINUOUS
 10
5.6273657843
 20
17.8932190403
 11
5.6273657843
 21
17.5814173992
  0
LINE
  5
72B
100
AcDbEntity
  8
0
100
AcDbLine
 62
7
  6
CONTINUOUS
 10
5.7609922626
 20
18.7547198867
 11
5.7609922626
 21
18.28862465
  0
LINE
  5
72C
100
AcDbEntity
  8
0
100
AcDbLine
 62
7
  6
CONTINUOUS
 10
7.0471471166
 20
18.298309008
 11
5.805534422
 21
17.5814173992
  0
LINE
  5
72D
100
AcDbEntity
  8
0
100
AcDbLine
 62
7
  6
CONTINUOUS
 10
7.0210579675
 20
18.2406413719
 11
5.7794452729
 21
17.5237497632
  0
LINE
  5
72E
100
AcDbEntity
  8
0
100
AcDbLine
 62
7
  6
CONTINUOUS
 10
3.7148368131
 20
17.9711014627
 11
6.9274400631
 21
16.1161846096
  0
LINE
  5
72F
100
AcDbEntity
  8
0
100
AcDbLine
 62
7
  6
CONTINUOUS
 10
5.805534422
 20
17.5814173992
 11
5.805534422
 21
17.8932190403
  0
LINE
  5
730
100
AcDbEntity
  8
0
100
AcDbLine
 62
7
  6
CONTINUOUS
 10
6.9274400631
 20
16.3219193452
 11
3.803921132
 21
18.1254000291
  0
LINE
  5
731
100
AcDbEntity
  8
0
100
AcDbLine
 62
7
  6
CONTINUOUS
 10
7.878733538
 20
15.8232968693
 11
8.4522138408
 21
15.4921765299
  0
LINE
  5
732
100
AcDbEntity
  8
0
100
AcDbLine
 62
7
  6
CONTINUOUS
 10
3.8938406164
 20
18.1773184124
 11
6.9274400631
 21
16.4257561118
  0
LINE
  5
733
100
AcDbEntity
  8
0
100
AcDbLine
 62
7
  6
CONTINUOUS
 10
6.9274400631
 20
16.4514517351
 11
7.1223120106
 21
16.3389351149
  0
LINE
  5
734
100
AcDbEntity
  8
0
100
AcDbLine
 62
7
  6
CONTINUOUS
 10
7.2113963295
 20
16.4932336812
 11
7.0165243819
 21
16.6057503014
  0
LINE
  5
735
100
AcDbEntity
  8
0
100
AcDbLine
 62
7
  6
CONTINUOUS
 10
3.8662007856
 20
18.4450178702
 11
5.1857622592
 21
17.6831196133
  0
LINE
  5
736
100
AcDbEntity
  8
0
100
AcDbLine
 62
7
  6
CONTINUOUS
 10
7.0388127603
 20
16.6186193317
 11
5.3247574885
 21
17.6082933634
  0
LINE
  5
737
100
AcDbEntity
  8
0
100
AcDbLine
 62
7
  6
CONTINUOUS
 10
5.1596731101
 20
17.7407872494
 11
3.8401116365
 21
18.5026855062
  0
LINE
  5
738
100
AcDbEntity
  8
0
100
AcDbLine
 62
7
  6
CONTINUOUS
 10
8.0362214624
 20
16.0960563826
 11
8.6097017653
 21
15.7649360431
  0
LINE
  5
739
100
AcDbEntity
  8
0
100
AcDbLine
 62
7
  6
CONTINUOUS
 10
5.3247574885
 20
17.7121200955
 11
7.128723555
 21
16.6705326977
  0
LINE
  5
73A
100
AcDbEntity
  8
0
100
AcDbLine
 62
7
  6
CONTINUOUS
 10
5.6534549334
 20
17.5237497632
 11
5.1857622592
 21
17.7937896517
  0
LINE
  5
73B
100
AcDbEntity
  8
0
100
AcDbLine
 62
7
  6
CONTINUOUS
 10
5.6273657843
 20
17.5814173992
 11
5.1596731101
 21
17.8514572877
  0
LINE
  5
73C
100
AcDbEntity
  8
0
100
AcDbLine
 62
7
  6
CONTINUOUS
 10
7.3068835838
 20
16.7734000655
 11
5.8933843929
 21
17.589536783
  0
LINE
  5
73D
100
AcDbEntity
  8
0
100
AcDbLine
 62
7
  6
CONTINUOUS
 10
6.5404800529
 20
19.2047863675
 11
6.5404800529
 21
18.7386911308
  0
LINE
  5
73E
100
AcDbEntity
  8
0
100
AcDbLine
 62
7
  6
CONTINUOUS
 10
3.8401116365
 20
18.9251571857
 11
5.6273657843
 21
17.8932190403
  0
LINE
  5
73F
100
AcDbEntity
  8
0
100
AcDbLine
 62
7
  6
CONTINUOUS
 10
5.7164501032
 20
18.0475176067
 11
3.9291959554
 21
19.079455752
  0
LINE
  5
740
100
AcDbEntity
  8
0
100
AcDbLine
 62
7
  6
CONTINUOUS
 10
6.9274400631
 20
16.4514517351
 11
6.9274400631
 21
16.1161846096
  0
LINE
  5
741
100
AcDbEntity
  8
0
100
AcDbLine
 62
7
  6
CONTINUOUS
 10
6.9274400631
 20
15.0637737095
 11
6.9274400631
 21
14.728506584
  0
LINE
  5
742
100
AcDbEntity
  8
0
100
AcDbLine
 62
7
  6
CONTINUOUS
 10
8.3324956203
 20
16.6091852168
 11
8.3742538948
 21
16.5850745125
  0
LINE
  5
743
100
AcDbEntity
  8
0
100
AcDbLine
 62
7
  6
CONTINUOUS
 10
5.0203053888
 20
18.696875805
 11
5.2335509771
 21
18.5737504748
  0
LINE
  5
744
100
AcDbEntity
  8
0
100
AcDbLine
 62
7
  6
CONTINUOUS
 10
5.4269260668
 20
18.4815102846
 11
5.7609922626
 21
18.28862465
  0
LINE
  5
745
100
AcDbEntity
  8
0
100
AcDbLine
 62
7
  6
CONTINUOUS
 10
5.0203053888
 20
18.7611648031
 11
5.2335509771
 21
18.638039473
  0
LINE
  5
746
100
AcDbEntity
  8
0
100
AcDbLine
 62
7
  6
CONTINUOUS
 10
7.0471471166
 20
18.6101106491
 11
7.0471471166
 21
18.298309008
  0
LINE
  5
747
100
AcDbEntity
  8
0
100
AcDbLine
 62
7
  6
CONTINUOUS
 10
7.0840470496
 20
18.3497451772
 11
7.0840470496
 21
18.6615468183
  0
LINE
  5
748
100
AcDbEntity
  8
0
100
AcDbLine
 62
7
  6
CONTINUOUS
 10
7.1223120106
 20
16.3389351149
 11
7.1223120106
 21
14.6159899638
  0
LINE
  5
749
100
AcDbEntity
  8
0
100
AcDbLine
 62
7
  6
CONTINUOUS
 10
8.5086867233
 20
17.4673061361
 11
8.2183275215
 21
17.299656372
  0
LINE
  5
74A
100
AcDbEntity
  8
0
100
AcDbLine
 62
7
  6
CONTINUOUS
 10
7.3068835838
 20
16.7734000655
 11
7.0165243819
 21
16.6057503014
  0
LINE
  5
74B
100
AcDbEntity
  8
0
100
AcDbLine
 62
7
  6
CONTINUOUS
 10
8.7035586709
 20
17.3547895159
 11
7.2113963295
 21
16.4932336812
  0
LINE
  5
74C
100
AcDbEntity
  8
0
100
AcDbLine
 62
7
  6
CONTINUOUS
 10
6.8048283305
 20
18.1157930895
 11
8.2183275215
 21
17.299656372
  0
LINE
  5
74D
100
AcDbEntity
  8
0
100
AcDbLine
 62
7
  6
CONTINUOUS
 10
5.4269260668
 20
18.9476055214
 11
5.7609922626
 21
18.7547198867
  0
LINE
  5
74E
100
AcDbEntity
  8
0
100
AcDbLine
 62
7
  6
CONTINUOUS
 10
8.2552299762
 20
17.3209633869
 11
6.8417307853
 21
18.1371001044
  0
LINE
  5
74F
100
AcDbEntity
  8
0
100
AcDbLine
 62
7
  6
CONTINUOUS
 10
5.340945694
 20
19.0137379595
 11
5.3993462192
 21
18.9800182281
  0
LINE
  5
750
100
AcDbEntity
  8
0
100
AcDbLine
 62
7
  6
CONTINUOUS
 10
5.4546915117
 20
18.9636369413
 11
5.4128331689
 21
18.9878054238
  0
LINE
  5
751
100
AcDbEntity
  8
0
100
AcDbLine
 62
7
  6
CONTINUOUS
 10
5.340945694
 20
19.2355350032
 11
5.6332740616
 21
19.0667482674
  0
LINE
  5
752
100
AcDbEntity
  8
0
100
AcDbLine
 62
7
  6
CONTINUOUS
 10
8.5086867233
 20
17.4673061361
 11
8.7035586709
 21
17.3547895159
  0
LINE
  5
753
100
AcDbEntity
  8
0
100
AcDbLine
 62
7
  6
CONTINUOUS
 10
8.5716818931
 20
17.4735475443
 11
8.7665538407
 21
17.3610309241
  0
LINE
  5
754
100
AcDbEntity
  8
0
100
AcDbLine
 62
7
  6
CONTINUOUS
 10
6.0118824169
 20
19.2853519867
 11
5.7195540493
 21
19.4541387224
  0
LINE
  5
755
100
AcDbEntity
  8
0
100
AcDbLine
 62
7
  6
CONTINUOUS
 10
5.17080865
 20
19.7963473608
 11
6.0338519985
 21
19.2980369478
  0
LINE
  5
756
100
AcDbEntity
  8
0
100
AcDbLine
 62
7
  6
CONTINUOUS
 10
6.5404800529
 20
19.0055162587
 11
6.9580627977
 21
18.7644092154
  0
LINE
  5
757
100
AcDbEntity
  8
0
100
AcDbLine
 62
7
  6
CONTINUOUS
 10
7.0210579675
 20
18.7706506236
 11
6.5404800529
 21
19.0481302884
  0
LINE
  5
758
100
AcDbEntity
  8
0
100
AcDbLine
 62
7
  6
CONTINUOUS
 10
6.0707544532
 20
19.3193439626
 11
5.2338038197
 21
19.802588769
  0
LINE
  5
759
100
AcDbEntity
  8
0
100
AcDbLine
 62
7
  6
CONTINUOUS
 10
6.5404800529
 20
19.2047863675
 11
6.206413857
 21
19.3976720022
  0
LINE
  5
75A
100
AcDbEntity
  8
0
100
AcDbLine
 62
7
  6
CONTINUOUS
 10
8.7926429898
 20
15.580418137
 11
8.7926429898
 21
17.3033632881
  0
LINE
  5
75B
100
AcDbEntity
  8
0
100
AcDbLine
 62
7
  6
CONTINUOUS
 10
8.5848675036
 20
15.5471773251
 11
8.4770481025
 21
15.4849237542
  0
LINE
  5
75C
100
AcDbEntity
  8
0
100
AcDbLine
 62
7
  6
CONTINUOUS
 10
7.2113963295
 20
14.564563736
 11
8.7035586709
 21
15.4261195707
  0
CIRCLE
  5
75D
100
AcDbEntity
  8
0
100
AcDbCircle
 62
7
  6
CONTINUOUS
 10
26.6015832652
 20
1.125680627
 40
0.2171153234
  0
CIRCLE
  5
75E
100
AcDbEntity
  8
0
100
AcDbCircle
 62
7
  6
CONTINUOUS
 10
26.6010208037
 20
1.1249896029
 40
0.1050049063
  0
CIRCLE
  5
75F
100
AcDbEntity
  8
0
100
AcDbCircle
 62
2
  6
CONTINUOUS
 10
1.648407831
 20
21.3726826079
 40
0.075401
  0
ARC
  5
760
100
AcDbEntity
  8
0
100
AcDbCircle
 62
7
  6
CONTINUOUS
 10
24.5285892259
 20
6.7678769978
 40
0.125984252
100
AcDbArc
 50
180.0
 51
270.0
  0
CIRCLE
  5
761
100
AcDbEntity
  8
0
100
AcDbCircle
 62
7
  6
CONTINUOUS
 10
24.6557545802
 20
6.8950423521
 40
0.0984251969
  0
ARC
  5
762
100
AcDbEntity
  8
0
100
AcDbCircle
 62
7
  6
CONTINUOUS
 10
24.7057545802
 20
9.0299678645
 40
0.125984252
100
AcDbArc
 50
180.0
 51
191.975037073
  0
ARC
  5
763
100
AcDbEntity
  8
0
100
AcDbCircle
 62
7
  6
CONTINUOUS
 10
24.5285892259
 20
8.8781132183
 40
0.125984252
100
AcDbArc
 50
90.0
 51
180.0
  0
ARC
  5
764
100
AcDbEntity
  8
0
100
AcDbCircle
 62
7
  6
CONTINUOUS
 10
24.7057545802
 20
9.1655147931
 40
0.125984252
100
AcDbArc
 50
180.0
 51
270.0
  0
ARC
  5
765
100
AcDbEntity
  8
0
100
AcDbCircle
 62
7
  6
CONTINUOUS
 10
24.7057545802
 20
9.5474045569
 40
0.125984252
100
AcDbArc
 50
90.0
 51
180.0
  0
CIRCLE
  5
766
100
AcDbEntity
  8
0
100
AcDbCircle
 62
7
  6
CONTINUOUS
 10
24.6557545802
 20
8.750947864
 40
0.0984251969
  0
CIRCLE
  5
767
100
AcDbEntity
  8
0
100
AcDbCircle
 62
7
  6
CONTINUOUS
 10
25.5837073361
 20
7.822995108
 40
0.75
  0
CIRCLE
  5
768
100
AcDbEntity
  8
0
100
AcDbCircle
 62
7
  6
CONTINUOUS
 10
25.5837073361
 20
7.822995108
 40
0.1968503937
  0
CIRCLE
  5
769
100
AcDbEntity
  8
0
100
AcDbCircle
 62
7
  6
CONTINUOUS
 10
25.5837073361
 20
7.822995108
 40
0.157480315
  0
ARC
  5
76A
100
AcDbEntity
  8
0
100
AcDbCircle
 62
7
  6
CONTINUOUS
 10
26.6388254464
 20
6.7678769978
 40
0.125984252
100
AcDbArc
 50
270.0
 51
360.0
  0
CIRCLE
  5
76B
100
AcDbEntity
  8
0
100
AcDbCircle
 62
7
  6
CONTINUOUS
 10
26.511660092
 20
6.8950423521
 40
0.0984251969
  0
ARC
  5
76C
100
AcDbEntity
  8
0
100
AcDbCircle
 62
7
  6
CONTINUOUS
 10
26.461660092
 20
9.0299678645
 40
0.125984252
100
AcDbArc
 50
348.0250891351
 51
360.0
  0
ARC
  5
76D
100
AcDbEntity
  8
0
100
AcDbCircle
 62
7
  6
CONTINUOUS
 10
26.6388254464
 20
8.8781132183
 40
0.125984252
100
AcDbArc
 50
0.0
 51
90.0
  0
ARC
  5
76E
100
AcDbEntity
  8
0
100
AcDbCircle
 62
7
  6
CONTINUOUS
 10
26.461660092
 20
9.5474045569
 40
0.125984252
100
AcDbArc
 50
0.0
 51
90.0
  0
ARC
  5
76F
100
AcDbEntity
  8
0
100
AcDbCircle
 62
7
  6
CONTINUOUS
 10
26.461660092
 20
9.1655147931
 40
0.125984252
100
AcDbArc
 50
270.0
 51
360.0
  0
CIRCLE
  5
770
100
AcDbEntity
  8
0
100
AcDbCircle
 62
7
  6
CONTINUOUS
 10
26.511660092
 20
8.750947864
 40
0.0984251969
  0
ARC
  5
771
100
AcDbEntity
  8
0
100
AcDbCircle
 62
7
  6
CONTINUOUS
 10
26.6388254464
 20
19.4168419217
 40
0.125984252
100
AcDbArc
 50
0.0
 51
90.0
  0
ARC
  5
772
100
AcDbEntity
  8
0
100
AcDbCircle
 62
7
  6
CONTINUOUS
 10
24.5285892259
 20
19.4168419217
 40
0.125984252
100
AcDbArc
 50
90.0
 51
180.0
  0
ARC
  5
773
100
AcDbEntity
  8
0
100
AcDbCircle
 62
7
  6
CONTINUOUS
 10
24.7057545802
 20
19.4168419217
 40
0.125984252
100
AcDbArc
 50
90.0
 51
180.0
  0
ARC
  5
774
100
AcDbEntity
  8
0
100
AcDbCircle
 62
7
  6
CONTINUOUS
 10
24.7057545802
 20
16.8892828665
 40
0.125984252
100
AcDbArc
 50
180.0
 51
270.0
  0
ARC
  5
775
100
AcDbEntity
  8
0
100
AcDbCircle
 62
7
  6
CONTINUOUS
 10
26.461660092
 20
16.8892828665
 40
0.125984252
100
AcDbArc
 50
270.0
 51
360.0
  0
ARC
  5
776
100
AcDbEntity
  8
0
100
AcDbCircle
 62
7
  6
CONTINUOUS
 10
26.461660092
 20
19.4168419217
 40
0.125984252
100
AcDbArc
 50
0.0
 51
90.0
  0
ARC
  5
777
100
AcDbEntity
  8
0
100
AcDbCircle
 62
7
  6
CONTINUOUS
 10
11.5457051623
 20
7.1785069191
 40
0.125984252
100
AcDbArc
 50
180.0
 51
270.0
  0
ARC
  5
778
100
AcDbEntity
  8
0
100
AcDbCircle
 62
7
  6
CONTINUOUS
 10
11.5457051623
 20
8.467483297
 40
0.125984252
100
AcDbArc
 50
90.0
 51
180.0
  0
ARC
  5
779
100
AcDbEntity
  8
0
100
AcDbCircle
 62
7
  6
CONTINUOUS
 10
14.0732642175
 20
9.1655147931
 40
0.125984252
100
AcDbArc
 50
270.0
 51
360.0
  0
ARC
  5
77A
100
AcDbEntity
  8
0
100
AcDbCircle
 62
7
  6
CONTINUOUS
 10
11.5457051623
 20
6.7678769978
 40
0.125984252
100
AcDbArc
 50
180.0
 51
270.0
  0
ARC
  5
77B
100
AcDbEntity
  8
0
100
AcDbCircle
 62
7
  6
CONTINUOUS
 10
11.5457051623
 20
9.5474045569
 40
0.125984252
100
AcDbArc
 50
90.0
 51
180.0
  0
ARC
  5
77C
100
AcDbEntity
  8
0
100
AcDbCircle
 62
7
  6
CONTINUOUS
 10
14.0732642175
 20
9.5474045569
 40
0.125984252
100
AcDbArc
 50
0.0
 51
90.0
  0
ARC
  5
77D
100
AcDbEntity
  8
0
100
AcDbCircle
 62
7
  6
CONTINUOUS
 10
5.7164501032
 20
17.6328616467
 40
0.1259912479
100
AcDbArc
 50
240.0002384831
 51
299.9997615169
  0
ARC
  5
77E
100
AcDbEntity
  8
0
100
AcDbCircle
 62
7
  6
CONTINUOUS
 10
3.9292029506
 20
18.9765893164
 40
0.1259912472
100
AcDbArc
 50
120.0034349968
 51
179.998163438
  0
ARC
  5
77F
100
AcDbEntity
  8
0
100
AcDbCircle
 62
7
  6
CONTINUOUS
 10
3.8039281272
 20
18.0225335935
 40
0.1259912472
100
AcDbArc
 50
120.0034349968
 51
179.998163438
  0
ARC
  5
780
100
AcDbEntity
  8
0
100
AcDbCircle
 62
7
  6
CONTINUOUS
 10
6.9580558031
 20
18.6615427801
 40
0.1259912466
100
AcDbArc
 50
0.0018364107
 51
59.9965651545
  0
ARC
  5
781
100
AcDbEntity
  8
0
100
AcDbCircle
 62
7
  6
CONTINUOUS
 10
3.9291960416
 20
18.5541217252
 40
0.1259843382
100
AcDbArc
 50
180.0000226292
 51
239.9983789359
  0
ARC
  5
782
100
AcDbEntity
  8
0
100
AcDbCircle
 62
7
  6
CONTINUOUS
 10
6.9580627115
 20
18.3497452269
 40
0.1259843381
100
AcDbArc
 50
300.0016210541
 51
359.9999773807
  0
ARC
  5
783
100
AcDbEntity
  8
0
100
AcDbCircle
 62
7
  6
CONTINUOUS
 10
5.17080865
 20
19.6934849686
 40
0.1259842477
100
AcDbArc
 50
59.9984004515
 51
120.0015995485
  0
ARC
  5
784
100
AcDbEntity
  8
0
100
AcDbCircle
 62
7
  6
CONTINUOUS
 10
3.8039121244
 20
16.9701245291
 40
0.1259752444
100
AcDbArc
 50
179.9989981076
 51
239.9967887029
  0
ARC
  5
785
100
AcDbEntity
  8
0
100
AcDbCircle
 62
7
  6
CONTINUOUS
 10
7.9852798589
 20
15.8485603228
 40
0.124730073
100
AcDbArc
 50
192.5921280051
 51
194.477364276
  0
ARC
  5
786
100
AcDbEntity
  8
0
100
AcDbCircle
 62
7
  6
CONTINUOUS
 10
5.4434198874
 20
17.7121178731
 40
0.1186623989
100
AcDbArc
 50
179.3923868249
 51
179.9989269281
  0
ARC
  5
787
100
AcDbEntity
  8
0
100
AcDbCircle
 62
7
  6
CONTINUOUS
 10
8.0072326024
 20
16.0602585234
 40
0.0863199261
100
AcDbArc
 50
27.9178061754
 51
31.7912925177
  0
ARC
  5
788
100
AcDbEntity
  8
0
100
AcDbCircle
 62
7
  6
CONTINUOUS
 10
3.7536401243
 20
18.0451816476
 40
0.083325172
100
AcDbArc
 50
225.0925394165
 51
230.5695905805
  0
ARC
  5
789
100
AcDbEntity
  8
0
100
AcDbCircle
 62
7
  6
CONTINUOUS
 10
8.0135357343
 20
16.064227018
 40
0.0788717444
100
AcDbArc
 50
31.7531872209
 51
39.3197109532
  0
ARC
  5
78A
100
AcDbEntity
  8
0
100
AcDbCircle
 62
7
  6
CONTINUOUS
 10
4.2229684895
 20
19.217494845
 40
0.0674169702
100
AcDbArc
 50
158.2210090966
 51
161.0848026575
  0
ARC
  5
78B
100
AcDbEntity
  8
0
100
AcDbCircle
 62
7
  6
CONTINUOUS
 10
4.3343238881
 20
19.2817900565
 40
0.0674169702
100
AcDbArc
 50
158.2210090966
 51
161.0848026575
  0
ARC
  5
78C
100
AcDbEntity
  8
0
100
AcDbCircle
 62
7
  6
CONTINUOUS
 10
4.4456792867
 20
19.3460852681
 40
0.0674169702
100
AcDbArc
 50
158.2210090966
 51
161.0848026575
  0
ARC
  5
78D
100
AcDbEntity
  8
0
100
AcDbCircle
 62
7
  6
CONTINUOUS
 10
4.5570346853
 20
19.4103804796
 40
0.0674169702
100
AcDbArc
 50
158.2210090965
 51
161.0848026575
  0
ARC
  5
78E
100
AcDbEntity
  8
0
100
AcDbCircle
 62
7
  6
CONTINUOUS
 10
4.6683900839
 20
19.4746756912
 40
0.0674169702
100
AcDbArc
 50
158.2210090966
 51
161.0848026575
  0
ARC
  5
78F
100
AcDbEntity
  8
0
100
AcDbCircle
 62
7
  6
CONTINUOUS
 10
4.7797454826
 20
19.5389709027
 40
0.0674169702
100
AcDbArc
 50
158.2210090965
 51
161.0848026576
  0
ARC
  5
790
100
AcDbEntity
  8
0
100
AcDbCircle
 62
7
  6
CONTINUOUS
 10
4.8911008812
 20
19.6032661143
 40
0.0674169702
100
AcDbArc
 50
158.2210090966
 51
161.0848026574
  0
ARC
  5
791
100
AcDbEntity
  8
0
100
AcDbCircle
 62
7
  6
CONTINUOUS
 10
7.9120539166
 20
15.8755716027
 40
0.0623586905
100
AcDbArc
 50
215.5200213241
 51
216.2944130865
  0
ARC
  5
792
100
AcDbEntity
  8
0
100
AcDbCircle
 62
7
  6
CONTINUOUS
 10
3.7199145466
 20
18.019623955
 40
0.0419756099
100
AcDbArc
 50
179.9717870074
 51
184.2984302637
  0
SPLINE
  5
793
100
AcDbEntity
  8
0
100
AcDbSpline
 62
7
  6
CONTINUOUS
 70
0
 71
3
 72
11
 73
7
 74
0
 42
0.0000001
 43
0.0000001
 44
0.0000000001
 40
0.0
 40
0.0
 40
0.0
 40
0.0
 40
0.2481905128
 40
0.4974190537
 40
0.7481592492
 40
1.0
 40
1.0
 40
1.0
 40
1.0
 10
11.4197209104
 20
9.0299678645
 30
0.0
 10
11.4197209104
 20
9.0138282075
 30
0.0
 10
11.4263144197
 20
8.9811198752
 30
0.0
 10
11.4544271656
 20
8.9399003324
 30
0.0
 10
11.4962956007
 20
8.9123780381
 30
0.0
 10
11.5293281329
 20
8.9059589754
 30
0.0
 10
11.5457051623
 20
8.9059589754
 30
0.0
  0
SPLINE
  5
794
100
AcDbEntity
  8
0
100
AcDbSpline
 62
7
  6
CONTINUOUS
 70
0
 71
3
 72
14
 73
10
 74
0
 42
0.0000001
 43
0.0000001
 44
0.0000000001
 40
0.0
 40
0.0
 40
0.0
 40
0.0
 40
0.0941054834
 40
0.1932957355
 40
0.3014263667
 40
0.4206094924
 40
0.5513339247
 40
0.6928103592
 40
1.0
 40
1.0
 40
1.0
 40
1.0
 10
7.6242187143
 20
15.2860591923
 30
0.0
 10
7.6455700039
 20
15.2737339104
 30
0.0
 10
7.6935173487
 20
15.2549536203
 30
0.0
 10
7.7730317869
 20
15.2478071283
 30
0.0
 10
7.858274556
 20
15.2607919936
 30
0.0
 10
7.9468780356
 20
15.2930358861
 30
0.0
 10
8.0366326222
 20
15.3434053547
 30
0.0
 10
8.1578974706
 20
15.4352422788
 30
0.0
 10
8.2381772163
 20
15.5228001468
 30
0.0
 10
8.2867216888
 20
15.5869864603
 30
0.0
  0
SPLINE
  5
795
100
AcDbEntity
  8
0
100
AcDbSpline
 62
7
  6
CONTINUOUS
 70
0
 71
3
 72
9
 73
5
 74
0
 42
0.0000001
 43
0.0000001
 44
0.0000000001
 40
0.0
 40
0.0
 40
0.0
 40
0.0
 40
0.5236034791
 40
1.0
 40
1.0
 40
1.0
 40
1.0
 10
8.444691181
 20
15.8604737643
 30
0.0
 10
8.4713756615
 20
15.9235713782
 30
0.0
 10
8.5126154785
 20
16.0484806668
 30
0.0
 10
8.5295658606
 20
16.1794402384
 30
0.0
 10
8.5295658606
 20
16.2417718666
 30
0.0
  0
SPLINE
  5
796
100
AcDbEntity
  8
0
100
AcDbSpline
 62
7
  6
CONTINUOUS
 70
0
 71
3
 72
9
 73
5
 74
0
 42
0.0000001
 43
0.0000001
 44
0.0000000001
 40
0.0
 40
0.0
 40
0.0
 40
0.0
 40
0.471451294
 40
1.0
 40
1.0
 40
1.0
 40
1.0
 10
7.9008063976
 20
15.765092222
 30
0.0
 10
7.891965342
 20
15.7701948977
 30
0.0
 10
7.8757561643
 20
15.7857869083
 30
0.0
 10
7.8673730647
 20
15.806297737
 30
0.0
 10
7.8645104045
 20
15.8173781163
 30
0.0
  0
SPLINE
  5
797
100
AcDbEntity
  8
0
100
AcDbSpline
 62
7
  6
CONTINUOUS
 70
0
 71
3
 72
9
 73
5
 74
0
 42
0.0000001
 43
0.0000001
 44
0.0000000001
 40
0.0
 40
0.0
 40
0.0
 40
0.0
 40
0.2388902163
 40
1.0
 40
1.0
 40
1.0
 40
1.0
 10
7.8635499528
 20
15.8213680248
 30
0.0
 10
7.8629584606
 20
15.8240141047
 30
0.0
 10
7.8608342854
 20
15.8351685419
 30
0.0
 10
7.8600415264
 20
15.8465583757
 30
0.0
 10
7.8600415264
 20
15.8551969072
 30
0.0
  0
SPLINE
  5
798
100
AcDbEntity
  8
0
100
AcDbSpline
 62
7
  6
CONTINUOUS
 70
0
 71
3
 72
9
 73
5
 74
0
 42
0.0000001
 43
0.0000001
 44
0.0000000001
 40
0.0
 40
0.0
 40
0.0
 40
0.0
 40
0.2451063505
 40
1.0
 40
1.0
 40
1.0
 40
1.0
 10
8.4522189652
 20
15.4921853948
 30
0.0
 10
8.4540583282
 20
15.4911221338
 30
0.0
 10
8.4618224504
 20
15.4872367292
 30
0.0
 10
8.4705170602
 20
15.4853252077
 30
0.0
 10
8.4770481025
 20
15.4849237542
 30
0.0
  0
SPLINE
  5
799
100
AcDbEntity
  8
0
100
AcDbSpline
 62
7
  6
CONTINUOUS
 70
0
 71
3
 72
11
 73
7
 74
0
 42
0.0000001
 43
0.0000001
 44
0.0000000001
 40
0.0
 40
0.0
 40
0.0
 40
0.0
 40
0.2177779293
 40
0.4509024963
 40
0.7102906093
 40
1.0
 40
1.0
 40
1.0
 40
1.0
 10
7.1484014741
 20
14.5583228722
 30
0.0
 10
7.1525572292
 20
14.5559233895
 30
0.0
 10
7.1621059974
 20
14.5524579761
 30
0.0
 10
7.1779665151
 20
14.552056764
 30
0.0
 10
7.1948702321
 20
14.5561393638
 30
0.0
 10
7.2058679387
 20
14.5613717124
 30
0.0
 10
7.2113963295
 20
14.564563736
 30
0.0
  0
SPLINE
  5
79A
100
AcDbEntity
  8
0
100
AcDbSpline
 62
7
  6
CONTINUOUS
 70
0
 71
3
 72
11
 73
7
 74
0
 42
0.0000001
 43
0.0000001
 44
0.0000000001
 40
0.0
 40
0.0
 40
0.0
 40
0.0
 40
0.2177832642
 40
0.450910074
 40
0.710296197
 40
1.0
 40
1.0
 40
1.0
 40
1.0
 10
6.9535295265
 20
14.6708394924
 30
0.0
 10
6.949374292
 20
14.6732386771
 30
0.0
 10
6.9416000539
 20
14.6797747922
 30
0.0
 10
6.9333234995
 20
14.6933078342
 30
0.0
 10
6.928407732
 20
14.7099854673
 30
0.0
 10
6.9274400631
 20
14.7221239228
 30
0.0
 10
6.9274400631
 20
14.728506584
 30
0.0
  0
SPLINE
  5
79B
100
AcDbEntity
  8
0
100
AcDbSpline
 62
7
  6
CONTINUOUS
 70
0
 71
3
 72
11
 73
7
 74
0
 42
0.0000001
 43
0.0000001
 44
0.0000000001
 40
0.0
 40
0.0
 40
0.0
 40
0.0
 40
0.2177659019
 40
0.4508965229
 40
0.7103695015
 40
1.0
 40
1.0
 40
1.0
 40
1.0
 10
7.2521018754
 20
16.2532273718
 30
0.0
 10
7.2488566111
 20
16.2551028654
 30
0.0
 10
7.2427797129
 20
16.2602042007
 30
0.0
 10
7.2363145263
 20
16.2707802559
 30
0.0
 10
7.2324764405
 20
16.2838100322
 30
0.0
 10
7.2317186898
 20
16.2932932524
 30
0.0
 10
7.2317186898
 20
16.2982784282
 30
0.0
  0
SPLINE
  5
79C
100
AcDbEntity
  8
0
100
AcDbSpline
 62
7
  6
CONTINUOUS
 70
0
 71
3
 72
11
 73
7
 74
0
 42
0.0000001
 43
0.0000001
 44
0.0000000001
 40
0.0
 40
0.0
 40
0.0
 40
0.0
 40
0.2177659019
 40
0.4508965229
 40
0.7103695015
 40
1.0
 40
1.0
 40
1.0
 40
1.0
 10
8.564425248
 20
17.0109464399
 30
0.0
 10
8.5611799837
 20
17.0128219335
 30
0.0
 10
8.5551030855
 20
17.0179232688
 30
0.0
 10
8.548637899
 20
17.028499324
 30
0.0
 10
8.5447998132
 20
17.0415291003
 30
0.0
 10
8.5440420624
 20
17.0510123205
 30
0.0
 10
8.5440420624
 20
17.0559974962
 30
0.0
  0
SPLINE
  5
79D
100
AcDbEntity
  8
0
100
AcDbSpline
 62
7
  6
CONTINUOUS
 70
0
 71
3
 72
9
 73
5
 74
0
 42
0.0000001
 43
0.0000001
 44
0.0000000001
 40
0.0
 40
0.0
 40
0.0
 40
0.0
 40
0.467986441
 40
1.0
 40
1.0
 40
1.0
 40
1.0
 10
8.564425248
 20
15.4956547529
 30
0.0
 10
8.5596821766
 20
15.4983958549
 30
0.0
 10
8.5510326387
 20
15.5070265152
 30
0.0
 10
8.5469617426
 20
15.5183175984
 30
0.0
 10
8.5456632685
 20
15.5244083905
 30
0.0
  0
SPLINE
  5
79E
100
AcDbEntity
  8
0
100
AcDbSpline
 62
7
  6
CONTINUOUS
 70
0
 71
3
 72
11
 73
7
 74
0
 42
0.0000001
 43
0.0000001
 44
0.0000000001
 40
0.0
 40
0.0
 40
0.0
 40
0.0
 40
0.2177659019
 40
0.4508965229
 40
0.7103695015
 40
1.0
 40
1.0
 40
1.0
 40
1.0
 10
7.2521018754
 20
14.7379356848
 30
0.0
 10
7.2488566111
 20
14.7398111785
 30
0.0
 10
7.2427797129
 20
14.7449125137
 30
0.0
 10
7.2363145263
 20
14.7554885689
 30
0.0
 10
7.2324764405
 20
14.7685183453
 30
0.0
 10
7.2317186898
 20
14.7780015655
 30
0.0
 10
7.2317186898
 20
14.7829867412
 30
0.0
  0
SPLINE
  5
79F
100
AcDbEntity
  8
0
100
AcDbSpline
 62
7
  6
CONTINUOUS
 70
0
 71
3
 72
9
 73
5
 74
0
 42
0.0000001
 43
0.0000001
 44
0.0000000001
 40
0.0
 40
0.0
 40
0.0
 40
0.0
 40
0.5333495186
 40
1.0
 40
1.0
 40
1.0
 40
1.0
 10
3.6997134491
 20
17.9787649805
 30
0.0
 10
3.6937033189
 20
17.9838725135
 30
0.0
 10
3.6835370571
 20
17.9950449641
 30
0.0
 10
3.6785743252
 20
18.009596355
 30
0.0
 10
3.6780570062
 20
18.0164778239
 30
0.0
  0
SPLINE
  5
7A0
100
AcDbEntity
  8
0
100
AcDbSpline
 62
7
  6
CONTINUOUS
 70
0
 71
3
 72
9
 73
5
 74
0
 42
0.0000001
 43
0.0000001
 44
0.0000000001
 40
0.0
 40
0.0
 40
0.0
 40
0.0
 40
0.4646372676
 40
1.0
 40
1.0
 40
1.0
 40
1.0
 10
5.1857634498
 20
17.6831216674
 30
0.0
 10
5.1922647664
 20
17.6793634026
 30
0.0
 10
5.20873179
 20
17.6752892521
 30
0.0
 10
5.2249303466
 20
17.6788952056
 30
0.0
 10
5.233043945
 20
17.6819010779
 30
0.0
  0
SPLINE
  5
7A1
100
AcDbEntity
  8
0
100
AcDbSpline
 62
7
  6
CONTINUOUS
 70
0
 71
3
 72
11
 73
7
 74
0
 42
0.0000001
 43
0.0000001
 44
0.0000000001
 40
0.0
 40
0.0
 40
0.0
 40
0.0
 40
0.2095592611
 40
0.4731764856
 40
0.749460638
 40
1.0
 40
1.0
 40
1.0
 40
1.0
 10
3.8308454466
 20
18.1835598206
 30
0.0
 10
3.846044414
 20
18.1923355139
 30
0.0
 10
3.8769733032
 20
18.2179068326
 30
0.0
 10
3.916541214
 20
18.2670446528
 30
0.0
 10
3.9480499646
 20
18.3256768047
 30
0.0
 10
3.9614171044
 20
18.3681397651
 30
0.0
 10
3.9651272646
 20
18.3887917561
 30
0.0
  0
SPLINE
  5
7A2
100
AcDbEntity
  8
0
100
AcDbSpline
 62
7
  6
CONTINUOUS
 70
0
 71
3
 72
9
 73
5
 74
0
 42
0.0000001
 43
0.0000001
 44
0.0000000001
 40
0.0
 40
0.0
 40
0.0
 40
0.0
 40
0.5333923088
 40
1.0
 40
1.0
 40
1.0
 40
1.0
 10
3.6989072455
 20
17.3211462354
 30
0.0
 10
3.6926850663
 20
17.3157285672
 30
0.0
 10
3.6822387225
 20
17.3037808357
 30
0.0
 10
3.6779425993
 20
17.2881812935
 30
0.0
 10
3.6779389429
 20
17.2809640351
 30
0.0
  0
SPLINE
  5
7A3
100
AcDbEntity
  8
0
100
AcDbSpline
 62
7
  6
CONTINUOUS
 70
0
 71
3
 72
9
 73
5
 74
0
 42
0.0000001
 43
0.0000001
 44
0.0000000001
 40
0.0
 40
0.0
 40
0.0
 40
0.0
 40
0.4656413615
 40
1.0
 40
1.0
 40
1.0
 40
1.0
 10
4.1251031224
 20
19.2351817405
 30
0.0
 10
4.1314795352
 20
19.2388677105
 30
0.0
 10
4.1475470809
 20
19.2429410283
 30
0.0
 10
4.1634339005
 20
19.2396036652
 30
0.0
 10
4.1713939474
 20
19.2367620951
 30
0.0
  0
SPLINE
  5
7A4
100
AcDbEntity
  8
0
100
AcDbSpline
 62
7
  6
CONTINUOUS
 70
0
 71
3
 72
9
 73
5
 74
0
 42
0.0000001
 43
0.0000001
 44
0.0000000001
 40
0.0
 40
0.0
 40
0.0
 40
0.0
 40
0.4803007861
 40
1.0
 40
1.0
 40
1.0
 40
1.0
 10
4.1807808211
 20
19.2673293473
 30
0.0
 10
4.1762619066
 20
19.2647171291
 30
0.0
 10
4.1678414374
 20
19.2574167463
 30
0.0
 10
4.1624605196
 20
19.2477524475
 30
0.0
 10
4.160363612
 20
19.2425083852
 30
0.0
  0
SPLINE
  5
7A5
100
AcDbEntity
  8
0
100
AcDbSpline
 62
7
  6
CONTINUOUS
 70
0
 71
3
 72
9
 73
5
 74
0
 42
0.0000001
 43
0.0000001
 44
0.0000000001
 40
0.0
 40
0.0
 40
0.0
 40
0.0
 40
0.4656413615
 40
1.0
 40
1.0
 40
1.0
 40
1.0
 10
4.236458521
 20
19.299476952
 30
0.0
 10
4.2428349338
 20
19.303162922
 30
0.0
 10
4.2589024795
 20
19.3072362399
 30
0.0
 10
4.2747892991
 20
19.3038988767
 30
0.0
 10
4.282749346
 20
19.3010573067
 30
0.0
  0
SPLINE
  5
7A6
100
AcDbEntity
  8
0
100
AcDbSpline
 62
7
  6
CONTINUOUS
 70
0
 71
3
 72
9
 73
5
 74
0
 42
0.0000001
 43
0.0000001
 44
0.0000000001
 40
0.0
 40
0.0
 40
0.0
 40
0.0
 40
0.4803007861
 40
1.0
 40
1.0
 40
1.0
 40
1.0
 10
4.2921362197
 20
19.3316245588
 30
0.0
 10
4.2876173052
 20
19.3290123407
 30
0.0
 10
4.279196836
 20
19.3217119579
 30
0.0
 10
4.2738159182
 20
19.3120476591
 30
0.0
 10
4.2717190106
 20
19.3068035967
 30
0.0
  0
SPLINE
  5
7A7
100
AcDbEntity
  8
0
100
AcDbSpline
 62
7
  6
CONTINUOUS
 70
0
 71
3
 72
9
 73
5
 74
0
 42
0.0000001
 43
0.0000001
 44
0.0000000001
 40
0.0
 40
0.0
 40
0.0
 40
0.0
 40
0.4656413615
 40
1.0
 40
1.0
 40
1.0
 40
1.0
 10
4.3478139196
 20
19.3637721636
 30
0.0
 10
4.3541903324
 20
19.3674581336
 30
0.0
 10
4.3702578781
 20
19.3715314514
 30
0.0
 10
4.3861446977
 20
19.3681940883
 30
0.0
 10
4.3941047446
 20
19.3653525182
 30
0.0
  0
SPLINE
  5
7A8
100
AcDbEntity
  8
0
100
AcDbSpline
 62
7
  6
CONTINUOUS
 70
0
 71
3
 72
9
 73
5
 74
0
 42
0.0000001
 43
0.0000001
 44
0.0000000001
 40
0.0
 40
0.0
 40
0.0
 40
0.0
 40
0.4803007861
 40
1.0
 40
1.0
 40
1.0
 40
1.0
 10
4.4034916183
 20
19.3959197704
 30
0.0
 10
4.3989727039
 20
19.3933075522
 30
0.0
 10
4.3905522346
 20
19.3860071694
 30
0.0
 10
4.3851713168
 20
19.3763428706
 30
0.0
 10
4.3830744092
 20
19.3710988083
 30
0.0
  0
SPLINE
  5
7A9
100
AcDbEntity
  8
0
100
AcDbSpline
 62
7
  6
CONTINUOUS
 70
0
 71
3
 72
9
 73
5
 74
0
 42
0.0000001
 43
0.0000001
 44
0.0000000001
 40
0.0
 40
0.0
 40
0.0
 40
0.0
 40
0.4656413615
 40
1.0
 40
1.0
 40
1.0
 40
1.0
 10
4.4591693182
 20
19.4280673751
 30
0.0
 10
4.465545731
 20
19.4317533451
 30
0.0
 10
4.4816132768
 20
19.435826663
 30
0.0
 10
4.4975000963
 20
19.4324892998
 30
0.0
 10
4.5054601432
 20
19.4296477298
 30
0.0
  0
SPLINE
  5
7AA
100
AcDbEntity
  8
0
100
AcDbSpline
 62
7
  6
CONTINUOUS
 70
0
 71
3
 72
9
 73
5
 74
0
 42
0.0000001
 43
0.0000001
 44
0.0000000001
 40
0.0
 40
0.0
 40
0.0
 40
0.0
 40
0.4803007861
 40
1.0
 40
1.0
 40
1.0
 40
1.0
 10
4.5148470169
 20
19.4602149819
 30
0.0
 10
4.5103281025
 20
19.4576027638
 30
0.0
 10
4.5019076332
 20
19.4503023809
 30
0.0
 10
4.4965267155
 20
19.4406380822
 30
0.0
 10
4.4944298079
 20
19.4353940198
 30
0.0
  0
SPLINE
  5
7AB
100
AcDbEntity
  8
0
100
AcDbSpline
 62
7
  6
CONTINUOUS
 70
0
 71
3
 72
9
 73
5
 74
0
 42
0.0000001
 43
0.0000001
 44
0.0000000001
 40
0.0
 40
0.0
 40
0.0
 40
0.0
 40
0.4656413615
 40
1.0
 40
1.0
 40
1.0
 40
1.0
 10
4.5705247168
 20
19.4923625867
 30
0.0
 10
4.5769011297
 20
19.4960485567
 30
0.0
 10
4.5929686754
 20
19.5001218745
 30
0.0
 10
4.6088554949
 20
19.4967845114
 30
0.0
 10
4.6168155419
 20
19.4939429413
 30
0.0
  0
SPLINE
  5
7AC
100
AcDbEntity
  8
0
100
AcDbSpline
 62
7
  6
CONTINUOUS
 70
0
 71
3
 72
9
 73
5
 74
0
 42
0.0000001
 43
0.0000001
 44
0.0000000001
 40
0.0
 40
0.0
 40
0.0
 40
0.0
 40
0.4803007861
 40
1.0
 40
1.0
 40
1.0
 40
1.0
 10
4.6262024155
 20
19.5245101935
 30
0.0
 10
4.6216835011
 20
19.5218979753
 30
0.0
 10
4.6132630318
 20
19.5145975925
 30
0.0
 10
4.6078821141
 20
19.5049332937
 30
0.0
 10
4.6057852065
 20
19.4996892313
 30
0.0
  0
SPLINE
  5
7AD
100
AcDbEntity
  8
0
100
AcDbSpline
 62
7
  6
CONTINUOUS
 70
0
 71
3
 72
9
 73
5
 74
0
 42
0.0000001
 43
0.0000001
 44
0.0000000001
 40
0.0
 40
0.0
 40
0.0
 40
0.0
 40
0.4656413615
 40
1.0
 40
1.0
 40
1.0
 40
1.0
 10
4.6818801154
 20
19.5566577982
 30
0.0
 10
4.6882565283
 20
19.5603437682
 30
0.0
 10
4.704324074
 20
19.5644170861
 30
0.0
 10
4.7202108935
 20
19.5610797229
 30
0.0
 10
4.7281709405
 20
19.5582381528
 30
0.0
  0
SPLINE
  5
7AE
100
AcDbEntity
  8
0
100
AcDbSpline
 62
7
  6
CONTINUOUS
 70
0
 71
3
 72
9
 73
5
 74
0
 42
0.0000001
 43
0.0000001
 44
0.0000000001
 40
0.0
 40
0.0
 40
0.0
 40
0.0
 40
0.4803007861
 40
1.0
 40
1.0
 40
1.0
 40
1.0
 10
4.7375578141
 20
19.588805405
 30
0.0
 10
4.7330388997
 20
19.5861931869
 30
0.0
 10
4.7246184304
 20
19.578892804
 30
0.0
 10
4.7192375127
 20
19.5692285053
 30
0.0
 10
4.7171406051
 20
19.5639844429
 30
0.0
  0
SPLINE
  5
7AF
100
AcDbEntity
  8
0
100
AcDbSpline
 62
7
  6
CONTINUOUS
 70
0
 71
3
 72
9
 73
5
 74
0
 42
0.0000001
 43
0.0000001
 44
0.0000000001
 40
0.0
 40
0.0
 40
0.0
 40
0.0
 40
0.4656413615
 40
1.0
 40
1.0
 40
1.0
 40
1.0
 10
4.793235514
 20
19.6209530098
 30
0.0
 10
4.7996119269
 20
19.6246389798
 30
0.0
 10
4.8156794726
 20
19.6287122976
 30
0.0
 10
4.8315662921
 20
19.6253749345
 30
0.0
 10
4.8395263391
 20
19.6225333644
 30
0.0
  0
SPLINE
  5
7B0
100
AcDbEntity
  8
0
100
AcDbSpline
 62
7
  6
CONTINUOUS
 70
0
 71
3
 72
9
 73
5
 74
0
 42
0.0000001
 43
0.0000001
 44
0.0000000001
 40
0.0
 40
0.0
 40
0.0
 40
0.0
 40
0.4803007861
 40
1.0
 40
1.0
 40
1.0
 40
1.0
 10
4.8489132127
 20
19.6531006166
 30
0.0
 10
4.8443942983
 20
19.6504883984
 30
0.0
 10
4.835973829
 20
19.6431880156
 30
0.0
 10
4.8305929113
 20
19.6335237168
 30
0.0
 10
4.8284960037
 20
19.6282796544
 30
0.0
  0
SPLINE
  5
7B1
100
AcDbEntity
  8
0
100
AcDbSpline
 62
7
  6
CONTINUOUS
 70
0
 71
3
 72
9
 73
5
 74
0
 42
0.0000001
 43
0.0000001
 44
0.0000000001
 40
0.0
 40
0.0
 40
0.0
 40
0.0
 40
0.5333923088
 40
1.0
 40
1.0
 40
1.0
 40
1.0
 10
3.6989072455
 20
17.9640362172
 30
0.0
 10
3.6926850663
 20
17.9586185489
 30
0.0
 10
3.6822387225
 20
17.9466708174
 30
0.0
 10
3.6779425993
 20
17.9310712753
 30
0.0
 10
3.6779389429
 20
17.9238540169
 30
0.0
  0
SPLINE
  5
7B2
100
AcDbEntity
  8
0
100
AcDbSpline
 62
7
  6
CONTINUOUS
 70
0
 71
3
 72
9
 73
5
 74
0
 42
0.0000001
 43
0.0000001
 44
0.0000000001
 40
0.0
 40
0.0
 40
0.0
 40
0.0
 40
0.5343460855
 40
1.0
 40
1.0
 40
1.0
 40
1.0
 10
3.6997134491
 20
17.818042485
 30
0.0
 10
3.6932732245
 20
17.8235155213
 30
0.0
 10
3.6824407933
 20
17.8356058218
 30
0.0
 10
3.6779352108
 20
17.8515569587
 30
0.0
 10
3.6779389418
 20
17.8589221287
 30
0.0
  0
SPLINE
  5
7B3
100
AcDbEntity
  8
0
100
AcDbSpline
 62
7
  6
CONTINUOUS
 70
0
 71
3
 72
9
 73
5
 74
0
 42
0.0000001
 43
0.0000001
 44
0.0000000001
 40
0.0
 40
0.0
 40
0.0
 40
0.0
 40
0.5333923088
 40
1.0
 40
1.0
 40
1.0
 40
1.0
 10
3.6989072455
 20
17.8033137217
 30
0.0
 10
3.6926850663
 20
17.7978960535
 30
0.0
 10
3.6822387225
 20
17.785948322
 30
0.0
 10
3.6779425993
 20
17.7703487798
 30
0.0
 10
3.6779389429
 20
17.7631315214
 30
0.0
  0
SPLINE
  5
7B4
100
AcDbEntity
  8
0
100
AcDbSpline
 62
7
  6
CONTINUOUS
 70
0
 71
3
 72
9
 73
5
 74
0
 42
0.0000001
 43
0.0000001
 44
0.0000000001
 40
0.0
 40
0.0
 40
0.0
 40
0.0
 40
0.5343460855
 40
1.0
 40
1.0
 40
1.0
 40
1.0
 10
3.6997134491
 20
17.6573199896
 30
0.0
 10
3.6932732245
 20
17.6627930258
 30
0.0
 10
3.6824407933
 20
17.6748833264
 30
0.0
 10
3.6779352108
 20
17.6908344633
 30
0.0
 10
3.6779389418
 20
17.6981996333
 30
0.0
  0
SPLINE
  5
7B5
100
AcDbEntity
  8
0
100
AcDbSpline
 62
7
  6
CONTINUOUS
 70
0
 71
3
 72
9
 73
5
 74
0
 42
0.0000001
 43
0.0000001
 44
0.0000000001
 40
0.0
 40
0.0
 40
0.0
 40
0.0
 40
0.5333923088
 40
1.0
 40
1.0
 40
1.0
 40
1.0
 10
3.6989072455
 20
17.6425912263
 30
0.0
 10
3.6926850663
 20
17.6371735581
 30
0.0
 10
3.6822387225
 20
17.6252258265
 30
0.0
 10
3.6779425993
 20
17.6096262844
 30
0.0
 10
3.6779389429
 20
17.602409026
 30
0.0
  0
SPLINE
  5
7B6
100
AcDbEntity
  8
0
100
AcDbSpline
 62
7
  6
CONTINUOUS
 70
0
 71
3
 72
9
 73
5
 74
0
 42
0.0000001
 43
0.0000001
 44
0.0000000001
 40
0.0
 40
0.0
 40
0.0
 40
0.0
 40
0.5343460855
 40
1.0
 40
1.0
 40
1.0
 40
1.0
 10
3.6997134491
 20
17.4965974942
 30
0.0
 10
3.6932732245
 20
17.5020705304
 30
0.0
 10
3.6824407933
 20
17.5141608309
 30
0.0
 10
3.6779352108
 20
17.5301119679
 30
0.0
 10
3.6779389418
 20
17.5374771379
 30
0.0
  0
SPLINE
  5
7B7
100
AcDbEntity
  8
0
100
AcDbSpline
 62
7
  6
CONTINUOUS
 70
0
 71
3
 72
9
 73
5
 74
0
 42
0.0000001
 43
0.0000001
 44
0.0000000001
 40
0.0
 40
0.0
 40
0.0
 40
0.0
 40
0.5333923088
 40
1.0
 40
1.0
 40
1.0
 40
1.0
 10
3.6989072455
 20
17.4818687309
 30
0.0
 10
3.6926850663
 20
17.4764510626
 30
0.0
 10
3.6822387225
 20
17.4645033311
 30
0.0
 10
3.6779425993
 20
17.448903789
 30
0.0
 10
3.6779389429
 20
17.4416865306
 30
0.0
  0
SPLINE
  5
7B8
100
AcDbEntity
  8
0
100
AcDbSpline
 62
7
  6
CONTINUOUS
 70
0
 71
3
 72
9
 73
5
 74
0
 42
0.0000001
 43
0.0000001
 44
0.0000000001
 40
0.0
 40
0.0
 40
0.0
 40
0.0
 40
0.5343460855
 40
1.0
 40
1.0
 40
1.0
 40
1.0
 10
3.6997134491
 20
17.3358749987
 30
0.0
 10
3.6932732245
 20
17.341348035
 30
0.0
 10
3.6824407933
 20
17.3534383355
 30
0.0
 10
3.6779352108
 20
17.3693894724
 30
0.0
 10
3.6779389418
 20
17.3767546424
 30
0.0
  0
SPLINE
  5
7B9
100
AcDbEntity
  8
0
100
AcDbSpline
 62
7
  6
CONTINUOUS
 70
0
 71
3
 72
9
 73
5
 74
0
 42
0.0000001
 43
0.0000001
 44
0.0000000001
 40
0.0
 40
0.0
 40
0.0
 40
0.0
 40
0.5223707961
 40
1.0
 40
1.0
 40
1.0
 40
1.0
 10
8.5848675036
 20
15.5471773251
 30
0.0
 10
8.6024170921
 20
15.5685218971
 30
0.0
 10
8.6296288403
 20
15.6147883922
 30
0.0
 10
8.6423132017
 20
15.6675853569
 30
0.0
 10
8.6423132017
 20
15.692851498
 30
0.0
  0
SPLINE
  5
7BA
100
AcDbEntity
  8
0
100
AcDbSpline
 62
7
  6
CONTINUOUS
 70
0
 71
3
 72
11
 73
7
 74
0
 42
0.0000001
 43
0.0000001
 44
0.0000000001
 40
0.0
 40
0.0
 40
0.0
 40
0.0
 40
0.2897046756
 40
0.5490924705
 40
0.7822172571
 40
1.0
 40
1.0
 40
1.0
 40
1.0
 10
8.6423132017
 20
15.692851498
 30
0.0
 10
8.6423132017
 20
15.7008298705
 30
0.0
 10
8.6411033414
 20
15.7160030039
 30
0.0
 10
8.6349592178
 20
15.7368502667
 30
0.0
 10
8.6246132831
 20
15.7537666201
 30
0.0
 10
8.6148954185
 20
15.7619363825
 30
0.0
 10
8.6097016299
 20
15.7649358085
 30
0.0
  0
SPLINE
  5
7BB
100
AcDbEntity
  8
0
100
AcDbSpline
 62
7
  6
CONTINUOUS
 70
0
 71
3
 72
11
 73
7
 74
0
 42
0.0000001
 43
0.0000001
 44
0.0000000001
 40
0.0
 40
0.0
 40
0.0
 40
0.0
 40
0.2898060435
 40
0.54904794
 40
0.7822300513
 40
1.0
 40
1.0
 40
1.0
 40
1.0
 10
8.5295658606
 20
16.2417718666
 30
0.0
 10
8.5295658606
 20
16.279782668
 30
0.0
 10
8.5238267937
 20
16.3520444409
 30
0.0
 10
8.4945284899
 20
16.4513196655
 30
0.0
 10
8.4452855276
 20
16.531886874
 30
0.0
 10
8.3989897094
 20
16.5707930006
 30
0.0
 10
8.3742528351
 20
16.5850726509
 30
0.0
  0
SPLINE
  5
7BC
100
AcDbEntity
  8
0
100
AcDbSpline
 62
7
  6
CONTINUOUS
 70
0
 71
3
 72
11
 73
7
 74
0
 42
0.0000001
 43
0.0000001
 44
0.0000000001
 40
0.0
 40
0.0
 40
0.0
 40
0.0
 40
0.2450914268
 40
0.5160180993
 40
0.7779608474
 40
1.0
 40
1.0
 40
1.0
 40
1.0
 10
7.8600415264
 20
15.8551969072
 30
0.0
 10
7.8600415264
 20
15.8815207958
 30
0.0
 10
7.8713035553
 20
15.9369459004
 30
0.0
 10
7.9090502009
 20
16.0123629074
 30
0.0
 10
7.9622976347
 20
16.0744852881
 30
0.0
 10
8.0076162808
 20
16.1030819374
 30
0.0
 10
8.0303788475
 20
16.1101947013
 30
0.0
  0
SPLINE
  5
7BD
100
AcDbEntity
  8
0
100
AcDbSpline
 62
7
  6
CONTINUOUS
 70
0
 71
3
 72
9
 73
5
 74
0
 42
0.0000001
 43
0.0000001
 44
0.0000000001
 40
0.0
 40
0.0
 40
0.0
 40
0.0
 40
0.5310289976
 40
1.0
 40
1.0
 40
1.0
 40
1.0
 10
8.0303788475
 20
16.1101947013
 30
0.0
 10
8.0420222542
 20
16.1138329906
 30
0.0
 10
8.0652339954
 20
16.1177486216
 30
0.0
 10
8.0883367292
 20
16.1114283882
 30
0.0
 10
8.0976655254
 20
16.1060402674
 30
0.0
  0
SPLINE
  5
7BE
100
AcDbEntity
  8
0
100
AcDbSpline
 62
7
  6
CONTINUOUS
 70
0
 71
3
 72
11
 73
7
 74
0
 42
0.0000001
 43
0.0000001
 44
0.0000000001
 40
0.0
 40
0.0
 40
0.0
 40
0.0
 40
0.2372443756
 40
0.500006038
 40
0.7627644105
 40
1.0
 40
1.0
 40
1.0
 40
1.0
 10
8.7035586709
 20
15.4261195707
 30
0.0
 10
8.7162061199
 20
15.4334220493
 30
0.0
 10
8.7401395686
 20
15.4535660229
 30
0.0
 10
8.7680733245
 20
15.4917388507
 30
0.0
 10
8.787164938
 20
15.5350160776
 30
0.0
 10
8.7926429898
 20
15.5658144265
 30
0.0
 10
8.7926429898
 20
15.580418137
 30
0.0
  0
SPLINE
  5
7BF
100
AcDbEntity
  8
0
100
AcDbSpline
 62
7
  6
CONTINUOUS
 70
0
 71
3
 72
11
 73
7
 74
0
 42
0.0000001
 43
0.0000001
 44
0.0000000001
 40
0.0
 40
0.0
 40
0.0
 40
0.0
 40
0.2897038022
 40
0.5490898547
 40
0.7822166909
 40
1.0
 40
1.0
 40
1.0
 40
1.0
 10
8.7926429898
 20
17.3033632881
 30
0.0
 10
8.7926429898
 20
17.3097459493
 30
0.0
 10
8.7916753231
 20
17.3218844034
 30
0.0
 10
8.7867595543
 20
17.3385620356
 30
0.0
 10
8.7784830002
 20
17.3520950768
 30
0.0
 10
8.7707087629
 20
17.3586311965
 30
0.0
 10
8.7665535264
 20
17.3610303797
 30
0.0
  0
SPLINE
  5
7C0
100
AcDbEntity
  8
0
100
AcDbSpline
 62
7
  6
CONTINUOUS
 70
0
 71
3
 72
15
 73
11
 74
0
 42
0.0000001
 43
0.0000001
 44
0.0000000001
 40
0.0
 40
0.0
 40
0.0
 40
0.0
 40
0.1288261196
 40
0.270570402
 40
0.417883499
 40
0.5623837965
 40
0.6962029769
 40
0.8135951602
 40
0.9130667325
 40
1.0
 40
1.0
 40
1.0
 40
1.0
 10
7.2317186898
 20
14.7829867412
 30
0.0
 10
7.2317186898
 20
14.7913995837
 30
0.0
 10
7.2340725715
 20
14.809089072
 30
0.0
 10
7.2428567117
 20
14.8350618543
 30
0.0
 10
7.2563951313
 20
14.8600833284
 30
0.0
 10
7.2735900277
 20
14.8820952766
 30
0.0
 10
7.293066908
 20
14.8993424503
 30
0.0
 10
7.3133793839
 20
14.9104380135
 30
0.0
 10
7.3332607423
 20
14.9144196649
 30
0.0
 10
7.3456144658
 20
14.9112474401
 30
0.0
 10
7.3505297524
 20
14.9084068121
 30
0.0
  0
SPLINE
  5
7C1
100
AcDbEntity
  8
0
100
AcDbSpline
 62
7
  6
CONTINUOUS
 70
0
 71
3
 72
15
 73
11
 74
0
 42
0.0000001
 43
0.0000001
 44
0.0000000001
 40
0.0
 40
0.0
 40
0.0
 40
0.0
 40
0.1288261196
 40
0.270570402
 40
0.417883499
 40
0.5623837965
 40
0.6962029769
 40
0.8135951602
 40
0.9130667325
 40
1.0
 40
1.0
 40
1.0
 40
1.0
 10
8.5440420624
 20
17.0559974962
 30
0.0
 10
8.5440420624
 20
17.0644103387
 30
0.0
 10
8.5463959441
 20
17.082099827
 30
0.0
 10
8.5551800843
 20
17.1080726093
 30
0.0
 10
8.5687185039
 20
17.1330940834
 30
0.0
 10
8.5859134003
 20
17.1551060317
 30
0.0
 10
8.6053902807
 20
17.1723532053
 30
0.0
 10
8.6257027566
 20
17.1834487685
 30
0.0
 10
8.6455841149
 20
17.1874304199
 30
0.0
 10
8.6579378384
 20
17.1842581952
 30
0.0
 10
8.662853125
 20
17.1814175671
 30
0.0
  0
SPLINE
  5
7C2
100
AcDbEntity
  8
0
100
AcDbSpline
 62
7
  6
CONTINUOUS
 70
0
 71
3
 72
15
 73
11
 74
0
 42
0.0000001
 43
0.0000001
 44
0.0000000001
 40
0.0
 40
0.0
 40
0.0
 40
0.0
 40
0.1288261196
 40
0.270570402
 40
0.417883499
 40
0.5623837965
 40
0.6962029769
 40
0.8135951602
 40
0.9130667325
 40
1.0
 40
1.0
 40
1.0
 40
1.0
 10
7.2317186898
 20
16.2982784282
 30
0.0
 10
7.2317186898
 20
16.3066912706
 30
0.0
 10
7.2340725715
 20
16.3243807589
 30
0.0
 10
7.2428567117
 20
16.3503535412
 30
0.0
 10
7.2563951313
 20
16.3753750153
 30
0.0
 10
7.2735900277
 20
16.3973869636
 30
0.0
 10
7.293066908
 20
16.4146341372
 30
0.0
 10
7.3133793839
 20
16.4257297004
 30
0.0
 10
7.3332607423
 20
16.4297113518
 30
0.0
 10
7.3456144658
 20
16.4265391271
 30
0.0
 10
7.3505297524
 20
16.423698499
 30
0.0
  0
SPLINE
  5
7C3
100
AcDbEntity
  8
0
100
AcDbSpline
 62
7
  6
CONTINUOUS
 70
0
 71
3
 72
9
 73
5
 74
0
 42
0.0000001
 43
0.0000001
 44
0.0000000001
 40
0.0
 40
0.0
 40
0.0
 40
0.0
 40
0.2665165216
 40
1.0
 40
1.0
 40
1.0
 40
1.0
 10
8.6399453712
 20
15.670477783
 30
0.0
 10
8.6420243031
 20
15.6706985925
 30
0.0
 10
8.6498583693
 20
15.671042702
 30
0.0
 10
8.6578715526
 20
15.6690048159
 30
0.0
 10
8.662853125
 20
15.6661258801
 30
0.0
  0
SPLINE
  5
7C4
100
AcDbEntity
  8
0
100
AcDbSpline
 62
7
  6
CONTINUOUS
 70
0
 71
3
 72
9
 73
5
 74
0
 42
0.0000001
 43
0.0000001
 44
0.0000000001
 40
0.0
 40
0.0
 40
0.0
 40
0.0
 40
0.5353640533
 40
1.0
 40
1.0
 40
1.0
 40
1.0
 10
5.233043945
 20
17.6819010779
 30
0.0
 10
5.2431860022
 20
17.6856584401
 30
0.0
 10
5.2634359116
 20
17.6901678282
 30
0.0
 10
5.2840154383
 20
17.6850688752
 30
0.0
 10
5.2921451609
 20
17.6803763609
 30
0.0
  0
SPLINE
  5
7C5
100
AcDbEntity
  8
0
100
AcDbSpline
 62
7
  6
CONTINUOUS
 70
0
 71
3
 72
11
 73
7
 74
0
 42
0.0000001
 43
0.0000001
 44
0.0000000001
 40
0.0
 40
0.0
 40
0.0
 40
0.0
 40
0.2372354855
 40
0.4999938245
 40
0.7627555204
 40
1.0
 40
1.0
 40
1.0
 40
1.0
 10
6.9274400631
 20
16.4514517351
 30
0.0
 10
6.9274400631
 20
16.4660554392
 30
0.0
 10
6.9329181109
 20
16.4968537797
 30
0.0
 10
6.9520097176
 20
16.5401310027
 30
0.0
 10
6.9799434734
 20
16.5783038384
 30
0.0
 10
7.0038769274
 20
16.5984478196
 30
0.0
 10
7.0165243819
 20
16.6057503014
 30
0.0
  0
SPLINE
  5
7C6
100
AcDbEntity
  8
0
100
AcDbSpline
 62
7
  6
CONTINUOUS
 70
0
 71
3
 72
11
 73
7
 74
0
 42
0.0000001
 43
0.0000001
 44
0.0000000001
 40
0.0
 40
0.0
 40
0.0
 40
0.0
 40
0.2897093899
 40
0.5490974323
 40
0.7822220259
 40
1.0
 40
1.0
 40
1.0
 40
1.0
 10
8.5086867233
 20
17.4673061361
 30
0.0
 10
8.5142151142
 20
17.4704981597
 30
0.0
 10
8.5252128185
 20
17.4757305095
 30
0.0
 10
8.5421165353
 20
17.4798131077
 30
0.0
 10
8.5579770521
 20
17.4794118955
 30
0.0
 10
8.5675258239
 20
17.475946485
 30
0.0
 10
8.5716815788
 20
17.4735469999
 30
0.0
  0
SPLINE
  5
7C7
100
AcDbEntity
  8
0
100
AcDbSpline
 62
7
  6
CONTINUOUS
 70
0
 71
3
 72
9
 73
5
 74
0
 42
0.0000001
 43
0.0000001
 44
0.0000000001
 40
0.0
 40
0.0
 40
0.0
 40
0.0
 40
0.5255708501
 40
1.0
 40
1.0
 40
1.0
 40
1.0
 10
5.6534579772
 20
17.981019044
 30
0.0
 10
5.6453697949
 20
17.9670099013
 30
0.0
 10
5.63283574
 20
17.9386105722
 30
0.0
 10
5.6273657843
 20
17.9078213321
 30
0.0
 10
5.6273657843
 20
17.8932190403
 30
0.0
  0
SPLINE
  5
7C8
100
AcDbEntity
  8
0
100
AcDbSpline
 62
7
  6
CONTINUOUS
 70
0
 71
3
 72
9
 73
5
 74
0
 42
0.0000001
 43
0.0000001
 44
0.0000000001
 40
0.0
 40
0.0
 40
0.0
 40
0.0
 40
0.4744353409
 40
1.0
 40
1.0
 40
1.0
 40
1.0
 10
5.7164501032
 20
18.0475176067
 30
0.0
 10
5.7038038773
 20
18.0402158343
 30
0.0
 10
5.6798742652
 20
18.0200834185
 30
0.0
 10
5.6615462618
 20
17.9950283639
 30
0.0
 10
5.6534579772
 20
17.981019044
 30
0.0
  0
SPLINE
  5
7C9
100
AcDbEntity
  8
0
100
AcDbSpline
 62
7
  6
CONTINUOUS
 70
0
 71
3
 72
9
 73
5
 74
0
 42
0.0000001
 43
0.0000001
 44
0.0000000001
 40
0.0
 40
0.0
 40
0.0
 40
0.0
 40
0.5255646591
 40
1.0
 40
1.0
 40
1.0
 40
1.0
 10
5.7794422291
 20
17.981019044
 30
0.0
 10
5.7713539445
 20
17.9950283639
 30
0.0
 10
5.7530259411
 20
18.0200834185
 30
0.0
 10
5.729096329
 20
18.0402158343
 30
0.0
 10
5.7164501032
 20
18.0475176067
 30
0.0
  0
SPLINE
  5
7CA
100
AcDbEntity
  8
0
100
AcDbSpline
 62
7
  6
CONTINUOUS
 70
0
 71
3
 72
9
 73
5
 74
0
 42
0.0000001
 43
0.0000001
 44
0.0000000001
 40
0.0
 40
0.0
 40
0.0
 40
0.0
 40
0.4744291499
 40
1.0
 40
1.0
 40
1.0
 40
1.0
 10
5.805534422
 20
17.8932190403
 30
0.0
 10
5.805534422
 20
17.9078213321
 30
0.0
 10
5.8000644664
 20
17.9386105722
 30
0.0
 10
5.7875304114
 20
17.9670099013
 30
0.0
 10
5.7794422291
 20
17.981019044
 30
0.0
  0
SPLINE
  5
7CB
100
AcDbEntity
  8
0
100
AcDbSpline
 62
7
  6
CONTINUOUS
 70
0
 71
3
 72
9
 73
5
 74
0
 42
0.0000001
 43
0.0000001
 44
0.0000000001
 40
0.0
 40
0.0
 40
0.0
 40
0.0
 40
0.5255649461
 40
1.0
 40
1.0
 40
1.0
 40
1.0
 10
5.7164501032
 20
17.8719134814
 30
0.0
 10
5.7326265904
 20
17.8719134814
 30
0.0
 10
5.76348876
 20
17.8752587605
 30
0.0
 10
5.7928882748
 20
17.8859173134
 30
0.0
 10
5.805534422
 20
17.8932190403
 30
0.0
  0
SPLINE
  5
7CC
100
AcDbEntity
  8
0
100
AcDbSpline
 62
7
  6
CONTINUOUS
 70
0
 71
3
 72
15
 73
11
 74
0
 42
0.0000001
 43
0.0000001
 44
0.0000000001
 40
0.0
 40
0.0
 40
0.0
 40
0.0
 40
0.0869329447
 40
0.1864104506
 40
0.3038078022
 40
0.4376252884
 40
0.5821258362
 40
0.7294424514
 40
0.8711765347
 40
1.0
 40
1.0
 40
1.0
 40
1.0
 10
8.6097016299
 20
15.7649358085
 30
0.0
 10
8.6018358072
 20
15.7694783408
 30
0.0
 10
8.5820710128
 20
15.7745565591
 30
0.0
 10
8.5502591693
 20
15.7681826861
 30
0.0
 10
8.5177593923
 20
15.7504287813
 30
0.0
 10
8.4865963609
 20
15.7228327343
 30
0.0
 10
8.4590844416
 20
15.6876135254
 30
0.0
 10
8.4374241938
 20
15.6475795287
 30
0.0
 10
8.423368168
 20
15.6060245377
 30
0.0
 10
8.4196043808
 20
15.5777224511
 30
0.0
 10
8.4196043808
 20
15.5642622132
 30
0.0
  0
SPLINE
  5
7CD
100
AcDbEntity
  8
0
100
AcDbSpline
 62
7
  6
CONTINUOUS
 70
0
 71
3
 72
11
 73
7
 74
0
 42
0.0000001
 43
0.0000001
 44
0.0000000001
 40
0.0
 40
0.0
 40
0.0
 40
0.0
 40
0.2177170367
 40
0.4509405014
 40
0.710293827
 40
1.0
 40
1.0
 40
1.0
 40
1.0
 10
5.7794452729
 20
17.5237497632
 30
0.0
 10
5.7835992543
 20
17.5261482257
 30
0.0
 10
5.791371803
 20
17.5326866811
 30
0.0
 10
5.7996540481
 20
17.5462162883
 30
0.0
 10
5.8045652634
 20
17.5628973774
 30
0.0
 10
5.805534422
 20
17.5750346687
 30
0.0
 10
5.805534422
 20
17.5814173992
 30
0.0
  0
SPLINE
  5
7CE
100
AcDbEntity
  8
0
100
AcDbSpline
 62
7
  6
CONTINUOUS
 70
0
 71
3
 72
11
 73
7
 74
0
 42
0.0000001
 43
0.0000001
 44
0.0000000001
 40
0.0
 40
0.0
 40
0.0
 40
0.0
 40
0.289706173
 40
0.5490594986
 40
0.7822829633
 40
1.0
 40
1.0
 40
1.0
 40
1.0
 10
5.6273657843
 20
17.5814173992
 30
0.0
 10
5.6273657843
 20
17.5750346687
 30
0.0
 10
5.6283349429
 20
17.5628973774
 30
0.0
 10
5.6332461582
 20
17.5462162883
 30
0.0
 10
5.6415284033
 20
17.5326866811
 30
0.0
 10
5.649300952
 20
17.5261482257
 30
0.0
 10
5.6534549334
 20
17.5237497632
 30
0.0
  0
SPLINE
  5
7CF
100
AcDbEntity
  8
0
100
AcDbSpline
 62
7
  6
CONTINUOUS
 70
0
 71
3
 72
9
 73
5
 74
0
 42
0.0000001
 43
0.0000001
 44
0.0000000001
 40
0.0
 40
0.0
 40
0.0
 40
0.0
 40
0.5255649461
 40
1.0
 40
1.0
 40
1.0
 40
1.0
 10
5.7164501032
 20
17.5601118403
 30
0.0
 10
5.7002736159
 20
17.5601118403
 30
0.0
 10
5.6694114463
 20
17.5634571194
 30
0.0
 10
5.6400119315
 20
17.5741156723
 30
0.0
 10
5.6273657843
 20
17.5814173992
 30
0.0
  0
SPLINE
  5
7D0
100
AcDbEntity
  8
0
100
AcDbSpline
 62
7
  6
CONTINUOUS
 70
0
 71
3
 72
9
 73
5
 74
0
 42
0.0000001
 43
0.0000001
 44
0.0000000001
 40
0.0
 40
0.0
 40
0.0
 40
0.0
 40
0.4744350539
 40
1.0
 40
1.0
 40
1.0
 40
1.0
 10
5.805534422
 20
17.5814173992
 30
0.0
 10
5.7928882748
 20
17.5741156723
 30
0.0
 10
5.76348876
 20
17.5634571194
 30
0.0
 10
5.7326265904
 20
17.5601118403
 30
0.0
 10
5.7164501032
 20
17.5601118403
 30
0.0
  0
SPLINE
  5
7D1
100
AcDbEntity
  8
0
100
AcDbSpline
 62
7
  6
CONTINUOUS
 70
0
 71
3
 72
11
 73
7
 74
0
 42
0.0000001
 43
0.0000001
 44
0.0000000001
 40
0.0
 40
0.0
 40
0.0
 40
0.0
 40
0.2177659019
 40
0.4508965229
 40
0.7103695015
 40
1.0
 40
1.0
 40
1.0
 40
1.0
 10
7.3505297524
 20
16.423698499
 30
0.0
 10
7.3537750167
 20
16.4218230053
 30
0.0
 10
7.3598519149
 20
16.4167216701
 30
0.0
 10
7.3663171015
 20
16.4061456149
 30
0.0
 10
7.3701551873
 20
16.3931158386
 30
0.0
 10
7.370912938
 20
16.3836326183
 30
0.0
 10
7.370912938
 20
16.3786474426
 30
0.0
  0
SPLINE
  5
7D2
100
AcDbEntity
  8
0
100
AcDbSpline
 62
7
  6
CONTINUOUS
 70
0
 71
3
 72
11
 73
7
 74
0
 42
0.0000001
 43
0.0000001
 44
0.0000000001
 40
0.0
 40
0.0
 40
0.0
 40
0.0
 40
0.289706173
 40
0.5490594986
 40
0.7822829633
 40
1.0
 40
1.0
 40
1.0
 40
1.0
 10
7.0471471166
 20
18.298309008
 30
0.0
 10
7.0471471166
 20
18.2919262775
 30
0.0
 10
7.046177958
 20
18.2797889861
 30
0.0
 10
7.0412667426
 20
18.2631078971
 30
0.0
 10
7.0329844976
 20
18.2495782898
 30
0.0
 10
7.0252119489
 20
18.2430398345
 30
0.0
 10
7.0210579675
 20
18.2406413719
 30
0.0
  0
SPLINE
  5
7D3
100
AcDbEntity
  8
0
100
AcDbSpline
 62
7
  6
CONTINUOUS
 70
0
 71
3
 72
11
 73
7
 74
0
 42
0.0000001
 43
0.0000001
 44
0.0000000001
 40
0.0
 40
0.0
 40
0.0
 40
0.0
 40
0.2177659019
 40
0.4508965229
 40
0.7103695015
 40
1.0
 40
1.0
 40
1.0
 40
1.0
 10
8.662853125
 20
17.1814175671
 30
0.0
 10
8.6660983893
 20
17.1795420734
 30
0.0
 10
8.6721752876
 20
17.1744407382
 30
0.0
 10
8.6786404741
 20
17.163864683
 30
0.0
 10
8.6824785599
 20
17.1508349067
 30
0.0
 10
8.6832363107
 20
17.1413516864
 30
0.0
 10
8.6832363107
 20
17.1363665107
 30
0.0
  0
SPLINE
  5
7D4
100
AcDbEntity
  8
0
100
AcDbSpline
 62
7
  6
CONTINUOUS
 70
0
 71
3
 72
11
 73
7
 74
0
 42
0.0000001
 43
0.0000001
 44
0.0000000001
 40
0.0
 40
0.0
 40
0.0
 40
0.0
 40
0.2177779293
 40
0.4509024963
 40
0.7102906093
 40
1.0
 40
1.0
 40
1.0
 40
1.0
 10
8.7665535264
 20
17.3610303797
 30
0.0
 10
8.7623977713
 20
17.3634298624
 30
0.0
 10
8.752849003
 20
17.3668952758
 30
0.0
 10
8.7369884854
 20
17.3672964879
 30
0.0
 10
8.7200847683
 20
17.3632138881
 30
0.0
 10
8.7090870617
 20
17.3579815395
 30
0.0
 10
8.7035586709
 20
17.3547895159
 30
0.0
  0
SPLINE
  5
7D5
100
AcDbEntity
  8
0
100
AcDbSpline
 62
7
  6
CONTINUOUS
 70
0
 71
3
 72
11
 73
7
 74
0
 42
0.0000001
 43
0.0000001
 44
0.0000000001
 40
0.0
 40
0.0
 40
0.0
 40
0.0
 40
0.2177822542
 40
0.4509305538
 40
0.71023828
 40
1.0
 40
1.0
 40
1.0
 40
1.0
 10
5.2921451609
 20
17.6803763609
 30
0.0
 10
5.2973396132
 20
17.6773780984
 30
0.0
 10
5.3070587363
 20
17.6692080794
 30
0.0
 10
5.3174020913
 20
17.652292309
 30
0.0
 10
5.3235505068
 20
17.6314463443
 30
0.0
 10
5.3247574885
 20
17.6162733156
 30
0.0
 10
5.3247574885
 20
17.6082933634
 30
0.0
  0
SPLINE
  5
7D6
100
AcDbEntity
  8
0
100
AcDbSpline
 62
7
  6
CONTINUOUS
 70
0
 71
3
 72
10
 73
6
 74
0
 42
0.0000001
 43
0.0000001
 44
0.0000000001
 40
0.0
 40
0.0
 40
0.0
 40
0.0
 40
0.2269563992
 40
0.4645570052
 40
1.0
 40
1.0
 40
1.0
 40
1.0
 10
8.0976655254
 20
16.1060402674
 30
0.0
 10
8.10287553
 20
16.1030310758
 30
0.0
 10
8.112721316
 20
16.0953316977
 30
0.0
 10
8.1287555219
 20
16.0739251994
 30
0.0
 10
8.1347583848
 20
16.0535753016
 30
0.0
 10
8.1367942323
 20
16.0395275134
 30
0.0
  0
SPLINE
  5
7D7
100
AcDbEntity
  8
0
100
AcDbSpline
 62
7
  6
CONTINUOUS
 70
0
 71
3
 72
11
 73
7
 74
0
 42
0.0000001
 43
0.0000001
 44
0.0000000001
 40
0.0
 40
0.0
 40
0.0
 40
0.0
 40
0.2177113973
 40
0.4509339897
 40
0.7102898065
 40
1.0
 40
1.0
 40
1.0
 40
1.0
 10
5.107816524
 20
19.8025905262
 30
0.0
 10
5.1119710037
 20
19.8049888072
 30
0.0
 10
5.1215206952
 20
19.8084507016
 30
0.0
 10
5.1373802609
 20
19.808857854
 30
0.0
 10
5.154283708
 20
19.8047694686
 30
0.0
 10
5.1652805196
 20
19.7995392339
 30
0.0
 10
5.17080865
 20
19.7963473608
 30
0.0
  0
SPLINE
  5
7D8
100
AcDbEntity
  8
0
100
AcDbSpline
 62
7
  6
CONTINUOUS
 70
0
 71
3
 72
11
 73
7
 74
0
 42
0.0000001
 43
0.0000001
 44
0.0000000001
 40
0.0
 40
0.0
 40
0.0
 40
0.0
 40
0.2177659019
 40
0.4508965229
 40
0.7103695015
 40
1.0
 40
1.0
 40
1.0
 40
1.0
 10
8.662853125
 20
15.6661258801
 30
0.0
 10
8.6660983893
 20
15.6642503865
 30
0.0
 10
8.6721752876
 20
15.6591490512
 30
0.0
 10
8.6786404741
 20
15.648572996
 30
0.0
 10
8.6824785599
 20
15.6355432197
 30
0.0
 10
8.6832363107
 20
15.6260599995
 30
0.0
 10
8.6832363107
 20
15.6210748238
 30
0.0
  0
SPLINE
  5
7D9
100
AcDbEntity
  8
0
100
AcDbSpline
 62
7
  6
CONTINUOUS
 70
0
 71
3
 72
9
 73
5
 74
0
 42
0.0000001
 43
0.0000001
 44
0.0000000001
 40
0.0
 40
0.0
 40
0.0
 40
0.0
 40
0.2308200539
 40
1.0
 40
1.0
 40
1.0
 40
1.0
 10
7.883202188
 20
15.7808633338
 30
0.0
 10
7.8873050605
 20
15.7802425211
 30
0.0
 10
7.9053108233
 20
15.7790301236
 30
0.0
 10
7.9233626913
 20
15.7834393162
 30
0.0
 10
7.936206516
 20
15.7885626506
 30
0.0
  0
SPLINE
  5
7DA
100
AcDbEntity
  8
0
100
AcDbSpline
 62
7
  6
CONTINUOUS
 70
0
 71
3
 72
11
 73
7
 74
0
 42
0.0000001
 43
0.0000001
 44
0.0000000001
 40
0.0
 40
0.0
 40
0.0
 40
0.0
 40
0.2177820768
 40
0.4509088945
 40
0.7103459338
 40
1.0
 40
1.0
 40
1.0
 40
1.0
 10
3.8662016101
 20
18.4450192975
 30
0.0
 10
3.862047617
 20
18.4474205933
 30
0.0
 10
3.8542698413
 20
18.453951365
 30
0.0
 10
3.8459938471
 20
18.4674876683
 30
0.0
 10
3.841080856
 20
18.4841655761
 30
0.0
 10
3.8401116365
 20
18.4963039311
 30
0.0
 10
3.8401116365
 20
18.5026855062
 30
0.0
  0
SPLINE
  5
7DB
100
AcDbEntity
  8
0
100
AcDbSpline
 62
7
  6
CONTINUOUS
 70
0
 71
3
 72
17
 73
13
 74
0
 42
0.0000001
 43
0.0000001
 44
0.0000000001
 40
0.0
 40
0.0
 40
0.0
 40
0.0
 40
0.0428595146
 40
0.0874888518
 40
0.1353229385
 40
0.1872877085
 40
0.304552809
 40
0.4382248267
 40
0.5825720419
 40
0.7297270783
 40
0.8713160734
 40
1.0
 40
1.0
 40
1.0
 40
1.0
 10
8.3742528351
 20
16.5850726509
 30
0.0
 10
8.3557617275
 20
16.5957468593
 30
0.0
 10
8.3150048163
 20
16.6126934176
 30
0.0
 10
8.2477220618
 20
16.6225503287
 30
0.0
 10
8.1754673674
 20
16.6172354648
 30
0.0
 10
8.0704837543
 20
16.589301832
 30
0.0
 10
7.9362741213
 20
16.5159204544
 30
0.0
 10
7.7879986677
 20
16.3845969185
 30
0.0
 10
7.6569312796
 20
16.2168311992
 30
0.0
 10
7.5537759322
 20
16.0261742049
 30
0.0
 10
7.486842969
 20
15.8282571478
 30
0.0
 10
7.4689056888
 20
15.6934650937
 30
0.0
 10
7.4689056888
 20
15.6293599766
 30
0.0
  0
SPLINE
  5
7DC
100
AcDbEntity
  8
0
100
AcDbSpline
 62
7
  6
CONTINUOUS
 70
0
 71
3
 72
11
 73
7
 74
0
 42
0.0000001
 43
0.0000001
 44
0.0000000001
 40
0.0
 40
0.0
 40
0.0
 40
0.0
 40
0.2897101935
 40
0.5490660103
 40
0.7822886027
 40
1.0
 40
1.0
 40
1.0
 40
1.0
 10
5.17080865
 20
19.7963473608
 30
0.0
 10
5.1763367803
 20
19.7995392339
 30
0.0
 10
5.1873335919
 20
19.8047694686
 30
0.0
 10
5.204237039
 20
19.808857854
 30
0.0
 10
5.2200966047
 20
19.8084507016
 30
0.0
 10
5.2296462962
 20
19.8049888072
 30
0.0
 10
5.2338007759
 20
19.8025905262
 30
0.0
  0
SPLINE
  5
7DD
100
AcDbEntity
  8
0
100
AcDbSpline
 62
7
  6
CONTINUOUS
 70
0
 71
3
 72
11
 73
7
 74
0
 42
0.0000001
 43
0.0000001
 44
0.0000000001
 40
0.0
 40
0.0
 40
0.0
 40
0.0
 40
0.2177214044
 40
0.4509472879
 40
0.7102993487
 40
1.0
 40
1.0
 40
1.0
 40
1.0
 10
3.8032117035
 20
18.9765933549
 30
0.0
 10
3.8032117035
 20
18.9717959234
 30
0.0
 10
3.8049878206
 20
18.9617939166
 30
0.0
 10
3.8125641574
 20
18.9478541539
 30
0.0
 10
3.8245558398
 20
18.9352582312
 30
0.0
 10
3.8345834744
 20
18.9283490772
 30
0.0
 10
3.8401116365
 20
18.9251571857
 30
0.0
  0
SPLINE
  5
7DE
100
AcDbEntity
  8
0
100
AcDbSpline
 62
7
  6
CONTINUOUS
 70
0
 71
3
 72
11
 73
7
 74
0
 42
0.0000001
 43
0.0000001
 44
0.0000000001
 40
0.0
 40
0.0
 40
0.0
 40
0.0
 40
0.2897006513
 40
0.5490527121
 40
0.7822785956
 40
1.0
 40
1.0
 40
1.0
 40
1.0
 10
7.0471471166
 20
18.6101106491
 30
0.0
 10
7.0526752787
 20
18.6133025406
 30
0.0
 10
7.0627029133
 20
18.6202116946
 30
0.0
 10
7.0746945957
 20
18.6328076173
 30
0.0
 10
7.0822709326
 20
18.64674738
 30
0.0
 10
7.0840470496
 20
18.6567493868
 30
0.0
 10
7.0840470496
 20
18.6615468183
 30
0.0
  0
SPLINE
  5
7DF
100
AcDbEntity
  8
0
100
AcDbSpline
 62
7
  6
CONTINUOUS
 70
0
 71
3
 72
9
 73
5
 74
0
 42
0.0000001
 43
0.0000001
 44
0.0000000001
 40
0.0
 40
0.0
 40
0.0
 40
0.0
 40
0.5255708501
 40
1.0
 40
1.0
 40
1.0
 40
1.0
 10
7.0210549237
 20
18.6979106528
 30
0.0
 10
7.029143106
 20
18.6839015101
 30
0.0
 10
7.0416771609
 20
18.6555021809
 30
0.0
 10
7.0471471166
 20
18.6247129409
 30
0.0
 10
7.0471471166
 20
18.6101106491
 30
0.0
  0
SPLINE
  5
7E0
100
AcDbEntity
  8
0
100
AcDbSpline
 62
7
  6
CONTINUOUS
 70
0
 71
3
 72
9
 73
5
 74
0
 42
0.0000001
 43
0.0000001
 44
0.0000000001
 40
0.0
 40
0.0
 40
0.0
 40
0.0
 40
0.4744353409
 40
1.0
 40
1.0
 40
1.0
 40
1.0
 10
6.9580627977
 20
18.7644092154
 30
0.0
 10
6.9707090235
 20
18.7571074431
 30
0.0
 10
6.9946386356
 20
18.7369750273
 30
0.0
 10
7.0129666391
 20
18.7119199726
 30
0.0
 10
7.0210549237
 20
18.6979106528
 30
0.0
  0
SPLINE
  5
7E1
100
AcDbEntity
  8
0
100
AcDbSpline
 62
7
  6
CONTINUOUS
 70
0
 71
3
 72
9
 73
5
 74
0
 42
0.0000001
 43
0.0000001
 44
0.0000000001
 40
0.0
 40
0.0
 40
0.0
 40
0.0
 40
0.5343586913
 40
1.0
 40
1.0
 40
1.0
 40
1.0
 10
4.5611378426
 20
19.4617953355
 30
0.0
 10
4.5531777948
 20
19.4646369059
 30
0.0
 10
4.537290975
 20
19.4679742672
 30
0.0
 10
4.5212234292
 20
19.4639009512
 30
0.0
 10
4.5148470169
 20
19.4602149819
 30
0.0
  0
SPLINE
  5
7E2
100
AcDbEntity
  8
0
100
AcDbSpline
 62
7
  6
CONTINUOUS
 70
0
 71
3
 72
11
 73
7
 74
0
 42
0.0000001
 43
0.0000001
 44
0.0000000001
 40
0.0
 40
0.0
 40
0.0
 40
0.0
 40
0.2177659019
 40
0.4508965229
 40
0.7103695015
 40
1.0
 40
1.0
 40
1.0
 40
1.0
 10
7.3505297524
 20
14.9084068121
 30
0.0
 10
7.3537750167
 20
14.9065313184
 30
0.0
 10
7.3598519149
 20
14.9014299832
 30
0.0
 10
7.3663171015
 20
14.890853928
 30
0.0
 10
7.3701551873
 20
14.8778241516
 30
0.0
 10
7.370912938
 20
14.8683409314
 30
0.0
 10
7.370912938
 20
14.8633557557
 30
0.0
  0
SPLINE
  5
7E3
100
AcDbEntity
  8
0
100
AcDbSpline
 62
7
  6
CONTINUOUS
 70
0
 71
3
 72
11
 73
7
 74
0
 42
0.0000001
 43
0.0000001
 44
0.0000000001
 40
0.0
 40
0.0
 40
0.0
 40
0.0
 40
0.2177674577
 40
0.4509484907
 40
0.7101916563
 40
1.0
 40
1.0
 40
1.0
 40
1.0
 10
7.5824604268
 20
15.3101698694
 30
0.0
 10
7.5577238381
 20
15.3244493622
 30
0.0
 10
7.5114283704
 20
15.3633551064
 30
0.0
 10
7.4621851654
 20
15.4439218122
 30
0.0
 10
7.4328866358
 20
15.5431973423
 30
0.0
 10
7.4271474143
 20
15.615459577
 30
0.0
 10
7.4271474143
 20
15.653470681
 30
0.0
  0
SPLINE
  5
7E4
100
AcDbEntity
  8
0
100
AcDbSpline
 62
7
  6
CONTINUOUS
 70
0
 71
3
 72
11
 73
7
 74
0
 42
0.0000001
 43
0.0000001
 44
0.0000000001
 40
0.0
 40
0.0
 40
0.0
 40
0.0
 40
0.2177113973
 40
0.4509339897
 40
0.7102898065
 40
1.0
 40
1.0
 40
1.0
 40
1.0
 10
3.8308484904
 20
18.1835615779
 30
0.0
 10
3.8350029702
 20
18.1859598588
 30
0.0
 10
3.8445526616
 20
18.1894217532
 30
0.0
 10
3.8604122273
 20
18.1898289057
 30
0.0
 10
3.8773156744
 20
18.1857405202
 30
0.0
 10
3.888312486
 20
18.1805102856
 30
0.0
 10
3.8938406164
 20
18.1773184124
 30
0.0
  0
SPLINE
  5
7E5
100
AcDbEntity
  8
0
100
AcDbSpline
 62
7
  6
CONTINUOUS
 70
0
 71
3
 72
11
 73
7
 74
0
 42
0.0000001
 43
0.0000001
 44
0.0000000001
 40
0.0
 40
0.0
 40
0.0
 40
0.0
 40
0.2177170367
 40
0.4509405014
 40
0.710293827
 40
1.0
 40
1.0
 40
1.0
 40
1.0
 10
3.7409259622
 20
16.8610229266
 30
0.0
 10
3.7367719808
 20
16.8634213892
 30
0.0
 10
3.7289994321
 20
16.8699598445
 30
0.0
 10
3.7207171871
 20
16.8834894518
 30
0.0
 10
3.7158059717
 20
16.9001705408
 30
0.0
 10
3.7148368131
 20
16.9123078322
 30
0.0
 10
3.7148368131
 20
16.9186905627
 30
0.0
  0
SPLINE
  5
7E6
100
AcDbEntity
  8
0
100
AcDbSpline
 62
7
  6
CONTINUOUS
 70
0
 71
3
 72
9
 73
5
 74
0
 42
0.0000001
 43
0.0000001
 44
0.0000000001
 40
0.0
 40
0.0
 40
0.0
 40
0.0
 40
0.5343586913
 40
1.0
 40
1.0
 40
1.0
 40
1.0
 10
4.6724932412
 20
19.5260905471
 30
0.0
 10
4.6645331934
 20
19.5289321174
 30
0.0
 10
4.6486463737
 20
19.5322694787
 30
0.0
 10
4.6325788278
 20
19.5281961628
 30
0.0
 10
4.6262024155
 20
19.5245101935
 30
0.0
  0
SPLINE
  5
7E7
100
AcDbEntity
  8
0
100
AcDbSpline
 62
7
  6
CONTINUOUS
 70
0
 71
3
 72
9
 73
5
 74
0
 42
0.0000001
 43
0.0000001
 44
0.0000000001
 40
0.0
 40
0.0
 40
0.0
 40
0.0
 40
0.4656539673
 40
1.0
 40
1.0
 40
1.0
 40
1.0
 10
3.6779389429
 20
17.2809640351
 30
0.0
 10
3.6779352116
 20
17.2735988643
 30
0.0
 10
3.6824407925
 20
17.2576477266
 30
0.0
 10
3.6932732252
 20
17.2455574271
 30
0.0
 10
3.6997134491
 20
17.2400843915
 30
0.0
  0
SPLINE
  5
7E8
100
AcDbEntity
  8
0
100
AcDbSpline
 62
7
  6
CONTINUOUS
 70
0
 71
3
 72
9
 73
5
 74
0
 42
0.0000001
 43
0.0000001
 44
0.0000000001
 40
0.0
 40
0.0
 40
0.0
 40
0.0
 40
0.5343586913
 40
1.0
 40
1.0
 40
1.0
 40
1.0
 10
4.7838486398
 20
19.5903857586
 30
0.0
 10
4.775888592
 20
19.593227329
 30
0.0
 10
4.7600017723
 20
19.5965646903
 30
0.0
 10
4.7439342264
 20
19.5924913743
 30
0.0
 10
4.7375578141
 20
19.588805405
 30
0.0
  0
SPLINE
  5
7E9
100
AcDbEntity
  8
0
100
AcDbSpline
 62
7
  6
CONTINUOUS
 70
0
 71
3
 72
9
 73
5
 74
0
 42
0.0000001
 43
0.0000001
 44
0.0000000001
 40
0.0
 40
0.0
 40
0.0
 40
0.0
 40
0.5343586913
 40
1.0
 40
1.0
 40
1.0
 40
1.0
 10
4.4497824439
 20
19.397500124
 30
0.0
 10
4.4418223962
 20
19.4003416943
 30
0.0
 10
4.4259355764
 20
19.4036790556
 30
0.0
 10
4.4098680306
 20
19.3996057397
 30
0.0
 10
4.4034916183
 20
19.3959197704
 30
0.0
  0
SPLINE
  5
7EA
100
AcDbEntity
  8
0
100
AcDbSpline
 62
7
  6
CONTINUOUS
 70
0
 71
3
 72
9
 73
5
 74
0
 42
0.0000001
 43
0.0000001
 44
0.0000000001
 40
0.0
 40
0.0
 40
0.0
 40
0.0
 40
0.5343586913
 40
1.0
 40
1.0
 40
1.0
 40
1.0
 10
4.8952040384
 20
19.6546809702
 30
0.0
 10
4.8872439906
 20
19.6575225405
 30
0.0
 10
4.8713571709
 20
19.6608599018
 30
0.0
 10
4.855289625
 20
19.6567865859
 30
0.0
 10
4.8489132127
 20
19.6531006166
 30
0.0
  0
SPLINE
  5
7EB
100
AcDbEntity
  8
0
100
AcDbSpline
 62
7
  6
CONTINUOUS
 70
0
 71
3
 72
9
 73
5
 74
0
 42
0.0000001
 43
0.0000001
 44
0.0000000001
 40
0.0
 40
0.0
 40
0.0
 40
0.0
 40
0.4656539673
 40
1.0
 40
1.0
 40
1.0
 40
1.0
 10
3.6779389429
 20
17.4416865306
 30
0.0
 10
3.6779352116
 20
17.4343213598
 30
0.0
 10
3.6824407925
 20
17.418370222
 30
0.0
 10
3.6932732252
 20
17.4062799226
 30
0.0
 10
3.6997134491
 20
17.4008068869
 30
0.0
  0
SPLINE
  5
7EC
100
AcDbEntity
  8
0
100
AcDbSpline
 62
7
  6
CONTINUOUS
 70
0
 71
3
 72
9
 73
5
 74
0
 42
0.0000001
 43
0.0000001
 44
0.0000000001
 40
0.0
 40
0.0
 40
0.0
 40
0.0
 40
0.4656539673
 40
1.0
 40
1.0
 40
1.0
 40
1.0
 10
3.6779389429
 20
17.602409026
 30
0.0
 10
3.6779352116
 20
17.5950438552
 30
0.0
 10
3.6824407925
 20
17.5790927174
 30
0.0
 10
3.6932732252
 20
17.567002418
 30
0.0
 10
3.6997134491
 20
17.5615293823
 30
0.0
  0
SPLINE
  5
7ED
100
AcDbEntity
  8
0
100
AcDbSpline
 62
7
  6
CONTINUOUS
 70
0
 71
3
 72
11
 73
7
 74
0
 42
0.0000001
 43
0.0000001
 44
0.0000000001
 40
0.0
 40
0.0
 40
0.0
 40
0.0
 40
0.2897006513
 40
0.5490527121
 40
0.7822785956
 40
1.0
 40
1.0
 40
1.0
 40
1.0
 10
3.7148368131
 20
16.9186905627
 30
0.0
 10
3.709308651
 20
16.9218824542
 30
0.0
 10
3.6992810163
 20
16.9287916082
 30
0.0
 10
3.687289334
 20
16.9413875309
 30
0.0
 10
3.6797129971
 20
16.9553272936
 30
0.0
 10
3.67793688
 20
16.9653293003
 30
0.0
 10
3.67793688
 20
16.9701267319
 30
0.0
  0
SPLINE
  5
7EE
100
AcDbEntity
  8
0
100
AcDbSpline
 62
7
  6
CONTINUOUS
 70
0
 71
3
 72
9
 73
5
 74
0
 42
0.0000001
 43
0.0000001
 44
0.0000000001
 40
0.0
 40
0.0
 40
0.0
 40
0.0
 40
0.4656539673
 40
1.0
 40
1.0
 40
1.0
 40
1.0
 10
3.6779389429
 20
17.7631315214
 30
0.0
 10
3.6779352116
 20
17.7557663506
 30
0.0
 10
3.6824407925
 20
17.7398152129
 30
0.0
 10
3.6932732252
 20
17.7277249134
 30
0.0
 10
3.6997134491
 20
17.7222518777
 30
0.0
  0
SPLINE
  5
7EF
100
AcDbEntity
  8
0
100
AcDbSpline
 62
7
  6
CONTINUOUS
 70
0
 71
3
 72
11
 73
7
 74
0
 42
0.0000001
 43
0.0000001
 44
0.0000000001
 40
0.0
 40
0.0
 40
0.0
 40
0.0
 40
0.2177214044
 40
0.4509472879
 40
0.7102993487
 40
1.0
 40
1.0
 40
1.0
 40
1.0
 10
7.0840470496
 20
18.3497451772
 30
0.0
 10
7.0840470496
 20
18.3449477456
 30
0.0
 10
7.0822709326
 20
18.3349457389
 30
0.0
 10
7.0746945957
 20
18.3210059762
 30
0.0
 10
7.0627029133
 20
18.3084100535
 30
0.0
 10
7.0526752787
 20
18.3015008995
 30
0.0
 10
7.0471471166
 20
18.298309008
 30
0.0
  0
SPLINE
  5
7F0
100
AcDbEntity
  8
0
100
AcDbSpline
 62
7
  6
CONTINUOUS
 70
0
 71
3
 72
11
 73
7
 74
0
 42
0.0000001
 43
0.0000001
 44
0.0000000001
 40
0.0
 40
0.0
 40
0.0
 40
0.0
 40
0.2177832642
 40
0.450910074
 40
0.710296197
 40
1.0
 40
1.0
 40
1.0
 40
1.0
 10
5.1857625735
 20
17.7937901961
 30
0.0
 10
5.181607339
 20
17.7961893807
 30
0.0
 10
5.1738331009
 20
17.8027254958
 30
0.0
 10
5.1655565465
 20
17.8162585378
 30
0.0
 10
5.160640779
 20
17.832936171
 30
0.0
 10
5.1596731101
 20
17.8450746265
 30
0.0
 10
5.1596731101
 20
17.8514572877
 30
0.0
  0
SPLINE
  5
7F1
100
AcDbEntity
  8
0
100
AcDbSpline
 62
7
  6
CONTINUOUS
 70
0
 71
3
 72
9
 73
5
 74
0
 42
0.0000001
 43
0.0000001
 44
0.0000000001
 40
0.0
 40
0.0
 40
0.0
 40
0.0
 40
0.4656539673
 40
1.0
 40
1.0
 40
1.0
 40
1.0
 10
3.6779389429
 20
17.9238540169
 30
0.0
 10
3.6779352116
 20
17.9164888461
 30
0.0
 10
3.6824407925
 20
17.9005377083
 30
0.0
 10
3.6932732252
 20
17.8884474089
 30
0.0
 10
3.6997134491
 20
17.8829743732
 30
0.0
  0
SPLINE
  5
7F2
100
AcDbEntity
  8
0
100
AcDbSpline
 62
7
  6
CONTINUOUS
 70
0
 71
3
 72
11
 73
7
 74
0
 42
0.0000001
 43
0.0000001
 44
0.0000000001
 40
0.0
 40
0.0
 40
0.0
 40
0.0
 40
0.2897101935
 40
0.5490660103
 40
0.7822886027
 40
1.0
 40
1.0
 40
1.0
 40
1.0
 10
3.803921132
 20
18.1254000291
 30
0.0
 10
3.7983930016
 20
18.1285919022
 30
0.0
 10
3.78739619
 20
18.1338221369
 30
0.0
 10
3.7704927429
 20
18.1379105224
 30
0.0
 10
3.7546331772
 20
18.1375033699
 30
0.0
 10
3.7450834858
 20
18.1340414755
 30
0.0
 10
3.740929006
 20
18.1316431946
 30
0.0
  0
SPLINE
  5
7F3
100
AcDbEntity
  8
0
100
AcDbSpline
 62
7
  6
CONTINUOUS
 70
0
 71
3
 72
9
 73
5
 74
0
 42
0.0000001
 43
0.0000001
 44
0.0000000001
 40
0.0
 40
0.0
 40
0.0
 40
0.0
 40
0.5255646591
 40
1.0
 40
1.0
 40
1.0
 40
1.0
 10
3.740929006
 20
18.0589014664
 30
0.0
 10
3.7490172906
 20
18.0729107863
 30
0.0
 10
3.767345294
 20
18.0979658409
 30
0.0
 10
3.7912749061
 20
18.1180982567
 30
0.0
 10
3.803921132
 20
18.1254000291
 30
0.0
  0
SPLINE
  5
7F4
100
AcDbEntity
  8
0
100
AcDbSpline
 62
7
  6
CONTINUOUS
 70
0
 71
3
 72
9
 73
5
 74
0
 42
0.0000001
 43
0.0000001
 44
0.0000000001
 40
0.0
 40
0.0
 40
0.0
 40
0.0
 40
0.4744291499
 40
1.0
 40
1.0
 40
1.0
 40
1.0
 10
3.7148368131
 20
17.9711014627
 30
0.0
 10
3.7148368131
 20
17.9857037545
 30
0.0
 10
3.7203067688
 20
18.0164929946
 30
0.0
 10
3.7328408237
 20
18.0448923237
 30
0.0
 10
3.740929006
 20
18.0589014664
 30
0.0
  0
SPLINE
  5
7F5
100
AcDbEntity
  8
0
100
AcDbSpline
 62
7
  6
CONTINUOUS
 70
0
 71
3
 72
9
 73
5
 74
0
 42
0.0000001
 43
0.0000001
 44
0.0000000001
 40
0.0
 40
0.0
 40
0.0
 40
0.0
 40
0.2452333569
 40
1.0
 40
1.0
 40
1.0
 40
1.0
 10
3.67793688
 20
18.022537632
 30
0.0
 10
3.67793688
 20
18.0209519585
 30
0.0
 10
3.6783044839
 20
18.0144875815
 30
0.0
 10
3.6801772731
 20
18.0081384361
 30
0.0
 10
3.6822296893
 20
18.0037106874
 30
0.0
  0
SPLINE
  5
7F6
100
AcDbEntity
  8
0
100
AcDbSpline
 62
7
  6
CONTINUOUS
 70
0
 71
3
 72
9
 73
5
 74
0
 42
0.0000001
 43
0.0000001
 44
0.0000000001
 40
0.0
 40
0.0
 40
0.0
 40
0.0
 40
0.237630344
 40
1.0
 40
1.0
 40
1.0
 40
1.0
 10
3.6822296893
 20
18.0037106874
 30
0.0
 10
3.6829511028
 20
18.002154357
 30
0.0
 10
3.6863208515
 20
17.9957600945
 30
0.0
 10
3.6909229188
 20
17.9900570706
 30
0.0
 10
3.6948155693
 20
17.9861667679
 30
0.0
  0
SPLINE
  5
7F7
100
AcDbEntity
  8
0
100
AcDbSpline
 62
7
  6
CONTINUOUS
 70
0
 71
3
 72
9
 73
5
 74
0
 42
0.0000001
 43
0.0000001
 44
0.0000000001
 40
0.0
 40
0.0
 40
0.0
 40
0.0
 40
0.2416030388
 40
1.0
 40
1.0
 40
1.0
 40
1.0
 10
3.7007169289
 20
17.9808215693
 30
0.0
 10
3.7017828374
 20
17.9799428231
 30
0.0
 10
3.7062780267
 20
17.9764072827
 30
0.0
 10
3.7110814883
 20
17.9732697402
 30
0.0
 10
3.7148368131
 20
17.9711014627
 30
0.0
  0
SPLINE
  5
7F8
100
AcDbEntity
  8
0
100
AcDbSpline
 62
7
  6
CONTINUOUS
 70
0
 71
3
 72
9
 73
5
 74
0
 42
0.0000001
 43
0.0000001
 44
0.0000000001
 40
0.0
 40
0.0
 40
0.0
 40
0.0
 40
0.5343586913
 40
1.0
 40
1.0
 40
1.0
 40
1.0
 10
4.3384270453
 20
19.3332049124
 30
0.0
 10
4.3304669976
 20
19.3360464828
 30
0.0
 10
4.3145801778
 20
19.3393838441
 30
0.0
 10
4.298512632
 20
19.3353105281
 30
0.0
 10
4.2921362197
 20
19.3316245588
 30
0.0
  0
SPLINE
  5
7F9
100
AcDbEntity
  8
0
100
AcDbSpline
 62
7
  6
CONTINUOUS
 70
0
 71
3
 72
11
 73
7
 74
0
 42
0.0000001
 43
0.0000001
 44
0.0000000001
 40
0.0
 40
0.0
 40
0.0
 40
0.0
 40
0.2897987053
 40
0.5490368432
 40
0.7822215231
 40
1.0
 40
1.0
 40
1.0
 40
1.0
 10
8.4196043808
 20
15.5642622132
 30
0.0
 10
8.4196043808
 20
15.5562821244
 30
0.0
 10
8.4208086514
 20
15.5411107763
 30
0.0
 10
8.4269696677
 20
15.5202708044
 30
0.0
 10
8.4373119489
 20
15.5033594123
 30
0.0
 10
8.4470270989
 20
15.4951866013
 30
0.0
 10
8.4522189652
 20
15.4921853948
 30
0.0
  0
SPLINE
  5
7FA
100
AcDbEntity
  8
0
100
AcDbSpline
 62
7
  6
CONTINUOUS
 70
0
 71
3
 72
9
 73
5
 74
0
 42
0.0000001
 43
0.0000001
 44
0.0000000001
 40
0.0
 40
0.0
 40
0.0
 40
0.0
 40
0.2662937031
 40
1.0
 40
1.0
 40
1.0
 40
1.0
 10
8.0950801027
 20
16.0633412099
 30
0.0
 10
8.0945884329
 20
16.0667850133
 30
0.0
 10
8.0922877683
 20
16.0796392117
 30
0.0
 10
8.0879977049
 20
16.092206435
 30
0.0
 10
8.0835066298
 20
16.1006738965
 30
0.0
  0
SPLINE
  5
7FB
100
AcDbEntity
  8
0
100
AcDbSpline
 62
7
  6
CONTINUOUS
 70
0
 71
3
 72
9
 73
5
 74
0
 42
0.0000001
 43
0.0000001
 44
0.0000000001
 40
0.0
 40
0.0
 40
0.0
 40
0.0
 40
0.2570028607
 40
1.0
 40
1.0
 40
1.0
 40
1.0
 10
8.0144725214
 20
16.1030436253
 30
0.0
 10
8.016425391
 20
16.1028275272
 30
0.0
 10
8.0239787815
 20
16.1016320918
 30
0.0
 10
8.0313023514
 20
16.0988966778
 30
0.0
 10
8.0362210986
 20
16.0960557559
 30
0.0
  0
SPLINE
  5
7FC
100
AcDbEntity
  8
0
100
AcDbSpline
 62
7
  6
CONTINUOUS
 70
0
 71
3
 72
11
 73
7
 74
0
 42
0.0000001
 43
0.0000001
 44
0.0000000001
 40
0.0
 40
0.0
 40
0.0
 40
0.0
 40
0.2177113973
 40
0.4509339897
 40
0.7102898065
 40
1.0
 40
1.0
 40
1.0
 40
1.0
 10
7.0210549237
 20
18.7706523809
 30
0.0
 10
7.0169004439
 20
18.7730506618
 30
0.0
 10
7.0073507525
 20
18.7765125562
 30
0.0
 10
6.9914911867
 20
18.7769197087
 30
0.0
 10
6.9745877397
 20
18.7728313232
 30
0.0
 10
6.963590928
 20
18.7676010886
 30
0.0
 10
6.9580627977
 20
18.7644092154
 30
0.0
  0
SPLINE
  5
7FD
100
AcDbEntity
  8
0
100
AcDbSpline
 62
7
  6
CONTINUOUS
 70
0
 71
3
 72
11
 73
7
 74
0
 42
0.0000001
 43
0.0000001
 44
0.0000000001
 40
0.0
 40
0.0
 40
0.0
 40
0.0
 40
0.2898060435
 40
0.54904794
 40
0.7822300513
 40
1.0
 40
1.0
 40
1.0
 40
1.0
 10
7.4689056888
 20
15.6293599766
 30
0.0
 10
7.4689056888
 20
15.5913491753
 30
0.0
 10
7.4746447557
 20
15.5190874024
 30
0.0
 10
7.5039430595
 20
15.4198121777
 30
0.0
 10
7.5531860218
 20
15.3392449692
 30
0.0
 10
7.59948184
 20
15.3003388426
 30
0.0
 10
7.6242187143
 20
15.2860591923
 30
0.0
  0
SPLINE
  5
7FE
100
AcDbEntity
  8
0
100
AcDbSpline
 62
7
  6
CONTINUOUS
 70
0
 71
3
 72
10
 73
6
 74
0
 42
0.0000001
 43
0.0000001
 44
0.0000000001
 40
0.0
 40
0.0
 40
0.0
 40
0.0
 40
0.5359220828
 40
0.7734254705
 40
1.0
 40
1.0
 40
1.0
 40
1.0
 10
7.9789616729
 20
15.7648523669
 30
0.0
 10
7.9656290977
 20
15.7594222482
 30
0.0
 10
7.9447493572
 20
15.7542351875
 30
0.0
 10
7.9178193148
 20
15.7573258043
 30
0.0
 10
7.9060776906
 20
15.7620498592
 30
0.0
 10
7.9008063976
 20
15.765092222
 30
0.0
  0
SPLINE
  5
7FF
100
AcDbEntity
  8
0
100
AcDbSpline
 62
7
  6
CONTINUOUS
 70
0
 71
3
 72
11
 73
7
 74
0
 42
0.0000001
 43
0.0000001
 44
0.0000000001
 40
0.0
 40
0.0
 40
0.0
 40
0.0
 40
0.2897006513
 40
0.5490527121
 40
0.7822785956
 40
1.0
 40
1.0
 40
1.0
 40
1.0
 10
3.8401116365
 20
18.5026855062
 30
0.0
 10
3.8345834744
 20
18.5058773978
 30
0.0
 10
3.8245558398
 20
18.5127865518
 30
0.0
 10
3.8125641574
 20
18.5253824745
 30
0.0
 10
3.8049878206
 20
18.5393222372
 30
0.0
 10
3.8032117035
 20
18.5493242439
 30
0.0
 10
3.8032117035
 20
18.5541216755
 30
0.0
  0
SPLINE
  5
800
100
AcDbEntity
  8
0
100
AcDbSpline
 62
7
  6
CONTINUOUS
 70
0
 71
3
 72
11
 73
7
 74
0
 42
0.0000001
 43
0.0000001
 44
0.0000000001
 40
0.0
 40
0.0
 40
0.0
 40
0.0
 40
0.2897038022
 40
0.5490898547
 40
0.7822166909
 40
1.0
 40
1.0
 40
1.0
 40
1.0
 10
7.1223120106
 20
14.6159899638
 30
0.0
 10
7.1223120106
 20
14.6096073026
 30
0.0
 10
7.1232796774
 20
14.5974688485
 30
0.0
 10
7.1281954461
 20
14.5807912163
 30
0.0
 10
7.1364720002
 20
14.5672581751
 30
0.0
 10
7.1442462376
 20
14.5607220554
 30
0.0
 10
7.1484014741
 20
14.5583228722
 30
0.0
  0
SPLINE
  5
801
100
AcDbEntity
  8
0
100
AcDbSpline
 62
7
  6
CONTINUOUS
 70
0
 71
3
 72
11
 73
7
 74
0
 42
0.0000001
 43
0.0000001
 44
0.0000000001
 40
0.0
 40
0.0
 40
0.0
 40
0.0
 40
0.2372443756
 40
0.500006038
 40
0.7627644105
 40
1.0
 40
1.0
 40
1.0
 40
1.0
 10
7.2113963295
 20
16.4932336812
 30
0.0
 10
7.1987488805
 20
16.4859312026
 30
0.0
 10
7.1748154319
 20
16.465787229
 30
0.0
 10
7.1468816759
 20
16.4276144012
 30
0.0
 10
7.1277900624
 20
16.3843371743
 30
0.0
 10
7.1223120106
 20
16.3535388254
 30
0.0
 10
7.1223120106
 20
16.3389351149
 30
0.0
  0
SPLINE
  5
802
100
AcDbEntity
  8
0
100
AcDbSpline
 62
7
  6
CONTINUOUS
 70
0
 71
3
 72
11
 73
7
 74
0
 42
0.0000001
 43
0.0000001
 44
0.0000000001
 40
0.0
 40
0.0
 40
0.0
 40
0.0
 40
0.2361405672
 40
0.4976618571
 40
0.7604423006
 40
1.0
 40
1.0
 40
1.0
 40
1.0
 10
3.8938406164
 20
18.1773184124
 30
0.0
 10
3.909248385
 20
18.1862146649
 30
0.0
 10
3.9384867955
 20
18.2106175268
 30
0.0
 10
3.9729446859
 20
18.2569011306
 30
0.0
 10
3.997021426
 20
18.3096257722
 30
0.0
 10
4.0045381597
 20
18.3472895384
 30
0.0
 10
4.0051171785
 20
18.3653293523
 30
0.0
  0
SPLINE
  5
803
100
AcDbEntity
  8
0
100
AcDbSpline
 62
7
  6
CONTINUOUS
 70
0
 71
3
 72
9
 73
5
 74
0
 42
0.0000001
 43
0.0000001
 44
0.0000000001
 40
0.0
 40
0.0
 40
0.0
 40
0.0
 40
0.2460721783
 40
1.0
 40
1.0
 40
1.0
 40
1.0
 10
7.8787339019
 20
15.823297496
 30
0.0
 10
7.8771029136
 20
15.8242395062
 30
0.0
 10
7.8706818502
 20
15.8284222815
 30
0.0
 10
7.8652096182
 20
15.8340082692
 30
0.0
 10
7.8617936847
 20
15.8386593368
 30
0.0
  0
SPLINE
  5
804
100
AcDbEntity
  8
0
100
AcDbSpline
 62
7
  6
CONTINUOUS
 70
0
 71
3
 72
17
 73
13
 74
0
 42
0.0000001
 43
0.0000001
 44
0.0000000001
 40
0.0
 40
0.0
 40
0.0
 40
0.0
 40
0.1286820935
 40
0.2702706857
 40
0.4174271072
 40
0.5617767614
 40
0.6954500978
 40
0.8127147814
 40
0.8646789264
 40
0.9125122627
 40
0.957140939
 40
1.0
 40
1.0
 40
1.0
 40
1.0
 10
7.4271474143
 20
15.653470681
 30
0.0
 10
7.4271474143
 20
15.7175748851
 30
0.0
 10
7.445084255
 20
15.8523658322
 30
0.0
 10
7.5120166389
 20
16.0502826423
 30
0.0
 10
7.6151723847
 20
16.2409413932
 30
0.0
 10
7.746241549
 20
16.4087090412
 30
0.0
 10
7.8945186666
 20
16.5400332886
 30
0.0
 10
8.0287288838
 20
16.6134139217
 30
0.0
 10
8.1337118066
 20
16.6413466806
 30
0.0
 10
8.2059655246
 20
16.6466609089
 30
0.0
 10
8.2732472744
 20
16.6368038063
 30
0.0
 10
8.314003664
 20
16.6198574822
 30
0.0
 10
8.3324945736
 20
16.6091833825
 30
0.0
  0
SPLINE
  5
805
100
AcDbEntity
  8
0
100
AcDbSpline
 62
7
  6
CONTINUOUS
 70
0
 71
3
 72
15
 73
11
 74
0
 42
0.0000001
 43
0.0000001
 44
0.0000000001
 40
0.0
 40
0.0
 40
0.0
 40
0.0
 40
0.1288261196
 40
0.270570402
 40
0.417883499
 40
0.5623837965
 40
0.6962029769
 40
0.8135951602
 40
0.9130667325
 40
1.0
 40
1.0
 40
1.0
 40
1.0
 10
7.370912938
 20
14.8633557557
 30
0.0
 10
7.370912938
 20
14.8549429132
 30
0.0
 10
7.3685590563
 20
14.8372534249
 30
0.0
 10
7.3597749161
 20
14.8112806426
 30
0.0
 10
7.3462364965
 20
14.7862591685
 30
0.0
 10
7.3290416001
 20
14.7642472202
 30
0.0
 10
7.3095647198
 20
14.7470000466
 30
0.0
 10
7.2892522439
 20
14.7359044834
 30
0.0
 10
7.2693708855
 20
14.731922832
 30
0.0
 10
7.257017162
 20
14.7350950567
 30
0.0
 10
7.2521018754
 20
14.7379356848
 30
0.0
  0
SPLINE
  5
806
100
AcDbEntity
  8
0
100
AcDbSpline
 62
7
  6
CONTINUOUS
 70
0
 71
3
 72
15
 73
11
 74
0
 42
0.0000001
 43
0.0000001
 44
0.0000000001
 40
0.0
 40
0.0
 40
0.0
 40
0.0
 40
0.1288261196
 40
0.270570402
 40
0.417883499
 40
0.5623837965
 40
0.6962029769
 40
0.8135951602
 40
0.9130667325
 40
1.0
 40
1.0
 40
1.0
 40
1.0
 10
8.6832363107
 20
17.1363665107
 30
0.0
 10
8.6832363107
 20
17.1279536682
 30
0.0
 10
8.680882429
 20
17.1102641799
 30
0.0
 10
8.6720982888
 20
17.0842913976
 30
0.0
 10
8.6585598692
 20
17.0592699235
 30
0.0
 10
8.6413649728
 20
17.0372579753
 30
0.0
 10
8.6218880924
 20
17.0200108016
 30
0.0
 10
8.6015756165
 20
17.0089152384
 30
0.0
 10
8.5816942582
 20
17.004933587
 30
0.0
 10
8.5693405347
 20
17.0081058118
 30
0.0
 10
8.564425248
 20
17.0109464399
 30
0.0
  0
SPLINE
  5
807
100
AcDbEntity
  8
0
100
AcDbSpline
 62
7
  6
CONTINUOUS
 70
0
 71
3
 72
15
 73
11
 74
0
 42
0.0000001
 43
0.0000001
 44
0.0000000001
 40
0.0
 40
0.0
 40
0.0
 40
0.0
 40
0.1288261196
 40
0.270570402
 40
0.417883499
 40
0.5623837965
 40
0.6962029769
 40
0.8135951602
 40
0.9130667325
 40
1.0
 40
1.0
 40
1.0
 40
1.0
 10
7.370912938
 20
16.3786474426
 30
0.0
 10
7.370912938
 20
16.3702346001
 30
0.0
 10
7.3685590563
 20
16.3525451118
 30
0.0
 10
7.3597749161
 20
16.3265723295
 30
0.0
 10
7.3462364965
 20
16.3015508554
 30
0.0
 10
7.3290416001
 20
16.2795389072
 30
0.0
 10
7.3095647198
 20
16.2622917335
 30
0.0
 10
7.2892522439
 20
16.2511961703
 30
0.0
 10
7.2693708855
 20
16.2472145189
 30
0.0
 10
7.257017162
 20
16.2503867437
 30
0.0
 10
7.2521018754
 20
16.2532273718
 30
0.0
  0
SPLINE
  5
808
100
AcDbEntity
  8
0
100
AcDbSpline
 62
7
  6
CONTINUOUS
 70
0
 71
3
 72
15
 73
11
 74
0
 42
0.0000001
 43
0.0000001
 44
0.0000000001
 40
0.0
 40
0.0
 40
0.0
 40
0.0
 40
0.1288261196
 40
0.270570402
 40
0.417883499
 40
0.5623837965
 40
0.6962029769
 40
0.8135951602
 40
0.9130667325
 40
1.0
 40
1.0
 40
1.0
 40
1.0
 10
8.6832363107
 20
15.6210748238
 30
0.0
 10
8.6832363107
 20
15.6126619813
 30
0.0
 10
8.680882429
 20
15.594972493
 30
0.0
 10
8.6720982888
 20
15.5689997107
 30
0.0
 10
8.6585598692
 20
15.5439782366
 30
0.0
 10
8.6413649728
 20
15.5219662883
 30
0.0
 10
8.6218880924
 20
15.5047191147
 30
0.0
 10
8.6015756165
 20
15.4936235515
 30
0.0
 10
8.5816942582
 20
15.4896419001
 30
0.0
 10
8.5693405347
 20
15.4928141248
 30
0.0
 10
8.564425248
 20
15.4956547529
 30
0.0
  0
SPLINE
  5
809
100
AcDbEntity
  8
0
100
AcDbSpline
 62
7
  6
CONTINUOUS
 70
0
 71
3
 72
11
 73
7
 74
0
 42
0.0000001
 43
0.0000001
 44
0.0000000001
 40
0.0
 40
0.0
 40
0.0
 40
0.0
 40
0.2896575072
 40
0.5490969733
 40
0.7822204266
 40
1.0
 40
1.0
 40
1.0
 40
1.0
 10
5.1596731101
 20
17.7407872494
 30
0.0
 10
5.1596731101
 20
17.7344056452
 30
0.0
 10
5.1606425748
 20
17.7222672675
 30
0.0
 10
5.1655556856
 20
17.7055894558
 30
0.0
 10
5.1738319483
 20
17.6920535484
 30
0.0
 10
5.1816095496
 20
17.6855229435
 30
0.0
 10
5.1857634498
 20
17.6831216674
 30
0.0
  0
SPLINE
  5
80A
100
AcDbEntity
  8
0
100
AcDbSpline
 62
7
  6
CONTINUOUS
 70
0
 71
3
 72
9
 73
5
 74
0
 42
0.0000001
 43
0.0000001
 44
0.0000000001
 40
0.0
 40
0.0
 40
0.0
 40
0.0
 40
0.5343586913
 40
1.0
 40
1.0
 40
1.0
 40
1.0
 10
4.2270716467
 20
19.2689097009
 30
0.0
 10
4.219111599
 20
19.2717512713
 30
0.0
 10
4.2032247792
 20
19.2750886325
 30
0.0
 10
4.1871572334
 20
19.2710153166
 30
0.0
 10
4.1807808211
 20
19.2673293473
 30
0.0
  0
SPLINE
  5
80B
100
AcDbEntity
  8
0
100
AcDbSpline
 62
7
  6
CONTINUOUS
 70
0
 71
3
 72
11
 73
7
 74
0
 42
0.0000001
 43
0.0000001
 44
0.0000000001
 40
0.0
 40
0.0
 40
0.0
 40
0.0
 40
0.2897101935
 40
0.5490660103
 40
0.7822886027
 40
1.0
 40
1.0
 40
1.0
 40
1.0
 10
3.9291959554
 20
19.079455752
 30
0.0
 10
3.9236678251
 20
19.0826476252
 30
0.0
 10
3.9126710135
 20
19.0878778598
 30
0.0
 10
3.8957675664
 20
19.0919662453
 30
0.0
 10
3.8799080006
 20
19.0915590928
 30
0.0
 10
3.8703583092
 20
19.0880971984
 30
0.0
 10
3.8662038294
 20
19.0856989175
 30
0.0
  0
SPLINE
  5
80C
100
AcDbEntity
  8
0
100
AcDbSpline
 62
7
  6
CONTINUOUS
 70
0
 71
3
 72
9
 73
5
 74
0
 42
0.0000001
 43
0.0000001
 44
0.0000000001
 40
0.0
 40
0.0
 40
0.0
 40
0.0
 40
0.5255646591
 40
1.0
 40
1.0
 40
1.0
 40
1.0
 10
3.8662038294
 20
19.0129571894
 30
0.0
 10
3.874292114
 20
19.0269665092
 30
0.0
 10
3.8926201175
 20
19.0520215638
 30
0.0
 10
3.9165497296
 20
19.0721539797
 30
0.0
 10
3.9291959554
 20
19.079455752
 30
0.0
  0
SPLINE
  5
80D
100
AcDbEntity
  8
0
100
AcDbSpline
 62
7
  6
CONTINUOUS
 70
0
 71
3
 72
9
 73
5
 74
0
 42
0.0000001
 43
0.0000001
 44
0.0000000001
 40
0.0
 40
0.0
 40
0.0
 40
0.0
 40
0.4744291499
 40
1.0
 40
1.0
 40
1.0
 40
1.0
 10
3.8401116365
 20
18.9251571857
 30
0.0
 10
3.8401116365
 20
18.9397594775
 30
0.0
 10
3.8455815922
 20
18.9705487175
 30
0.0
 10
3.8581156471
 20
18.9989480467
 30
0.0
 10
3.8662038294
 20
19.0129571894
 30
0.0
  0
SPLINE
  5
80E
100
AcDbEntity
  8
0
100
AcDbSpline
 62
7
  6
CONTINUOUS
 70
0
 71
3
 72
9
 73
5
 74
0
 42
0.0000001
 43
0.0000001
 44
0.0000000001
 40
0.0
 40
0.0
 40
0.0
 40
0.0
 40
0.4744350539
 40
1.0
 40
1.0
 40
1.0
 40
1.0
 10
5.6273657843
 20
17.8932190403
 30
0.0
 10
5.6400119315
 20
17.8859173134
 30
0.0
 10
5.6694114463
 20
17.8752587605
 30
0.0
 10
5.7002736159
 20
17.8719134814
 30
0.0
 10
5.7164501032
 20
17.8719134814
 30
0.0
  0
ENDSEC
  0
SECTION
  2
OBJECTS
  0
DICTIONARY
  5
C
100
AcDbDictionary
280
0
281
1
  3
ACAD_GROUP
350
D
  3
ACAD_MLINESTYLE
350
17
  3
ACAD_LAYOUT
350
1A
  3
ACAD_PLOTSETTINGS
350
19
  3
ACAD_PLOTSTYLENAME
350
E
  3
ACAD_TABLESTYLE
350
       80F
  0
DICTIONARY
  5
D
102
{ACAD_REACTORS
330
C
102
}
100
AcDbDictionary
280
0
281
1
  0
ACDBDICTIONARYWDFLT
  5
E
102
{ACAD_REACTORS
330
C
102
}
100
AcDbDictionary
281
1
  3
Normal
350
F
100
AcDbDictionaryWithDefault
340
F
  0
DICTIONARY
  5
17
102
{ACAD_REACTORS
330
C
102
}
100
AcDbDictionary
280
0
281
1
  3
Standard
350
18
  0
DICTIONARY
  5
80F
330
C
100
AcDbDictionary
281
1
  3
Standard
350
       812
  3
Standard1
350
       813
  0
DICTIONARY
  5
19
102
{ACAD_REACTORS
330
C
102
}
100
AcDbDictionary
281
1
  0
DICTIONARY
  5
1A
102
{ACAD_REACTORS
330
C
102
}
100
AcDbDictionary
281
1
  3
Model
350
810
  3
Layout1
350
811
  0
ACDBPLACEHOLDER
  5
F
102
{ACAD_REACTORS
330
E
102
}
  0
MLINESTYLE
  5
18
102
{ACAD_REACTORS
330
17
102
}
100
AcDbMlineStyle
  2
STANDARD
 70
0
  3

 62
256
 51
90.0
 52
90.0
 71
2
 49
0.5
 62
256
  6
BYLAYER
 49
-0.5
 62
256
  6
BYLAYER
  0
LAYOUT
  5
810
102
{ACAD_REACTORS
330
1A
102
}
100
AcDbPlotSettings
  1

  2
none_device
  4
ANSI_D_(34.00_x_22.00_Inches)
  6

 40
0.0
 41
0.0
 42
0.0
 43
0.0
 44
863.6
 45
558.8
 46
0.0
 47
0.0
 48
0.0
 49
0.0
140
0.0
141
0.0
142
1.0
143
1.0
 70
1024
 72
0
 73
0
 74
0
  7

 75
0
147
1.0
148
0.0
149
0.0
100
AcDbLayout
  1
Model
 70
0
 71
0
 10
0.0
 20
0.0
 11
34.0
 21
22.0
 12
0.0
 22
0.0
 32
0.0
 14
0.0
 24
0.0
 34
0.0
 15
0.0
 25
0.0
 35
0.0
146
0.0
 13
0.0
 23
0.0
 33
0.0
 16
1.0
 26
0.0
 36
0.0
 17
0.0
 27
1.0
 37
0.0
 76
0
330
205
345
0
346
0
  0
LAYOUT
  5
811
102
{ACAD_REACTORS
330
1A
102
}
100
AcDbPlotSettings
  1

  2
none_device
  4
ANSI_D_(34.00_x_22.00_Inches)
  6

 40
0.0
 41
0.0
 42
0.0
 43
0.0
 44
863.6
 45
558.8
 46
0.0
 47
0.0
 48
0.0
 49
0.0
140
0.0
141
0.0
142
1.0
143
1.0
 70
0
 72
0
 73
0
 74
0
  7

 75
0
147
1.0
148
0.0
149
0.0
100
AcDbLayout
  1
Layout1
 70
0
 71
1
 10
0.0
 20
0.0
 11
34.0
 21
22.0
 12
0.0
 22
0.0
 32
0.0
 14
0.0
 24
0.0
 34
0.0
 15
0.0
 25
0.0
 35
0.0
146
0.0
 13
0.0
 23
0.0
 33
0.0
 16
1.0
 26
0.0
 36
0.0
 17
0.0
 27
1.0
 37
0.0
 76
0
330
206
345
0
346
0
  0
TABLESTYLE
  5
812
102
{ACAD_REACTORS
330
80F
330
398
330
399
330
39A
330
39B
330
39C
330
39D
102
}
330
80F
100
AcDbTableStyle
  3
Standard
 70
0
 71
0
 40
0.06
 41
0.06
280
1
281
1
  7
Standard
140
0.18
170
1
 62
0
 63
7
283
0
  7
Standard
140
0.18
170
1
 62
0
 63
7
283
0
  7
Standard
140
0.18
170
1
 62
0
 63
7
283
0
  0
TABLESTYLE
  5
813
102
{ACAD_REACTORS
330
80F
102
}
330
80F
100
AcDbTableStyle
  3
Standard1
 70
1
 71
0
 40
0.06
 41
0.06
280
1
281
1
  7
Standard
140
0.18
170
1
 62
0
 63
7
283
0
  7
Standard
140
0.18
170
1
 62
0
 63
7
283
0
  7
Standard
140
0.18
170
1
 62
0
 63
7
283
0
  0
ENDSEC
  0
EOF
